Поиск

(Soul-Jazz) [CD] Doug Carn - Spirit of the New Land - 1972 (2005 Japan Edition), FLAC (tracks+.cue), lossless

(Soul-Jazz) [CD] Doug Carn - Spirit of the New Land - 1972 (2005 Japan Edition), FLAC (tracks+.cue), lossless
Треклист:
Doug Carn - Spirit of the New Land
Жанр: Soul-Jazz
Носитель: CD
Страна-производитель диска (релиза): Япония
Год издания: 1972 (2005)
Издатель (лейбл): P-Vine Records
Номер по каталогу: PCD-22093
Страна исполнителя (группы): США
Аудиокодек: FLAC (*.flac)
Тип рипа: tracks+.cue
Битрейт аудио: lossless
Продолжительность: 53:00
Источник (релизер): semajames (what)
Наличие сканов в содержимом раздачи: нет
Треклист:
01. Dwell Like a Ghost (D.Carn) - 1:42
02. My Spirit (D.Carn) - 10:12
03. Arise and Shine (D.Carn) - 9:44
04. Blue in Green (Davis) - 5:14
05. Trance Dance (D.Carn) - 8:41
06. Search for the New Land (Morgan) - 12:02
07. New Moon (D.Carn) - 5:25
Состав:
Doug Carn - leader, piano, electric piano, organ
Jean Carn - vocals
George Harper - tenor saxophone, soprano saxophone, bass clarinet, flute, reed flute
Charles Tolliver - flugelhorn
Garnett Brown - trombone
Earl McIntyre - tuba
Al Mouzon - drums
Recorded in Bell Studios, New York.
 
Лог создания рипа
Exact Audio Copy V1.0 beta 1 from 15. November 2010
EAC extraction logfile from 12. December 2010, 19:28
Doug Carn / Spirit Of The New Land
Used drive : DVD-16X DVD-ROM BDV316G Adapter: 2 ID: 1
Read mode : Secure
Utilize accurate stream : Yes
Defeat audio cache : Yes
Make use of C2 pointers : No
Read offset correction : 6
Overread into Lead-In and Lead-Out : No
Fill up missing offset samples with silence : Yes
Delete leading and trailing silent blocks : No
Null samples used in CRC calculations : Yes
Used interface : Installed external ASPI interface
Gap handling : Appended to previous track
Used output format : User Defined Encoder
Selected bitrate : 128 kBit/s
Quality : High
Add ID3 tag : No
Command line compressor : C:\Program Files\Exact Audio Copy\Flac\flac.exe
Additional command line options : -V -8 -T "artist=%a" -T "title=%t" -T "album=%g" -T "date=%y" -T "tracknumber=%n" -T "genre=%m" %s
TOC of the extracted CD
Track | Start | Length | Start sector | End sector
---------------------------------------------------------
1 | 0:00.45 | 1:41.74 | 45 | 7693
2 | 1:42.44 | 10:12.07 | 7694 | 53600
3 | 11:54.51 | 9:43.64 | 53601 | 97389
4 | 21:38.40 | 5:13.50 | 97390 | 120914
5 | 26:52.15 | 8:40.49 | 120915 | 159963
6 | 35:32.64 | 12:02.07 | 159964 | 214120
7 | 47:34.71 | 5:25.11 | 214121 | 238506
Track 1
Filename C:\WhatCD\Doug Carn - Spirit Of The New Land (1972) - FLAC\01 - Dwell Like A Ghost.wav
Pre-gap length 0:00:02.60
Peak level 70.7 %
Extraction speed 3.7 X
Track quality 100.0 %
Test CRC E1622C50
Copy CRC E1622C50
Track not present in AccurateRip database
Copy OK
Track 2
Filename C:\WhatCD\Doug Carn - Spirit Of The New Land (1972) - FLAC\02 - My Spirit.wav
Peak level 86.8 %
Extraction speed 5.6 X
Track quality 100.0 %
Test CRC FDB5EAE4
Copy CRC FDB5EAE4
Track not present in AccurateRip database
Copy OK
Track 3
Filename C:\WhatCD\Doug Carn - Spirit Of The New Land (1972) - FLAC\03 - Arise And Shine.wav
Peak level 78.0 %
Extraction speed 6.6 X
Track quality 100.0 %
Test CRC ED8F6838
Copy CRC ED8F6838
Track not present in AccurateRip database
Copy OK
Track 4
Filename C:\WhatCD\Doug Carn - Spirit Of The New Land (1972) - FLAC\04 - Blue In Green.wav
Peak level 59.8 %
Extraction speed 6.9 X
Track quality 100.0 %
Test CRC 64DD5123
Copy CRC 64DD5123
Track not present in AccurateRip database
Copy OK
Track 5
Filename C:\WhatCD\Doug Carn - Spirit Of The New Land (1972) - FLAC\05 - Trance Dance.wav
Peak level 85.3 %
Extraction speed 6.9 X
Track quality 99.9 %
Test CRC FC274D0F
Copy CRC FC274D0F
Track not present in AccurateRip database
Copy OK
Track 6
Filename C:\WhatCD\Doug Carn - Spirit Of The New Land (1972) - FLAC\06 - Search For The New Land.wav
Peak level 76.1 %
Extraction speed 8.6 X
Track quality 100.0 %
Test CRC FA9B697F
Copy CRC FA9B697F
Track not present in AccurateRip database
Copy OK
Track 7
Filename C:\WhatCD\Doug Carn - Spirit Of The New Land (1972) - FLAC\07 - New Moon.wav
Peak level 80.1 %
Extraction speed 8.6 X
Track quality 100.0 %
Test CRC 3DE3C0F5
Copy CRC 3DE3C0F5
Track not present in AccurateRip database
Copy OK
None of the tracks are present in the AccurateRip database
No errors occurred
End of status report
==== Log checksum A129D67642E0D34296021EBCB7EA990C80DAADAFD5A9C0491A102755F8CF9519 ====
 
Содержание индексной карты (.CUE)
REM GENRE Jazz
REM DATE 1972
REM DISCID 440C6C07
REM COMMENT "ExactAudioCopy v1.0b1"
PERFORMER "Doug Carn"
TITLE "Spirit of the New Land"
FILE "01 - Dwell Like a Ghost.wav" WAVE
TRACK 01 AUDIO
TITLE "Dwell Like a Ghost"
PERFORMER "Doug Carn"
PREGAP 00:00:45
INDEX 01 00:00:00
FILE "02 - My Spirit.wav" WAVE
TRACK 02 AUDIO
TITLE "My Spirit"
PERFORMER "Doug Carn"
INDEX 01 00:00:00
FILE "03 - Arise and Shine.wav" WAVE
TRACK 03 AUDIO
TITLE "Arise and Shine"
PERFORMER "Doug Carn"
INDEX 01 00:00:00
FILE "04 - Blue in Green.wav" WAVE
TRACK 04 AUDIO
TITLE "Blue in Green"
PERFORMER "Doug Carn"
INDEX 01 00:00:00
FILE "05 - Trance Dance.wav" WAVE
TRACK 05 AUDIO
TITLE "Trance Dance"
PERFORMER "Doug Carn"
INDEX 01 00:00:00
FILE "06 - Search for the New Land.wav" WAVE
TRACK 06 AUDIO
TITLE "Search for the New Land"
PERFORMER "Doug Carn"
INDEX 01 00:00:00
FILE "07 - New Moon.wav" WAVE
TRACK 07 AUDIO
TITLE "New Moon"
PERFORMER "Doug Carn"
INDEX 01 00:00:00
 
Отчет CUETools
[CUETools log; Date: 30.08.2015 23:55:12; Version: 2.1.5]
Pregap length 00:00:45.
[CTDB TOCID: L59nlMRJF8PXoVGqsYDQ9LzpsxE-] disk not present in database.
[AccurateRip ID: 000d9d4d-00547d22-440c6c07] found.
Track [ CRC | V2 ] Status
01 [9d47a8ab|d02bec17] (0+1/2) Accurately ripped
02 [e741d9ec|9eddea09] (0+1/2) Accurately ripped
03 [0aabf3d4|c0ec6286] (0+1/2) Accurately ripped
04 [c7c456ef|bf74b9b1] (0+1/2) Accurately ripped
05 [0aaa31f2|85e2f956] (0+1/2) Accurately ripped
06 [b0ce94f1|0c8a371b] (0+1/2) Accurately ripped
07 [a37f625c|6b608ac0] (0+1/2) Accurately ripped
Track Peak [ CRC32 ] [W/O NULL] [ LOG ]
-- 86,8 [CCAAD536] [A54FC976]
01 70,7 [E1622C50] [89908F85] CRC32
02 86,8 [FDB5EAE4] [78D2CB63] CRC32
03 78,0 [ED8F6838] [536C63D9] CRC32
04 59,8 [64DD5123] [6CAC6540] CRC32
05 85,3 [FC274D0F] [6CE99808] CRC32
06 76,1 [FA9B697F] [2036FFF1] CRC32
07 80,1 [3DE3C0F5] [44C5B657] CRC32
 
Об альбоме (сборнике)
Pianist Doug Carn's second BJ record, Spirit of the New Land, poignantly reflected the state of affairs in black America through explicit lyrics sung by his wife Jean and through the expert musicians' responses to life-altering societal developments in a hopeful time when the slogan Black Power carried real meaningi The album s flush with riveting modern jazz, which often leans toward the spiritually inclined music of the John Coltrane Quartet on the classic album My Favorite Things. With George Harper's flute in gracious agreement, Jean Carn draws beauty out of the Miles Davis ballad "Blue in Green.
Приватный:
Нет (DHT включён)
Размер:
288.60 Мб (302,620,903 байт) » файлов: 14
Участники:
0 раздают, 0 качают (0 участников всего)
Внешние участники:
2 раздают, 1 качают (3 участников всего) [ Обновить ]
Скорость:
90.36 Кб/c 0/c
For power users only: no seeders - write to support@pro-jazz.com. Для power user: нет сидеров - пишите на support@pro-jazz.com.
07:43
80
Нет комментариев. Ваш будет первым!