Поиск

(Soul-Jazz) [CD] Doug Carn - Infant Eyes - 1971 (2012 Japan Edition), FLAC (tracks+.cue), lossless

(Soul-Jazz) [CD] Doug Carn - Infant Eyes - 1971 (2012 Japan Edition), FLAC (tracks+.cue), lossless
Треклист:
Doug Carn - Infant Eyes
Жанр: Soul-Jazz
Носитель: CD
Страна-производитель диска (релиза): Япония
Год издания: 1971 (2012)
Издатель (лейбл): Snow Dog Records/Black Jazz Records
Номер по каталогу: SDGBJ1203
Страна исполнителя (группы): США
Аудиокодек: FLAC (*.flac)
Тип рипа: tracks+.cue
Битрейт аудио: lossless
Продолжительность: 42:40
Источник (релизер): FrankCannon (what)
Наличие сканов в содержимом раздачи: нет
Треклист:
01. Welcome (Coltrane) - 1:20
02. Little B's Poem (Hutcherson) - 3:56
03. Moon Child (D.Carn) - 7:44
04. Infant Eyes (Shorter) - 10:09
05. Passion Dance (Tyner) - 6:03
06. Acknowledgement (Coltrane) - 8:53
07. Peace (Silver) - 4:35
Состав:
Doug Carn - piano, electric piano, organ
Jean Carn - vocals
George Harper - tenor saxophone, flute
Bob Frazier - trumpet, flugelhorn
Henry Franklin - bass
Al Hall Jr. - trombone
Michael Carvin - drums
 
Лог создания рипа
X Lossless Decoder version 20130127 (142.3)
XLD extraction logfile from 2013-02-21 15:49:35 -0500
Doug Carn / Infant Eyes
Used drive : HL-DT-ST DVDRW GX30N (revision RP09)
Media type : Pressed CD
Ripper mode : XLD Secure Ripper
Disable audio cache : OK for the drive with a cache less than 1375KiB
Make use of C2 pointers : NO
Read offset correction : 6
Max retry count : 100
Gap status : Analyzed, Appended
TOC of the extracted CD
Track | Start | Length | Start sector | End sector
---------------------------------------------------------
1 | 00:00:00 | 01:20:00 | 0 | 5999
2 | 01:20:00 | 03:56:00 | 6000 | 23699
3 | 05:16:00 | 07:44:00 | 23700 | 58499
4 | 13:00:00 | 10:09:00 | 58500 | 104174
5 | 23:09:00 | 06:03:35 | 104175 | 131434
6 | 29:12:35 | 08:53:00 | 131435 | 171409
7 | 38:05:35 | 04:35:00 | 171410 | 192034
AccurateRip Summary
Disc not found in AccurateRip DB.
All Tracks
Album gain : -5.20 dB
Peak : 0.965637
Statistics
Read error : 0
Jitter error (maybe fixed) : 0
Retry sector count : 0
Damaged sector count : 0
Track 01
Filename : /Users/al/Bunny/01 - Welcome.mp3
/Users/al/Bunny/01 - Welcome.flac
Pre-gap length : 00:02:00
Track gain : -6.12 dB
Peak : 0.933472
CRC32 hash (test run) : 9819F24C
CRC32 hash : 9819F24C
CRC32 hash (skip zero) : 4338FEEB
AccurateRip v1 signature : 9D9FE38E
AccurateRip v2 signature : C93285EB
->Track not present in AccurateRip database.
Statistics
Read error : 0
Jitter error (maybe fixed) : 0
Retry sector count : 0
Damaged sector count : 0
Track 02
Filename : /Users/al/Bunny/02 - Little B's Poem.mp3
/Users/al/Bunny/02 - Little B's Poem.flac
Track gain : -4.99 dB
Peak : 0.933594
CRC32 hash (test run) : 0F3C0121
CRC32 hash : 0F3C0121
CRC32 hash (skip zero) : 4003D7BC
AccurateRip v1 signature : 24C4BD06
AccurateRip v2 signature : A5D175C9
->Track not present in AccurateRip database.
Statistics
Read error : 0
Jitter error (maybe fixed) : 0
Retry sector count : 0
Damaged sector count : 0
Track 03
Filename : /Users/al/Bunny/03 - Moon Child.mp3
/Users/al/Bunny/03 - Moon Child.flac
Track gain : -5.72 dB
Peak : 0.933807
CRC32 hash (test run) : 8B5B595D
CRC32 hash : 8B5B595D
CRC32 hash (skip zero) : E442339A
AccurateRip v1 signature : 1A1DFDB2
AccurateRip v2 signature : 67EA9FD7
->Track not present in AccurateRip database.
Statistics
Read error : 0
Jitter error (maybe fixed) : 0
Retry sector count : 0
Damaged sector count : 0
Track 04
Filename : /Users/al/Bunny/04 - Infant Eyes.mp3
/Users/al/Bunny/04 - Infant Eyes.flac
Track gain : -1.14 dB
Peak : 0.868011
CRC32 hash (test run) : 3D926073
CRC32 hash : 3D926073
CRC32 hash (skip zero) : 6C045AA4
AccurateRip v1 signature : 7172A77A
AccurateRip v2 signature : ED9E822B
->Track not present in AccurateRip database.
Statistics
Read error : 0
Jitter error (maybe fixed) : 0
Retry sector count : 0
Damaged sector count : 0
Track 05
Filename : /Users/al/Bunny/05 - Passion Dance.mp3
/Users/al/Bunny/05 - Passion Dance.flac
Track gain : -5.17 dB
Peak : 0.933746
CRC32 hash (test run) : 6F6296F6
CRC32 hash : 6F6296F6
CRC32 hash (skip zero) : BA4A013B
AccurateRip v1 signature : 00200E74
AccurateRip v2 signature : CB28DD0A
->Track not present in AccurateRip database.
Statistics
Read error : 0
Jitter error (maybe fixed) : 0
Retry sector count : 0
Damaged sector count : 0
Track 06
Filename : /Users/al/Bunny/06 - Acknowledgement.mp3
/Users/al/Bunny/06 - Acknowledgement.flac
Track gain : -6.12 dB
Peak : 0.965637
CRC32 hash (test run) : 9DEBF4BE
CRC32 hash : 9DEBF4BE
CRC32 hash (skip zero) : 69A4EE3C
AccurateRip v1 signature : C58A3709
AccurateRip v2 signature : 44833768
->Track not present in AccurateRip database.
Statistics
Read error : 0
Jitter error (maybe fixed) : 0
Retry sector count : 0
Damaged sector count : 0
Track 07
Filename : /Users/al/Bunny/07 - Peace.mp3
/Users/al/Bunny/07 - Peace.flac
Track gain : -5.10 dB
Peak : 0.965393
CRC32 hash (test run) : D4122D57
CRC32 hash : D4122D57
CRC32 hash (skip zero) : D6210211
AccurateRip v1 signature : 7D5EC3B5
AccurateRip v2 signature : BFB92A27
->Track not present in AccurateRip database.
Statistics
Read error : 0
Jitter error (maybe fixed) : 0
Retry sector count : 0
Damaged sector count : 0
No errors occurred
End of status report
 
Содержание индексной карты (.CUE)
TITLE "Infant Eyes"
PERFORMER "Doug Carn"
REM GENRE "Jazz"
REM DATE "1971"
REM DISCID 5B0A0007
REM REPLAYGAIN_ALBUM_GAIN -5.20 dB
REM REPLAYGAIN_ALBUM_PEAK 0.965637
FILE "01 - Welcome.wav" WAVE
TRACK 01 AUDIO
TITLE "Welcome"
REM REPLAYGAIN_TRACK_GAIN -6.12 dB
REM REPLAYGAIN_TRACK_PEAK 0.933472
INDEX 01 00:00:00
FILE "02 - Little B's Poem.wav" WAVE
TRACK 02 AUDIO
TITLE "Little B's Poem"
REM REPLAYGAIN_TRACK_GAIN -4.99 dB
REM REPLAYGAIN_TRACK_PEAK 0.933594
INDEX 01 00:00:00
FILE "03 - Moon Child.wav" WAVE
TRACK 03 AUDIO
TITLE "Moon Child"
REM REPLAYGAIN_TRACK_GAIN -5.72 dB
REM REPLAYGAIN_TRACK_PEAK 0.933807
INDEX 01 00:00:00
FILE "04 - Infant Eyes.wav" WAVE
TRACK 04 AUDIO
TITLE "Infant Eyes"
REM REPLAYGAIN_TRACK_GAIN -1.14 dB
REM REPLAYGAIN_TRACK_PEAK 0.868011
INDEX 01 00:00:00
FILE "05 - Passion Dance.wav" WAVE
TRACK 05 AUDIO
TITLE "Passion Dance"
REM REPLAYGAIN_TRACK_GAIN -5.17 dB
REM REPLAYGAIN_TRACK_PEAK 0.933746
INDEX 01 00:00:00
FILE "06 - Acknowledgement.wav" WAVE
TRACK 06 AUDIO
TITLE "Acknowledgement"
REM REPLAYGAIN_TRACK_GAIN -6.12 dB
REM REPLAYGAIN_TRACK_PEAK 0.965637
INDEX 01 00:00:00
FILE "07 - Peace.wav" WAVE
TRACK 07 AUDIO
TITLE "Peace"
REM REPLAYGAIN_TRACK_GAIN -5.10 dB
REM REPLAYGAIN_TRACK_PEAK 0.965393
INDEX 01 00:00:00
 
Отчет CUETools
[CUETools log; Date: 30.08.2015 23:30:00; Version: 2.1.5]
[CTDB TOCID: bwc09g3VWoDFlp1UWeYAlm21XCc-] found.
Track | CTDB Status
1 | (1/1) Accurately ripped
2 | (1/1) Accurately ripped
3 | (1/1) Accurately ripped
4 | (1/1) Accurately ripped
5 | (1/1) Accurately ripped
6 | (1/1) Accurately ripped
7 | (1/1) Accurately ripped
[AccurateRip ID: 000a7c97-004291f0-5b0a0007] disk not present in database.
Track Peak [ CRC32 ] [W/O NULL]
-- 96,5 [9EDF14DC] [99F96535]
01 93,3 [9819F24C] [4338FEEB]
02 93,3 [0F3C0121] [4003D7BC]
03 93,3 [8B5B595D] [E442339A]
04 86,8 [3D926073] [6C045AA4]
05 93,3 [6F6296F6] [BA4A013B]
06 96,5 [9DEBF4BE] [69A4EE3C]
07 96,5 [D4122D57] [D6210211]
 
Об альбоме (сборнике)
Despite progress in civil rights, African-Americans in the early 1970s had it tough with segregation in schools, few employment opportunities and lots else. Doug Carn reacted to the times by creating a personalized strain of jazz music that expressed a loving hopefulness, He found a home at the Black Jazz label, where African-Americans called the shots and, of course, racial tension was nonexistent.
Приватный:
Нет (DHT включён)
Размер:
259.45 Мб (272,049,626 байт) » файлов: 14
Участники:
0 раздают, 0 качают (0 участников всего)
Внешние участники:
2 раздают, 1 качают (3 участников всего) [ Обновить ]
Есть вопросы - пишите личное сообщение пользователю M0p94ok.
07:42
53
Нет комментариев. Ваш будет первым!