Поиск

(Funk, Soul) [CD] Carmel - Everybodys Got A Little ... Soul - 1987, FLAC (tracks+.cue), lossless

(Funk, Soul) [CD] Carmel - Everybodys Got A Little ... Soul - 1987, FLAC (tracks+.cue), lossless
Треклист:
Carmel / Everybodys Got A Little ... Soul
Жанр: Funk, Soul
Носитель: CD
Страна-производитель диска (релиза): W. Germany
Год издания: 1987
Издатель (лейбл): London Records Ltd/Metronome
Номер по каталогу: 828067-2
Страна исполнителя (группы): UK
Аудиокодек: FLAC (*.flac)
Тип рипа: tracks+.cue
Битрейт аудио: lossless
Продолжительность: 0:48:53.
Источник (релизер): clustert
Наличие сканов в содержимом раздачи: да
Треклист:
01. It's All In the Game [0:03:58.37]
02. Every Little Bit [0:04:01.25]
03. Sweet And Lovely [0:04:40.50]
04. Nothing Good [0:05:06.38]
05. Azure [0:04:16.12]
06. Lay Down [0:03:29.38]
07. Jazz Robin [0:02:43.62]
08. I Do And Do [0:08:44.13]
09. A Hey Hey (Everybody's Got A Little... Soul) [0:02:56.55]
10. A Hey Hey (Reprise) [0:01:38.70]
11. It's All In The Game (12'') [0:07:16.62]
 
Лог создания рипа
Exact Audio Copy V1.0 beta 3 from 29. August 2011
Отчёт EAC об извлечении, выполненном 26. августа 2015, 0:41
Carmel / Everybodys Got A Little ... Soul
Дисковод: ASUS DRW-1814BLT Adapter: 4 ID: 0
Режим чтения : Достоверность
Использование точного потока : Да
Отключение кэша аудио : Да
Использование указателей C2 : Нет
Коррекция смещения при чтении : 6
Способность читать области Lead-in и Lead-out : Нет
Заполнение пропущенных сэмплов тишиной : Да
Удаление блоков с тишиной в начале и конце : Нет
При вычислениях CRC использовались нулевые сэмплы : Да
Интерфейс : Встроенный Win32-интерфейс для Win NT/2000
Обработка зазоров : Добавлено к предыдущему треку
Выходной формат : Пользовательский кодировщик
Выбранный битрейт : 128 kBit/s
Качество : Высокий
Добавление ID3-тега : Нет
Утилита сжатия : C:\Program Files\Exact Audio Copy\Flac\flac.exe
Дополнительные параметры : -V -8 -T "Genre=%genre%" -T "Artist=%artist%" -T "Title=%title%" -T "Album=%albumtitle%" -T "Date=%year%" -T "Tracknumber=%tracknr%" -T "Comment=EAC1.0b2 FLAC -8" %source%
TOC извлечённого CD
Трек | Старт | Длительность | Начальный сектор | Конечный сектор
---------------------------------------------------------------------
1 | 0:00.33 | 3:58.37 | 33 | 17919
2 | 3:58.70 | 4:01.25 | 17920 | 36019
3 | 8:00.20 | 4:40.50 | 36020 | 57069
4 | 12:40.70 | 5:06.38 | 57070 | 80057
5 | 17:47.33 | 4:16.12 | 80058 | 99269
6 | 22:03.45 | 3:29.38 | 99270 | 114982
7 | 25:33.08 | 2:43.62 | 114983 | 127269
8 | 28:16.70 | 8:44.13 | 127270 | 166582
9 | 37:01.08 | 2:56.55 | 166583 | 179837
10 | 39:57.63 | 1:38.70 | 179838 | 187257
11 | 41:36.58 | 7:16.62 | 187258 | 220019
Трек 1
Имя файла R:\Раздача 52\Carmel - 1987 - Everybody's Got A Little... Soul\01 It's All In the Game.wav
Длина предзазора 0:00:02.33
Пиковый уровень 97.7 %
Скорость извлечения 2.6 X
Качество трека 100.0 %
CRC теста DB243664
CRC копии DB243664
Точное извлечение (достоверность 21) [8451E7F8] (AR v2)
Копирование... OK
Трек 2
Имя файла R:\Раздача 52\Carmel - 1987 - Everybody's Got A Little... Soul\02 Every Little Bit.wav
Длина предзазора 0:00:00.20
Пиковый уровень 97.7 %
Скорость извлечения 1.7 X
Качество трека 99.9 %
CRC теста B1C34856
CRC копии B1C34856
Точное извлечение (достоверность 21) [8A834BD1] (AR v2)
Копирование... OK
Трек 3
Имя файла R:\Раздача 52\Carmel - 1987 - Everybody's Got A Little... Soul\03 Sweet And Lovely.wav
Пиковый уровень 97.7 %
Скорость извлечения 3.2 X
Качество трека 100.0 %
CRC теста 1FDBF7F7
CRC копии 1FDBF7F7
Точное извлечение (достоверность 21) [CA97D761] (AR v2)
Копирование... OK
Трек 4
Имя файла R:\Раздача 52\Carmel - 1987 - Everybody's Got A Little... Soul\04 Nothing Good.wav
Пиковый уровень 85.0 %
Скорость извлечения 3.5 X
Качество трека 100.0 %
CRC теста 69266610
CRC копии 69266610
Точное извлечение (достоверность 21) [6995FE89] (AR v2)
Копирование... OK
Трек 5
Имя файла R:\Раздача 52\Carmel - 1987 - Everybody's Got A Little... Soul\05 Azure.wav
Пиковый уровень 97.7 %
Скорость извлечения 3.7 X
Качество трека 100.0 %
CRC теста 642D001D
CRC копии 642D001D
Точное извлечение (достоверность 21) [E33CB643] (AR v2)
Копирование... OK
Трек 6
Имя файла R:\Раздача 52\Carmel - 1987 - Everybody's Got A Little... Soul\06 Lay Down.wav
Длина предзазора 0:00:00.25
Пиковый уровень 97.7 %
Скорость извлечения 2.2 X
Качество трека 99.9 %
CRC теста D3B56CC3
CRC копии D3B56CC3
Точное извлечение (достоверность 21) [748E6DEE] (AR v2)
Копирование... OK
Трек 7
Имя файла R:\Раздача 52\Carmel - 1987 - Everybody's Got A Little... Soul\07 Jazz Robin.wav
Пиковый уровень 84.7 %
Скорость извлечения 3.8 X
Качество трека 100.0 %
CRC теста 390F8F87
CRC копии 390F8F87
Точное извлечение (достоверность 21) [90E68DF0] (AR v2)
Копирование... OK
Трек 8
Имя файла R:\Раздача 52\Carmel - 1987 - Everybody's Got A Little... Soul\08 I Do And Do.wav
Длина предзазора 0:00:00.25
Пиковый уровень 97.7 %
Скорость извлечения 4.6 X
Качество трека 100.0 %
CRC теста 5F48D1CD
CRC копии 5F48D1CD
Точное извлечение (достоверность 21) [46717C18] (AR v2)
Копирование... OK
Трек 9
Имя файла R:\Раздача 52\Carmel - 1987 - Everybody's Got A Little... Soul\09 A Hey Hey (Everybody's Got A Little... Soul).wav
Длина предзазора 0:00:01.50
Пиковый уровень 97.7 %
Скорость извлечения 4.3 X
Качество трека 100.0 %
CRC теста 635CD554
CRC копии 635CD554
Точное извлечение (достоверность 21) [FCA04C53] (AR v2)
Копирование... OK
Трек 10
Имя файла R:\Раздача 52\Carmel - 1987 - Everybody's Got A Little... Soul\10 A Hey Hey (Reprise).wav
Пиковый уровень 88.1 %
Скорость извлечения 2.0 X
Качество трека 99.8 %
CRC теста F1565B31
CRC копии F1565B31
Точное извлечение (достоверность 21) [7F42E4C8] (AR v2)
Копирование... OK
Трек 11
Имя файла R:\Раздача 52\Carmel - 1987 - Everybody's Got A Little... Soul\11 It's All In The Game (12'').wav
Длина предзазора 0:00:00.48
Пиковый уровень 97.7 %
Скорость извлечения 5.1 X
Качество трека 100.0 %
CRC теста 280AC301
CRC копии 280AC301
Точное извлечение (достоверность 21) [8D0A1CA4] (AR v2)
Копирование... OK
Все треки извлечены точно
Ошибок не произошло
Конец отчёта
==== Контрольная сумма отчёта 1F27F47FDFBC3A0E80BBCE0157B9FC5700F9782F2721C75AC35CC78E832AEE1F ====
 
Содержание индексной карты (.CUE)
REM GENRE Blues
REM DATE 1987
REM DISCID 9D0B750B
REM COMMENT "ExactAudioCopy v1.0b3"
CATALOG 0042282806727
PERFORMER "Carmel"
TITLE "Everybodys Got A Little ... Soul"
FILE "01 It's All In the Game.wav" WAVE
TRACK 01 AUDIO
TITLE "It's All In the Game"
PERFORMER "Carmel"
PREGAP 00:00:33
INDEX 01 00:00:00
TRACK 02 AUDIO
TITLE "Every Little Bit"
PERFORMER "Carmel"
INDEX 00 03:58:17
FILE "02 Every Little Bit.wav" WAVE
INDEX 01 00:00:00
FILE "03 Sweet And Lovely.wav" WAVE
TRACK 03 AUDIO
TITLE "Sweet And Lovely"
PERFORMER "Carmel"
INDEX 01 00:00:00
FILE "04 Nothing Good.wav" WAVE
TRACK 04 AUDIO
TITLE "Nothing Good"
PERFORMER "Carmel"
INDEX 01 00:00:00
FILE "05 Azure.wav" WAVE
TRACK 05 AUDIO
TITLE "Azure"
PERFORMER "Carmel"
INDEX 01 00:00:00
TRACK 06 AUDIO
TITLE "Lay Down"
PERFORMER "Carmel"
INDEX 00 04:15:62
FILE "06 Lay Down.wav" WAVE
INDEX 01 00:00:00
FILE "07 Jazz Robin.wav" WAVE
TRACK 07 AUDIO
TITLE "Jazz Robin"
PERFORMER "Carmel"
INDEX 01 00:00:00
TRACK 08 AUDIO
TITLE "I Do And Do"
PERFORMER "Carmel"
INDEX 00 02:43:37
FILE "08 I Do And Do.wav" WAVE
INDEX 01 00:00:00
TRACK 09 AUDIO
TITLE "A Hey Hey (Everybody's Got A Little... Soul)"
PERFORMER "Carmel"
INDEX 00 08:42:38
FILE "09 A Hey Hey (Everybody's Got A Little... Soul).wav" WAVE
INDEX 01 00:00:00
FILE "10 A Hey Hey (Reprise).wav" WAVE
TRACK 10 AUDIO
TITLE "A Hey Hey (Reprise)"
PERFORMER "Carmel"
INDEX 01 00:00:00
TRACK 11 AUDIO
TITLE "It's All In The Game (12'')"
PERFORMER "Carmel"
INDEX 00 01:38:22
FILE "11 It's All In The Game (12'').wav" WAVE
INDEX 01 00:00:00
Приватный:
Нет (DHT включён)
Размер:
308.55 Мб (323,542,127 байт) » файлов: 25
Участники:
0 раздают, 0 качают (0 участников всего)
Внешние участники:
3 раздают, 1 качают (4 участников всего) [ Обновить ]
No seeders - write a personal message to user M0p94ok. Нет сидеров - пишите личное сообщение пользователю M0p94ok.
07:42
98
Нет комментариев. Ваш будет первым!