Поиск

(Funk/Soul/Pop) [CD] Thelma Jones - Second Chance - 2007, FLAC (tracks+.cue), lossless

(Funk/Soul/Pop) [CD] Thelma Jones - Second Chance - 2007, FLAC (tracks+.cue), lossless
Треклист:
Thelma Jones / Second Chance (2007)
Жанр: Funk/Soul/Pop
Носитель: CD
Страна-производитель диска (релиза): UK
Год издания: 2007
Издатель (лейбл): Kent Records
Номер по каталогу: CDKEND 277
Страна исполнителя (группы): USA
Аудиокодек: FLAC (*.flac)
Тип рипа: tracks+.cue
Битрейт аудио: lossless
Продолжительность: 01:10:17
Источник (релизер): найдено во всемирной сети
Наличие сканов в содержимом раздачи: да
Треклист:
01 Stronger
02 Never Leave Me
03 Gotta Find A Way
04 Oh, Oh, Here Comes The Heartbreak
05 Souvenirs Of A Heartbreak
06 I Won't Give Up On My Man
07 The House That Jack Built
09 Second Chance
10 Mr Fix-it
11 Salty Tears
12 You're The Song (That I Can't Stop Singing)
13 I'd Rather Leave While I'm In Love
14 Love, Look What You Got Me Into
15 I'm Lonely Enough To Try Anything Now
16 I Want What You Want
17 I Second That Emotion
18 I Can Dream
19 Now That We Found Love
20 Angel Of The Morning
21 How Long
22 Stay A While With Me
 
Лог создания рипа
Exact Audio Copy V1.0 beta 3 from 29. August 2011
EAC extraction logfile from 7. November 2014, 16:11
Thelma Jones / Second Chance
Used drive : MATSHITADVD-RAM UJ8E1 Adapter: 0 ID: 0
Read mode : Secure
Utilize accurate stream : Yes
Defeat audio cache : Yes
Make use of C2 pointers : No
Read offset correction : 6
Overread into Lead-In and Lead-Out : No
Fill up missing offset samples with silence : Yes
Delete leading and trailing silent blocks : No
Null samples used in CRC calculations : Yes
Used interface : Native Win32 interface for Win NT & 2000
Gap handling : Appended to previous track
Used output format : User Defined Encoder
Selected bitrate : 1024 kBit/s
Quality : High
Add ID3 tag : No
Command line compressor : C:\Program Files (x86)\Exact Audio Copy\Flac\flac.exe
Additional command line options : -8 -V -T "ARTIST=%artist%" -T "TITLE=%title%" -T "ALBUM=%albumtitle%" -T "DATE=%year%" -T "TRACKNUMBER=%tracknr%" -T "GENRE=%genre%" -T "PERFORMER=%albuminterpret%" -T "COMPOSER=%composer%" %haslyrics%--tag-from-file=LYRICS="%lyricsfile%"%haslyrics% -T "ALBUMARTIST=%albumartist%" -T "DISCNUMBER=%cdnumber%" -T "TOTALDISCS=%totalcds%" -T "TOTALTRACKS=%numtracks%" -T "COMMENT=%comment%" %source% -o %dest%
TOC of the extracted CD
Track | Start | Length | Start sector | End sector
---------------------------------------------------------
1 | 0:00.00 | 2:47.23 | 0 | 12547
2 | 2:47.23 | 2:27.26 | 12548 | 23598
3 | 5:14.49 | 3:14.28 | 23599 | 38176
4 | 8:29.02 | 3:07.55 | 38177 | 52256
5 | 11:36.57 | 2:37.01 | 52257 | 64032
6 | 14:13.58 | 2:49.02 | 64033 | 76709
7 | 17:02.60 | 2:06.23 | 76710 | 86182
8 | 19:09.08 | 3:11.36 | 86183 | 100543
9 | 22:20.44 | 2:43.23 | 100544 | 112791
10 | 25:03.67 | 2:22.06 | 112792 | 123447
11 | 27:25.73 | 3:35.31 | 123448 | 139603
12 | 31:01.29 | 2:46.72 | 139604 | 152125
13 | 33:48.26 | 3:48.70 | 152126 | 169295
14 | 37:37.21 | 3:36.71 | 169296 | 185566
15 | 41:14.17 | 3:29.03 | 185567 | 201244
16 | 44:43.20 | 4:08.15 | 201245 | 219859
17 | 48:51.35 | 3:56.64 | 219860 | 237623
18 | 52:48.24 | 3:54.30 | 237624 | 255203
19 | 56:42.54 | 4:54.42 | 255204 | 277295
20 | 61:37.21 | 3:57.50 | 277296 | 295120
21 | 65:34.71 | 3:28.72 | 295121 | 310792
22 | 69:03.68 | 4:24.43 | 310793 | 330635
Track 1
Filename C:\Rips\01 - Stronger.wav
Pre-gap length 0:00:02.00
Peak level 98.8 %
Extraction speed 2.1 X
Track quality 99.9 %
Test CRC CE831628
Copy CRC CE831628
Cannot be verified as accurate (confidence 3) [9F83C3A6], AccurateRip returned [4DADDDFB] (AR v2)
Copy OK
Track 2
Filename C:\Rips\02 - Never Leave Me.wav
Pre-gap length 0:00:01.88
Peak level 98.8 %
Extraction speed 2.8 X
Track quality 100.0 %
Test CRC E63640D8
Copy CRC E63640D8
Cannot be verified as accurate (confidence 3) [9B377421], AccurateRip returned [12FE42AF] (AR v2)
Copy OK
Track 3
Filename C:\Rips\03 - Gotta Find A Way.wav
Pre-gap length 0:00:01.69
Peak level 98.8 %
Extraction speed 3.2 X
Track quality 100.0 %
Test CRC 69B7B0FC
Copy CRC 69B7B0FC
Cannot be verified as accurate (confidence 3) [C58F8F23], AccurateRip returned [E0D730B3] (AR v2)
Copy OK
Track 4
Filename C:\Rips\04 - Oh, Oh, Here Comes The Heartbreak.wav
Pre-gap length 0:00:02.01
Peak level 98.8 %
Extraction speed 3.4 X
Track quality 100.0 %
Test CRC 346266F9
Copy CRC 346266F9
Cannot be verified as accurate (confidence 3) [C35345D1], AccurateRip returned [96061391] (AR v2)
Copy OK
Track 5
Filename C:\Rips\05 - Souvenirs Of A Heartbreak.wav
Pre-gap length 0:00:01.92
Peak level 98.8 %
Extraction speed 2.7 X
Track quality 99.9 %
Test CRC C0622FBC
Copy CRC C0622FBC
Cannot be verified as accurate (confidence 3) [30FAFCFF], AccurateRip returned [65048F20] (AR v2)
Copy OK
Track 6
Filename C:\Rips\06 - I Won't Give Up On My Man.wav
Pre-gap length 0:00:01.77
Peak level 98.8 %
Extraction speed 3.7 X
Track quality 100.0 %
Test CRC D651EBAF
Copy CRC D651EBAF
Cannot be verified as accurate (confidence 3) [E43A6A22], AccurateRip returned [DCA7ED89] (AR v2)
Copy OK
Track 7
Filename C:\Rips\07 - The House That Jack Built.wav
Pre-gap length 0:00:01.65
Peak level 98.8 %
Extraction speed 3.6 X
Track quality 100.0 %
Test CRC E576E85B
Copy CRC E576E85B
Cannot be verified as accurate (confidence 3) [FF283C93], AccurateRip returned [6D49B9A4] (AR v2)
Copy OK
Track 8
Filename C:\Rips\08 - Give It To Me Straight.wav
Pre-gap length 0:00:01.38
Peak level 98.8 %
Extraction speed 4.0 X
Track quality 100.0 %
Test CRC 089DDD37
Copy CRC 089DDD37
Cannot be verified as accurate (confidence 3) [35DFDACC], AccurateRip returned [6E08A701] (AR v2)
Copy OK
Track 9
Filename C:\Rips\09 - Second Chance.wav
Pre-gap length 0:00:01.81
Peak level 98.8 %
Extraction speed 3.1 X
Track quality 99.9 %
Test CRC 029B8DF8
Copy CRC 029B8DF8
Cannot be verified as accurate (confidence 3) [0A9F54CF], AccurateRip returned [CCEF148F] (AR v2)
Copy OK
Track 10
Filename C:\Rips\10 - Mr Fix-it.wav
Pre-gap length 0:00:01.78
Peak level 98.8 %
Extraction speed 3.1 X
Track quality 99.9 %
Test CRC B74980CC
Copy CRC B74980CC
Cannot be verified as accurate (confidence 3) [95E90D26], AccurateRip returned [F97738AE] (AR v2)
Copy OK
Track 11
Filename C:\Rips\11 - Salty Tears.wav
Pre-gap length 0:00:01.77
Peak level 98.8 %
Extraction speed 4.5 X
Track quality 100.0 %
Test CRC A03D7B55
Copy CRC A03D7B55
Cannot be verified as accurate (confidence 3) [E6F6BA2C], AccurateRip returned [31DAD432] (AR v2)
Copy OK
Track 12
Filename C:\Rips\12 - You're The Song (That I Can't Stop Singing).wav
Pre-gap length 0:00:00.86
Peak level 98.8 %
Extraction speed 3.4 X
Track quality 99.9 %
Test CRC 562D8CFA
Copy CRC 562D8CFA
Cannot be verified as accurate (confidence 3) [DB8F7DBF], AccurateRip returned [3C142B17] (AR v2)
Copy OK
Track 13
Filename C:\Rips\13 - I'd Rather Leave While I'm In Love.wav
Pre-gap length 0:00:01.00
Peak level 98.8 %
Extraction speed 4.8 X
Track quality 100.0 %
Test CRC 597B59E4
Copy CRC 597B59E4
Cannot be verified as accurate (confidence 3) [09805142], AccurateRip returned [2AB18D3E] (AR v2)
Copy OK
Track 14
Filename C:\Rips\14 - Love, Look What You Got Me Into.wav
Pre-gap length 0:00:01.16
Peak level 98.8 %
Extraction speed 5.0 X
Track quality 100.0 %
Test CRC 16FA74D0
Copy CRC 16FA74D0
Cannot be verified as accurate (confidence 3) [733CF0C1], AccurateRip returned [3383BF65] (AR v2)
Copy OK
Track 15
Filename C:\Rips\15 - I'm Lonely Enough To Try Anything Now.wav
Pre-gap length 0:00:01.01
Peak level 98.8 %
Extraction speed 5.1 X
Track quality 100.0 %
Test CRC 0F1D9EF8
Copy CRC 0F1D9EF8
Cannot be verified as accurate (confidence 3) [A7CF5078], AccurateRip returned [8430F2CD] (AR v2)
Copy OK
Track 16
Filename C:\Rips\16 - I Want What You Want.wav
Pre-gap length 0:00:00.98
Peak level 98.8 %
Extraction speed 5.3 X
Track quality 100.0 %
Test CRC 5964BEAF
Copy CRC 5964BEAF
Cannot be verified as accurate (confidence 3) [739C7C03], AccurateRip returned [6A0077CD] (AR v2)
Copy OK
Track 17
Filename C:\Rips\17 - I Second That Emotion.wav
Pre-gap length 0:00:01.72
Peak level 98.8 %
Extraction speed 5.6 X
Track quality 100.0 %
Test CRC 403AEC1D
Copy CRC 403AEC1D
Cannot be verified as accurate (confidence 3) [F1C5F77F], AccurateRip returned [E5E5805B] (AR v2)
Copy OK
Track 18
Filename C:\Rips\18 - I Can Dream.wav
Pre-gap length 0:00:01.89
Peak level 98.8 %
Extraction speed 4.6 X
Track quality 99.9 %
Test CRC 6C89C689
Copy CRC 6C89C689
Cannot be verified as accurate (confidence 3) [16CBB8E3], AccurateRip returned [644EB162] (AR v2)
Copy OK
Track 19
Filename C:\Rips\19 - Now That We Found Love.wav
Pre-gap length 0:00:01.76
Peak level 98.8 %
Extraction speed 6.0 X
Track quality 100.0 %
Test CRC 5B8D6ED7
Copy CRC 5B8D6ED7
Cannot be verified as accurate (confidence 3) [8D4A735F], AccurateRip returned [CF2E5FE4] (AR v2)
Copy OK
Track 20
Filename C:\Rips\20 - Angel Of The Morning.wav
Pre-gap length 0:00:01.21
Peak level 98.8 %
Extraction speed 5.9 X
Track quality 100.0 %
Test CRC 599826F6
Copy CRC 599826F6
Cannot be verified as accurate (confidence 3) [271225D2], AccurateRip returned [CEFE1E0F] (AR v2)
Copy OK
Track 21
Filename C:\Rips\21 - How Long.wav
Pre-gap length 0:00:01.77
Peak level 98.8 %
Extraction speed 6.0 X
Track quality 100.0 %
Test CRC 499F4D63
Copy CRC 499F4D63
Cannot be verified as accurate (confidence 3) [ACBC6250], AccurateRip returned [7BE400BD] (AR v2)
Copy OK
Track 22
Filename C:\Rips\22 - Stay A While With Me.wav
Pre-gap length 0:00:01.52
Peak level 98.8 %
Extraction speed 6.3 X
Track quality 100.0 %
Test CRC B896AC27
Copy CRC B896AC27
Cannot be verified as accurate (confidence 3) [34CF2178], AccurateRip returned [E5AFFAB7] (AR v2)
Copy OK
No tracks could be verified as accurate
You may have a different pressing from the one(s) in the database
No errors occurred
End of status report
==== Log checksum E094F42B4F8CEB1FBC5E382DEB9820799F966F526566B7718FA29E83AE5729F5 ====
 
Содержание индексной карты (.CUE)
REM GENRE Soul
REM DATE 2007
REM DISCID 39113816
REM COMMENT "ExactAudioCopy v1.0b3"
PERFORMER "Thelma Jones"
TITLE "Second Chance"
FILE "01 - Stronger.wav" WAVE
TRACK 01 AUDIO
TITLE "Stronger"
PERFORMER "Thelma Jones"
INDEX 01 00:00:00
TRACK 02 AUDIO
TITLE "Never Leave Me"
PERFORMER "Thelma Jones"
INDEX 00 02:45:32
FILE "02 - Never Leave Me.wav" WAVE
INDEX 01 00:00:00
TRACK 03 AUDIO
TITLE "Gotta Find A Way"
PERFORMER "Thelma Jones"
INDEX 00 02:25:49
FILE "03 - Gotta Find A Way.wav" WAVE
INDEX 01 00:00:00
TRACK 04 AUDIO
TITLE "Oh, Oh, Here Comes The Heartbreak"
PERFORMER "Thelma Jones"
INDEX 00 03:12:27
FILE "04 - Oh, Oh, Here Comes The Heartbreak.wav" WAVE
INDEX 01 00:00:00
TRACK 05 AUDIO
TITLE "Souvenirs Of A Heartbreak"
PERFORMER "Thelma Jones"
INDEX 00 03:05:61
FILE "05 - Souvenirs Of A Heartbreak.wav" WAVE
INDEX 01 00:00:00
TRACK 06 AUDIO
TITLE "I Won't Give Up On My Man"
PERFORMER "Thelma Jones"
INDEX 00 02:35:18
FILE "06 - I Won't Give Up On My Man.wav" WAVE
INDEX 01 00:00:00
TRACK 07 AUDIO
TITLE "The House That Jack Built"
PERFORMER "Thelma Jones"
INDEX 00 02:47:28
FILE "07 - The House That Jack Built.wav" WAVE
INDEX 01 00:00:00
TRACK 08 AUDIO
TITLE "Give It To Me Straight"
PERFORMER "Thelma Jones"
INDEX 00 02:04:69
FILE "08 - Give It To Me Straight.wav" WAVE
INDEX 01 00:00:00
TRACK 09 AUDIO
TITLE "Second Chance"
PERFORMER "Thelma Jones"
INDEX 00 03:09:50
FILE "09 - Second Chance.wav" WAVE
INDEX 01 00:00:00
TRACK 10 AUDIO
TITLE "Mr Fix-it"
PERFORMER "Thelma Jones"
INDEX 00 02:41:39
FILE "10 - Mr Fix-it.wav" WAVE
INDEX 01 00:00:00
TRACK 11 AUDIO
TITLE "Salty Tears"
PERFORMER "Thelma Jones"
ISRC USSM10504431
INDEX 00 02:20:23
FILE "11 - Salty Tears.wav" WAVE
INDEX 01 00:00:00
TRACK 12 AUDIO
TITLE "You're The Song (That I Can't Stop Singing)"
PERFORMER "Thelma Jones"
ISRC USSM10505879
INDEX 00 03:34:41
FILE "12 - You're The Song (That I Can't Stop Singing).wav" WAVE
INDEX 01 00:00:00
TRACK 13 AUDIO
TITLE "I'd Rather Leave While I'm In Love"
PERFORMER "Thelma Jones"
ISRC USSM10310970
INDEX 00 02:45:72
FILE "13 - I'd Rather Leave While I'm In Love.wav" WAVE
INDEX 01 00:00:00
TRACK 14 AUDIO
TITLE "Love, Look What You Got Me Into"
PERFORMER "Thelma Jones"
ISRC USSM10505880
INDEX 00 03:47:58
FILE "14 - Love, Look What You Got Me Into.wav" WAVE
INDEX 01 00:00:00
TRACK 15 AUDIO
TITLE "I'm Lonely Enough To Try Anything Now"
PERFORMER "Thelma Jones"
ISRC USSM10504421
INDEX 00 03:35:70
FILE "15 - I'm Lonely Enough To Try Anything Now.wav" WAVE
INDEX 01 00:00:00
TRACK 16 AUDIO
TITLE "I Want What You Want"
PERFORMER "Thelma Jones"
ISRC USSM10504415
INDEX 00 03:28:04
FILE "16 - I Want What You Want.wav" WAVE
INDEX 01 00:00:00
TRACK 17 AUDIO
TITLE "I Second That Emotion"
PERFORMER "Thelma Jones"
ISRC USSM10504430
INDEX 00 04:06:36
FILE "17 - I Second That Emotion.wav" WAVE
INDEX 01 00:00:00
TRACK 18 AUDIO
TITLE "I Can Dream"
PERFORMER "Thelma Jones"
ISRC USSM10504426
INDEX 00 03:54:72
FILE "18 - I Can Dream.wav" WAVE
INDEX 01 00:00:00
TRACK 19 AUDIO
TITLE "Now That We Found Love"
PERFORMER "Thelma Jones"
ISRC USSM10504428
INDEX 00 03:52:48
FILE "19 - Now That We Found Love.wav" WAVE
INDEX 01 00:00:00
TRACK 20 AUDIO
TITLE "Angel Of The Morning"
PERFORMER "Thelma Jones"
ISRC USSM10504427
INDEX 00 04:53:26
FILE "20 - Angel Of The Morning.wav" WAVE
INDEX 01 00:00:00
TRACK 21 AUDIO
TITLE "How Long"
PERFORMER "Thelma Jones"
ISRC USSM10009686
INDEX 00 03:55:67
FILE "21 - How Long.wav" WAVE
INDEX 01 00:00:00
TRACK 22 AUDIO
TITLE "Stay A While With Me"
PERFORMER "Thelma Jones"
ISRC USSM10504425
INDEX 00 03:27:33
FILE "22 - Stay A While With Me.wav" WAVE
INDEX 01 00:00:00
Приватный:
Нет (DHT включён)
Размер:
447.82 Мб (469,575,379 байт) » файлов: 32
Участники:
0 раздают, 0 качают (0 участников всего)
Внешние участники:
1 раздают, 0 качают (1 участников всего) [ Обновить ]
No seeders - write a personal message to user M0p94ok. Нет сидеров - пишите личное сообщение пользователю M0p94ok.
07:41
94
Нет комментариев. Ваш будет первым!