Поиск

(Soul-Jazz) [CD] Doug Carn - Revelation - 1973 (2013 Japan Edition), FLAC (tracks+.cue), lossless

(Soul-Jazz) [CD] Doug Carn - Revelation - 1973 (2013 Japan Edition), FLAC (tracks+.cue), lossless
Треклист:
Doug Carn - Revelation
Жанр: Soul-Jazz
Носитель: CD
Страна-производитель диска (релиза): Япония
Год издания: 1973 (2013)
Издатель (лейбл): Black Jazz Records/Snow Dog Records
Номер по каталогу: SDGBJ1216
Страна исполнителя (группы): США
Аудиокодек: FLAC (*.flac)
Тип рипа: tracks+.cue
Битрейт аудио: lossless
Продолжительность: 47:32
Источник (релизер): what.cd
Наличие сканов в содержимом раздачи: нет
Треклист:
01. God Is One (D.Carn) - 1:48
02. Power and Glory (D.Carn) - 8:05
03. Revelation (D.Carn) - 3:50
04. Naima (Coltrane) - 4:36
05. Fatherhood (D.Carn) - 4:22
06. Contemplation (Tyner) - 4:09
07. Feel Free (D.Carn) - 9:17
08. Time Is Running Out (D.Carn) - 4:01
09. Jihad (McClean) - 7:24
Состав:
Doug Carn - piano, electric piano, organ, synthesizer
Jean Carn - vocals
Olu Dara - vocals, trumpet, alto horn
Rene McClean - vocals, alto saxophone, tenor saxophone, flute
Nathan Page - guitar
Walter Booker - bass
Earl McIntyre - bass trumpet
Ira Williams - drums
Recorded at A&R Recording Studios, New York. Overdubs and mastering at Streeterville Studio, Chicago, IL.
 
Лог создания рипа
Exact Audio Copy V1.0 beta 3 from 29. August 2011
EAC extraction logfile from 11. August 2015, 21:46
Doug Carn / Revelation
Used drive : ATAPI iHAS324 W Adapter: 0 ID: 0
Read mode : Secure
Utilize accurate stream : Yes
Defeat audio cache : Yes
Make use of C2 pointers : No
Read offset correction : 48
Overread into Lead-In and Lead-Out : No
Fill up missing offset samples with silence : Yes
Delete leading and trailing silent blocks : No
Null samples used in CRC calculations : Yes
Used interface : Native Win32 interface for Win NT & 2000
Gap handling : Appended to previous track
Used output format : User Defined Encoder
Selected bitrate : 1024 kBit/s
Quality : High
Add ID3 tag : No
Command line compressor : C:\Program Files (x86)\Exact Audio Copy\Flac\flac.exe
Additional command line options : -8 -V -T "ARTIST=%artist%" -T "TITLE=%title%" -T "ALBUM=%albumtitle%" -T "DATE=%year%" -T "TRACKNUMBER=%tracknr%" -T "GENRE=%genre%" -T "PERFORMER=%albuminterpret%" -T "COMPOSER=%composer%" %haslyrics%--tag-from-file=LYRICS="%lyricsfile%"%haslyrics% -T "ALBUMARTIST=%albumartist%" -T "DISCNUMBER=%cdnumber%" -T "TOTALDISCS=%totalcds%" -T "TOTALTRACKS=%numtracks%" -T "COMMENT=%comment%" %source% -o %dest%
TOC of the extracted CD
Track | Start | Length | Start sector | End sector
---------------------------------------------------------
1 | 0:00.00 | 1:48.05 | 0 | 8104
2 | 1:48.05 | 8:05.14 | 8105 | 44493
3 | 9:53.19 | 3:50.10 | 44494 | 61753
4 | 13:43.29 | 4:36.07 | 61754 | 82460
5 | 18:19.36 | 4:22.08 | 82461 | 102118
6 | 22:41.44 | 4:09.08 | 102119 | 120801
7 | 26:50.52 | 9:17.07 | 120802 | 162583
8 | 36:07.59 | 4:01.07 | 162584 | 180665
9 | 40:08.66 | 7:24.05 | 180666 | 213970
Track 1
Filename C:\Music\EAC Rips\#######\Doug Carn - Revelation - (1973) [FLAC] {2013 Japan Release}\01. God Is One.wav
Pre-gap length 0:00:02.00
Peak level 96.6 %
Extraction speed 3.7 X
Track quality 100.0 %
Test CRC E8B026C4
Copy CRC E8B026C4
Track not present in AccurateRip database
Copy OK
Track 2
Filename C:\Music\EAC Rips\#######\Doug Carn - Revelation - (1973) [FLAC] {2013 Japan Release}\02. Power and Glory.wav
Peak level 96.6 %
Extraction speed 5.3 X
Track quality 100.0 %
Test CRC E2369B9E
Copy CRC E2369B9E
Accurately ripped (confidence 1) [FC770B00] (AR v2)
Copy OK
Track 3
Filename C:\Music\EAC Rips\#######\Doug Carn - Revelation - (1973) [FLAC] {2013 Japan Release}\03. Revelation.wav
Peak level 96.6 %
Extraction speed 5.6 X
Track quality 100.0 %
Test CRC 28C10B1A
Copy CRC 28C10B1A
Track not present in AccurateRip database
Copy OK
Track 4
Filename C:\Music\EAC Rips\#######\Doug Carn - Revelation - (1973) [FLAC] {2013 Japan Release}\04. Naima.wav
Peak level 96.6 %
Extraction speed 6.1 X
Track quality 100.0 %
Test CRC AD3DAFE1
Copy CRC AD3DAFE1
Track not present in AccurateRip database
Copy OK
Track 5
Filename C:\Music\EAC Rips\#######\Doug Carn - Revelation - (1973) [FLAC] {2013 Japan Release}\05. Fatherhood.wav
Peak level 96.6 %
Extraction speed 6.4 X
Track quality 100.0 %
Test CRC FCAC0267
Copy CRC FCAC0267
Track not present in AccurateRip database
Copy OK
Track 6
Filename C:\Music\EAC Rips\#######\Doug Carn - Revelation - (1973) [FLAC] {2013 Japan Release}\06. Contemplation.wav
Peak level 96.6 %
Extraction speed 6.8 X
Track quality 100.0 %
Test CRC 2E2191C1
Copy CRC 2E2191C1
Track not present in AccurateRip database
Copy OK
Track 7
Filename C:\Music\EAC Rips\#######\Doug Carn - Revelation - (1973) [FLAC] {2013 Japan Release}\07. Feel Free.wav
Peak level 96.6 %
Extraction speed 6.4 X
Track quality 99.9 %
Test CRC 4D031F10
Copy CRC 4D031F10
Track not present in AccurateRip database
Copy OK
Track 8
Filename C:\Music\EAC Rips\#######\Doug Carn - Revelation - (1973) [FLAC] {2013 Japan Release}\08. Time Is Running Out.wav
Peak level 96.6 %
Extraction speed 7.7 X
Track quality 100.0 %
Test CRC 3C838D2C
Copy CRC 3C838D2C
Track not present in AccurateRip database
Copy OK
Track 9
Filename C:\Music\EAC Rips\#######\Doug Carn - Revelation - (1973) [FLAC] {2013 Japan Release}\09. Jihad.wav
Peak level 96.6 %
Extraction speed 8.6 X
Track quality 100.0 %
Test CRC 47B361ED
Copy CRC 47B361ED
Track not present in AccurateRip database
Copy OK
1 track(s) accurately ripped
8 track(s) not present in the AccurateRip database
Some tracks could not be verified as accurate
No errors occurred
End of status report
---- CUETools DB Plugin V2.1.3
[CTDB TOCID: 5AnqFGETkPqmCROND0WLWe85cos-] found, Submit result: 5AnqFGETkPqmCROND0WLWe85cos- has been confirmed
[3f500c7a] (1/1) Accurately ripped
==== Log checksum 7B6DD9DC5521AC9577364002EFA399035D0CD2B7D22C8FDB81F81ECDE6B19E90 ====
 
Содержание индексной карты (.CUE)
REM GENRE Jazz
REM DATE 1973
REM DISCID 590B2409
REM COMMENT "ExactAudioCopy v1.0b3"
PERFORMER "Doug Carn"
TITLE "Revelation"
FILE "01 - God Is One.wav" WAVE
TRACK 01 AUDIO
TITLE "God Is One"
PERFORMER "Doug Carn"
INDEX 01 00:00:00
FILE "02 - Power and Glory.wav" WAVE
TRACK 02 AUDIO
TITLE "Power and Glory"
PERFORMER "Doug Carn"
INDEX 01 00:00:00
FILE "03 - Revelation.wav" WAVE
TRACK 03 AUDIO
TITLE "Revelation"
PERFORMER "Doug Carn"
INDEX 01 00:00:00
FILE "04 - Naima.wav" WAVE
TRACK 04 AUDIO
TITLE "Naima"
PERFORMER "Doug Carn"
INDEX 01 00:00:00
FILE "05 - Fatherhood.wav" WAVE
TRACK 05 AUDIO
TITLE "Fatherhood"
PERFORMER "Doug Carn"
INDEX 01 00:00:00
FILE "06 - Contemplation.wav" WAVE
TRACK 06 AUDIO
TITLE "Contemplation"
PERFORMER "Doug Carn"
INDEX 01 00:00:00
FILE "07 - Feel Free.wav" WAVE
TRACK 07 AUDIO
TITLE "Feel Free"
PERFORMER "Doug Carn"
INDEX 01 00:00:00
FILE "08 - Time Is Running Out.wav" WAVE
TRACK 08 AUDIO
TITLE "Time Is Running Out"
PERFORMER "Doug Carn"
INDEX 01 00:00:00
FILE "09 - Jihad.wav" WAVE
TRACK 09 AUDIO
TITLE "Jihad"
PERFORMER "Doug Carn"
INDEX 01 00:00:00
 
Отчет CUETools
[CUETools log; Date: 31.08.2015 0:13:01; Version: 2.1.5]
[CTDB TOCID: 5AnqFGETkPqmCROND0WLWe85cos-] found.
Track | CTDB Status
1 | (2/2) Accurately ripped
2 | (2/2) Accurately ripped
3 | (2/2) Accurately ripped
4 | (2/2) Accurately ripped
5 | (2/2) Accurately ripped
6 | (2/2) Accurately ripped
7 | (2/2) Accurately ripped
8 | (2/2) Accurately ripped
9 | (2/2) Accurately ripped
[AccurateRip ID: 000ee83c-006fe756-590b2409] found.
Track [ CRC | V2 ] Status
01 [c27f12dd|2c72ba0d] (0+0/0) No match
02 [1473844c|fc770b00] (0+1/1) Accurately ripped
03 [b27bd77b|49a4bdcc] (0+0/0) No match
04 [862b317f|f23b406b] (0+0/0) No match
05 [99b28a70|186b92f0] (0+0/0) No match
06 [e640cd40|e9c174bc] (0+0/0) No match
07 [83c1bd78|359e0474] (0+0/0) No match
08 [8f51f327|362b7f2b] (0+0/0) No match
09 [777cbdc4|c42679ce] (0+0/0) No match
Track Peak [ CRC32 ] [W/O NULL] [ LOG ]
-- 96,6 [06C84A94] [F733FA69]
01 96,6 [E8B026C4] [FE006F9F] CRC32
02 96,6 [E2369B9E] [ED54A824] CRC32
03 96,6 [28C10B1A] [A33C2E61] CRC32
04 96,6 [AD3DAFE1] [884B10D0] CRC32
05 96,6 [FCAC0267] [48C9DA2E] CRC32
06 96,6 [2E2191C1] [9A4CFBE6] CRC32
07 96,6 [4D031F10] [2DBF4BA3] CRC32
08 96,6 [3C838D2C] [F916D321] CRC32
09 96,6 [47B361ED] [0317200C] CRC32
 
Об альбоме (сборнике)
Doug Carn's third album for Black Jazz, Revelation, is as compulsively listenable as his previous outings. The keyboardist-composer-arranger-bandleader is on top of his game, Jean Carn returns to handle the vocal parts, the hired jazz players (including rising saxophonist René McLean and trumpeter Olu Dara) are more than capable, and Carn's songs convey altruistic messages that he deemed vital to the success of his distinctive brand of soul-jazz music.
Приватный:
Нет (DHT включён)
Размер:
290.90 Мб (305,028,137 байт) » файлов: 16
Участники:
0 раздают, 0 качают (0 участников всего)
Внешние участники:
5 раздают, 1 качают (6 участников всего) [ Обновить ]
Скорость:
65.34 Кб/c 0/c
Есть вопросы - пишите личное сообщение пользователю M0p94ok.
07:44
61
Нет комментариев. Ваш будет первым!