Поиск

(Soul, Funk) [WEB] Muscle Shoals Horns - Born to Get Down - 1976/2016, FLAC (tracks), lossless

(Soul, Funk) [WEB] Muscle Shoals Horns - Born to Get Down - 1976/2016, FLAC (tracks), lossless
Треклист:
Muscle Shoals Horns / Born to Get Down
Жанр: Soul, Funk
Носитель: WEB
Год издания: 1976/2016
Издатель (лейбл): EPIC, LEGACY
Страна исполнителя (группы): USA
Аудиокодек: FLAC (*.flac)
Тип рипа: tracks
Битрейт аудио: lossless
Продолжительность: 00:42:02
Источник (релизер): israbox
Наличие сканов в содержимом раздачи: Front
Треклист:
01. Open Up Your Heart
02. Break Down
03. Where I'm Coming From
04. Hustle to the Music
05. Who's Gonna Love You
06. Bump De Bump Yo Boodie
07. Born to Get Down (Born to Mess Around)
08. Get It Up
09. Give It to Me
10. Bump De Bump Yo Boodie (7" Version)
11. Where I'm Coming From (7" Version)
 
DR Log
foobar2000 1.1.10 / Dynamic Range Meter 1.1.1
log date: 2018-01-30 14:11:06
--------------------------------------------------------------------------------
Analyzed: Muscle Shoals Horns / Born to Get Down
--------------------------------------------------------------------------------
DR Peak RMS Duration Track
--------------------------------------------------------------------------------
DR12 0.00 dB -13.46 dB 3:13 ?-Open Up Your Heart
DR11 0.00 dB -12.24 dB 3:45 ?-Break Down
DR11 0.00 dB -13.62 dB 4:35 ?-Where I'm Coming From
DR12 0.00 dB -13.56 dB 3:49 ?-Hustle to the Music
DR12 0.00 dB -12.82 dB 4:37 ?-Who's Gonna Love You
DR12 0.00 dB -13.88 dB 3:28 ?-Bump De Bump Yo Boodie
DR11 0.00 dB -12.03 dB 4:22 ?-Born to Get Down (Born to Mess Around)
DR11 0.00 dB -12.10 dB 3:38 ?-Get It Up
DR12 0.00 dB -13.01 dB 3:35 ?-Give It to Me
DR12 0.00 dB -13.22 dB 3:08 ?-Bump De Bump Yo Boodie (7" Version)
DR12 0.00 dB -14.86 dB 3:52 ?-Where I'm Coming From (7" Version)
--------------------------------------------------------------------------------
Number of tracks: 11
Official DR value: DR11
Samplerate: 44100 Hz
Channels: 2
Bits per sample: 16
Bitrate: 963 kbps
Codec: FLAC
================================================================================
 
Лог проверки качества
-----------------------
DON'T MODIFY THIS FILE
-----------------------
PERFORMER: auCDtect Task Manager, ver. 1.5.1RC4 build 1.5.1.5
Copyright (c) 2008-2010 y-soft. All rights reserved
http://y-soft.org
ANALYZER: auCDtect: CD records authenticity detector, version 0.8.2
Copyright (c) 2004 Oleg Berngardt. All rights reserved.
Copyright (c) 2004 Alexander Djourik. All rights reserved.
FILE: 11. Where I'm Coming From (7'' Version).flac
Size: 28205405 Hash: 523BAF51D06933177D9C25B4EF1EF69D Accuracy: -m0
Conclusion: CDDA 100%
Signature: 5BE7F2B9D3B693C36DE609A416B6E119AD36E7BA
FILE: 10. Bump De Bump Yo Boodie (7'' Version).flac
Size: 24068874 Hash: 16A06EBFD8915591493870AFD36B558A Accuracy: -m0
Conclusion: CDDA 100%
Signature: 9AC06EBA56A148919C8250CF64FC7109C470146A
FILE: 09. Give It to Me.flac
Size: 26219845 Hash: 8FDC631BB8C34B639BD779533AAEFC18 Accuracy: -m0
Conclusion: CDDA 100%
Signature: C5BEF1872462199794A434A255AF1D673DC74BBB
FILE: 08. Get It Up.flac
Size: 27331322 Hash: CF56ADE454A92252C4EEC9279A6144FF Accuracy: -m0
Conclusion: CDDA 100%
Signature: DBD2D699E039DBCF9EF790394EEF6C1FFAC775AF
FILE: 07. Born to Get Down (Born to Mess Around).flac
Size: 33657090 Hash: D0809205252FC8F8FD8C303DD8AB6512 Accuracy: -m0
Conclusion: CDDA 99%
Signature: E2F369B51AA179B90A13BE9A3EBE495FA7A200F4
FILE: 06. Bump De Bump Yo Boodie.flac
Size: 25493657 Hash: 4B50E533C8B3F3BC8302787BF2E3573E Accuracy: -m0
Conclusion: CDDA 100%
Signature: 72FDC9A049399A61C8151C518C2263A4338116EF
FILE: 05. Who's Gonna Love You.flac
Size: 36080811 Hash: AAD7CF830E27FB2584E34634C9FA52AD Accuracy: -m0
Conclusion: CDDA 94%
Signature: 123998E3635669662143412D33CE13FBB30D80C5
FILE: 04. Hustle to the Music.flac
Size: 28150513 Hash: EF49607E5FE9C69BA5CD56C1D82562C5 Accuracy: -m0
Conclusion: CDDA 99%
Signature: 35520BA796D21681EC7E0A4BFAB0EC11CD355513
FILE: 03. Where I'm Coming From.flac
Size: 34797215 Hash: 421982805CCE97B50DD069A3DD413921 Accuracy: -m0
Conclusion: CDDA 100%
Signature: 51B5A5175DC35613AB093F6248A0001AB4FE0E16
FILE: 02. Break Down.flac
Size: 28107232 Hash: 63C148559502C6A65B708179D3B19E20 Accuracy: -m0
Conclusion: CDDA 100%
Signature: F121A8AE4AB5DCD88AC725B08108DFB1D0C9BE62
FILE: 01. Open Up Your Heart.flac
Size: 24236971 Hash: 88208910C4C1A6C1AE23D8229C0D8922 Accuracy: -m0
Conclusion: CDDA 100%
Signature: 0E8BB75B7025F253F718998524BD4A3A5E8173F7
 
Об исполнителе (группе)
 
Состав
Arranged By – Barry Beckett, Harrison Calloway
Backing Vocals – Muscle Shoals Horns
Baritone Saxophone – Ron Eades
Bass – Bob Wray
Drums – Roger Hawkins
Lead Guitar – Ken Bell
Organ – Barry Beckett, Randy McCormick (tracks: 5)
Percussion – Tom Roady
Piano – Barry Beckett
Rhythm Guitar – Jimmy Johnson
Saxophone, Flute – Harvey Thompson
Trombone – Charles Rose
Trumpet – Harrison Calloway
Vocals – Harrison Calloway, Katherine Hill (tracks: 7)
Приватный:
Нет (DHT включён)
Размер:
301.94 Мб (316,605,420 байт) » файлов: 14
Участники:
0 раздают, 0 качают (0 участников всего)
Внешние участники:
5 раздают, 1 качают (6 участников всего) [ Обновить ]
Есть вопросы - пишите личное сообщение пользователю M0p94ok.
15:30
61
Нет комментариев. Ваш будет первым!