Поиск

(Funk) [CD] Chakachas - Jungle Fever - 2007, FLAC (tracks+.cue), lossless

(Funk) [CD] Chakachas - Jungle Fever - 2007, FLAC (tracks+.cue), lossless
Треклист:
Chakachas / Jungle Fever
Жанр: Funk
Носитель: CD
Год издания: 2007
Издатель (лейбл): Dusty Groove America
Номер по каталогу: DGA 3006
Аудиокодек: FLAC (*.flac)
Тип рипа: tracks+.cue
Битрейт аудио: lossless
Продолжительность: 35:19
Источник (релизер): обмен
Наличие сканов в содержимом раздачи: да
Треклист:
01. Chakachas - Chica Chica Bau Bau [3:47]
02. Chakachas - Un Rayo Del Sol [2:50]
03. Chakachas - Cha Ka Cha [2:22]
04. Chakachas - Latin Can Can [3:58]
05. Chakachas - Yo Soy Cubano [2:43]
06. Chakachas - Eso Es El Amor [2:51]
07. Chakachas - Harlem Nocturne [3:31]
08. Chakachas - Ay Mulata [3:06]
09. Chakachas - El Canyon Rojo [2:35]
10. Chakachas - El Rico Son [3:13]
11. Chakachas - Jungle Fever [4:23]
 
Лог создания рипа
Exact Audio Copy V1.0 beta 3 from 29. August 2011
EAC extraction logfile from 2. April 2015, 7:51
Chakachas / Jungle Fever
Used drive : SONY DVD RW DRU-810A Adapter: 1 ID: 0
Read mode : Secure
Utilize accurate stream : Yes
Defeat audio cache : Yes
Make use of C2 pointers : No
Read offset correction : 618
Overread into Lead-In and Lead-Out : No
Fill up missing offset samples with silence : Yes
Delete leading and trailing silent blocks : No
Null samples used in CRC calculations : Yes
Used interface : Native Win32 interface for Win NT & 2000
Gap handling : Appended to previous track
Used output format : User Defined Encoder
Selected bitrate : 128 kBit/s
Quality : High
Add ID3 tag : No
Command line compressor : C:\Program Files (x86)\Exact Audio Copy\Flac\flac.exe
Additional command line options : -8 -V -T "ARTIST=%artist%" -T "TITLE=%title%" -T "ALBUM=%albumtitle%" -T "DATE=%year%" -T "TRACKNUMBER=%tracknr%" -T "TOTALTRACKS=%numtracks%" -T "GENRE=%genre%" -T "ALBUMARTIST=%albumartist%" -T "ALBUM ARTIST=%albumartist%" -T "COMMENT=EAC Secure Mode, Test & Copy, AccurateRip, FLAC -8" %source%
TOC of the extracted CD
Track | Start | Length | Start sector | End sector
---------------------------------------------------------
1 | 0:00.00 | 3:46.66 | 0 | 17015
2 | 3:46.66 | 2:49.38 | 17016 | 29728
3 | 6:36.29 | 2:21.64 | 29729 | 40367
4 | 8:58.18 | 3:58.35 | 40368 | 58252
5 | 12:56.53 | 2:43.10 | 58253 | 70487
6 | 15:39.63 | 2:50.71 | 70488 | 83308
7 | 18:30.59 | 3:31.26 | 83309 | 99159
8 | 22:02.10 | 3:05.64 | 99160 | 113098
9 | 25:07.74 | 2:34.63 | 113099 | 124711
10 | 27:42.62 | 3:13.01 | 124712 | 139187
11 | 30:55.63 | 4:23.01 | 139188 | 158913
Track 1
Filename F:\New Rips\Chakachas - Jungle Fever (1972) [FLAC]\disc 2of2\01 - Chica Chica Bau Bau.wav
Pre-gap length 0:00:02.00
Peak level 100.0 %
Extraction speed 1.4 X
Track quality 100.0 %
Test CRC B0E785C9
Copy CRC B0E785C9
Accurately ripped (confidence 3) [8B1526FC] (AR v1)
Copy OK
Track 2
Filename F:\New Rips\Chakachas - Jungle Fever (1972) [FLAC]\disc 2of2\02 - Un Rayo Del Sol.wav
Pre-gap length 0:00:02.59
Peak level 94.3 %
Extraction speed 1.5 X
Track quality 100.0 %
Test CRC 962BC2DF
Copy CRC 962BC2DF
Accurately ripped (confidence 3) [8BB2DC83] (AR v1)
Copy OK
Track 3
Filename F:\New Rips\Chakachas - Jungle Fever (1972) [FLAC]\disc 2of2\03 - Cha Ka Cha.wav
Pre-gap length 0:00:02.53
Peak level 100.0 %
Extraction speed 1.5 X
Track quality 100.0 %
Test CRC 369C2D22
Copy CRC 369C2D22
Accurately ripped (confidence 3) [86B69AC3] (AR v1)
Copy OK
Track 4
Filename F:\New Rips\Chakachas - Jungle Fever (1972) [FLAC]\disc 2of2\04 - Latin Can Can.wav
Pre-gap length 0:00:03.21
Peak level 100.0 %
Extraction speed 1.8 X
Track quality 100.0 %
Test CRC 7BC9B153
Copy CRC 7BC9B153
Accurately ripped (confidence 3) [E161EF65] (AR v1)
Copy OK
Track 5
Filename F:\New Rips\Chakachas - Jungle Fever (1972) [FLAC]\disc 2of2\05 - Yo Soy Cubano.wav
Pre-gap length 0:00:02.56
Peak level 92.2 %
Extraction speed 1.7 X
Track quality 100.0 %
Test CRC D267AA35
Copy CRC D267AA35
Accurately ripped (confidence 3) [F176D9FF] (AR v1)
Copy OK
Track 6
Filename F:\New Rips\Chakachas - Jungle Fever (1972) [FLAC]\disc 2of2\06 - Eso Es El Amor.wav
Pre-gap length 0:00:02.15
Peak level 94.3 %
Extraction speed 1.6 X
Track quality 99.9 %
Test CRC B4744839
Copy CRC B4744839
Accurately ripped (confidence 3) [A6AC0CDF] (AR v1)
Copy OK
Track 7
Filename F:\New Rips\Chakachas - Jungle Fever (1972) [FLAC]\disc 2of2\07 - Harlem Nocturne.wav
Pre-gap length 0:00:03.20
Peak level 100.0 %
Extraction speed 2.0 X
Track quality 100.0 %
Test CRC 3E0960CA
Copy CRC 3E0960CA
Accurately ripped (confidence 3) [24798E76] (AR v1)
Copy OK
Track 8
Filename F:\New Rips\Chakachas - Jungle Fever (1972) [FLAC]\disc 2of2\08 - Ay Mulata.wav
Pre-gap length 0:00:03.10
Peak level 100.0 %
Extraction speed 2.0 X
Track quality 100.0 %
Test CRC 9B713C25
Copy CRC 9B713C25
Accurately ripped (confidence 3) [A0D52DB2] (AR v1)
Copy OK
Track 9
Filename F:\New Rips\Chakachas - Jungle Fever (1972) [FLAC]\disc 2of2\09 - El Canyon Rojo.wav
Pre-gap length 0:00:03.17
Peak level 100.0 %
Extraction speed 2.0 X
Track quality 100.0 %
Test CRC 8072CB2D
Copy CRC 8072CB2D
Accurately ripped (confidence 3) [274CB214] (AR v1)
Copy OK
Track 10
Filename F:\New Rips\Chakachas - Jungle Fever (1972) [FLAC]\disc 2of2\10 - El Rico Son.wav
Pre-gap length 0:00:03.28
Peak level 100.0 %
Extraction speed 2.2 X
Track quality 100.0 %
Test CRC BC49CBE9
Copy CRC BC49CBE9
Accurately ripped (confidence 3) [4513F46E] (AR v1)
Copy OK
Track 11
Filename F:\New Rips\Chakachas - Jungle Fever (1972) [FLAC]\disc 2of2\11 - Jungle Fever.wav
Pre-gap length 0:00:03.14
Peak level 100.0 %
Extraction speed 2.4 X
Track quality 100.0 %
Test CRC 885BD09E
Copy CRC 885BD09E
Accurately ripped (confidence 3) [CDAAD5B6] (AR v1)
Copy OK
All tracks accurately ripped
No errors occurred
End of status report
---- CUETools DB Plugin V2.1.3
[CTDB TOCID: jutIh52ga557v6nv9tx1ww2DZkw-] found, Submit result: jutIh52ga557v6nv9tx1ww2DZkw- has been confirmed
[f6b9afeb] (2/2) Accurately ripped
==== Log checksum 2D902B115CF19563105623D63A8F66CBF043DCD513D88F5EA19EFBA29D1F5BF6 ====
 
Содержание индексной карты (.CUE)
REM GENRE Latin
REM DATE 1972
REM DISCID 9308460B
REM COMMENT "ExactAudioCopy v1.0b3"
PERFORMER "Chakachas"
TITLE "Jungle Fever"
FILE "01 - Chica Chica Bau Bau.flac" WAVE
TRACK 01 AUDIO
TITLE "Chica Chica Bau Bau"
PERFORMER "Chakachas"
INDEX 01 00:00:00
TRACK 02 AUDIO
TITLE "Un Rayo Del Sol"
PERFORMER "Chakachas"
FLAGS DCP
INDEX 00 03:44:07
FILE "02 - Un Rayo Del Sol.flac" WAVE
INDEX 01 00:00:00
TRACK 03 AUDIO
TITLE "Cha Ka Cha"
PERFORMER "Chakachas"
FLAGS DCP
INDEX 00 02:46:60
FILE "03 - Cha Ka Cha.flac" WAVE
INDEX 01 00:00:00
TRACK 04 AUDIO
TITLE "Latin Can Can"
PERFORMER "Chakachas"
FLAGS DCP
INDEX 00 02:18:43
FILE "04 - Latin Can Can.flac" WAVE
INDEX 01 00:00:00
TRACK 05 AUDIO
TITLE "Yo Soy Cubano"
PERFORMER "Chakachas"
FLAGS DCP
INDEX 00 03:55:54
FILE "05 - Yo Soy Cubano.flac" WAVE
INDEX 01 00:00:00
TRACK 06 AUDIO
TITLE "Eso Es El Amor"
PERFORMER "Chakachas"
FLAGS DCP
INDEX 00 02:40:70
FILE "06 - Eso Es El Amor.flac" WAVE
INDEX 01 00:00:00
TRACK 07 AUDIO
TITLE "Harlem Nocturne"
PERFORMER "Chakachas"
FLAGS DCP
INDEX 00 02:47:51
FILE "07 - Harlem Nocturne.flac" WAVE
INDEX 01 00:00:00
TRACK 08 AUDIO
TITLE "Ay Mulata"
PERFORMER "Chakachas"
FLAGS DCP
INDEX 00 03:28:16
FILE "08 - Ay Mulata.flac" WAVE
INDEX 01 00:00:00
TRACK 09 AUDIO
TITLE "El Canyon Rojo"
PERFORMER "Chakachas"
FLAGS DCP
INDEX 00 03:02:47
FILE "09 - El Canyon Rojo.flac" WAVE
INDEX 01 00:00:00
TRACK 10 AUDIO
TITLE "El Rico Son"
PERFORMER "Chakachas"
FLAGS DCP
INDEX 00 02:31:35
FILE "10 - El Rico Son.flac" WAVE
INDEX 01 00:00:00
TRACK 11 AUDIO
TITLE "Jungle Fever"
PERFORMER "Chakachas"
FLAGS DCP
INDEX 00 03:09:62
FILE "11 - Jungle Fever.flac" WAVE
INDEX 01 00:00:00
Приватный:
Нет (DHT включён)
Размер:
214.16 Мб (224,563,076 байт) » файлов: 20
Участники:
0 раздают, 0 качают (0 участников всего)
Внешние участники:
3 раздают, 1 качают (4 участников всего) [ Обновить ]
Есть вопросы - пишите личное сообщение пользователю M0p94ok.
15:30
126
Нет комментариев. Ваш будет первым!