Поиск

(Funk, Soul, Disco) [CD] Chaka Khan and Rufus - Street Player - 1994, FLAC (tracks+.cue), lossless

(Funk, Soul, Disco) [CD] Chaka Khan and Rufus - Street Player - 1994, FLAC (tracks+.cue), lossless
Треклист:
Chaka Khan and Rufus / Street Player
Жанр: Funk, Soul, Disco
Носитель: CD
Страна-производитель диска (релиза): Germany
Год издания: 1994
Издатель (лейбл): MCAD
Номер по каталогу: 11031
Аудиокодек: FLAC (*.flac)
Тип рипа: tracks+.cue
Битрейт аудио: lossless
Продолжительность: 40:38
Источник (релизер): обмен
Наличие сканов в содержимом раздачи: да
Треклист:
01. Chaka Khan & Rufus - Street Player [4:55]
02. Chaka Khan & Rufus - Stay [5:43]
03. Chaka Khan & Rufus - Turn [4:45]
04. Chaka Khan & Rufus - Best of your Heart [3:47]
05. Chaka Khan & Rufus - Finale [2:15]
06. Chaka Khan & Rufus - Blue Love [3:21]
07. Chaka Khan & Rufus - Stranger to Love [3:38]
08. Chaka Khan & Rufus - Take Time [4:18]
09. Chaka Khan & Rufus - Destiny [4:27]
10. Chaka Khan & Rufus - Change your Ways [3:30]
 
Лог создания рипа
Exact Audio Copy V1.0 beta 3 from 29. August 2011
EAC extraction logfile from 1. December 2012, 19:55
Chaka Khan & Rufus / Street Player
Used drive : PIONEER DVDRW DR-TD08HB Adapter: 1 ID: 0
Read mode : Secure
Utilize accurate stream : Yes
Defeat audio cache : Yes
Make use of C2 pointers : No
Read offset correction : 48
Overread into Lead-In and Lead-Out : No
Fill up missing offset samples with silence : Yes
Delete leading and trailing silent blocks : No
Null samples used in CRC calculations : Yes
Used interface : Native Win32 interface for Win NT & 2000
Gap handling : Appended to previous track
Used output format : User Defined Encoder
Selected bitrate : 1024 kBit/s
Quality : High
Add ID3 tag : No
Command line compressor : C:\Program Files\Exact Audio Copy\Flac\flac.exe
Additional command line options : -8 -V -T "ARTIST=%artist%" -T "TITLE=%title%" -T "ALBUM=%albumtitle%" -T "DATE=%year%" -T "TRACKNUMBER=%tracknr%" -T "GENRE=%genre%" -T "PERFORMER=%albuminterpret%" -T "COMPOSER=%composer%" %haslyrics%--tag-from-file=LYRICS="%lyricsfile%"%haslyrics% -T "ALBUMARTIST=%albumartist%" -T "DISCNUMBER=%cdnumber%" -T "TOTALDISCS=%totalcds%" -T "TOTALTRACKS=%numtracks%" -T "COMMENT=EAC V1.0 beta 3%comment%" %source% -o %dest%
TOC of the extracted CD
Track | Start | Length | Start sector | End sector
---------------------------------------------------------
1 | 0:00.00 | 4:54.52 | 0 | 22101
2 | 4:54.52 | 5:43.15 | 22102 | 47841
3 | 10:37.67 | 4:45.35 | 47842 | 69251
4 | 15:23.27 | 3:46.43 | 69252 | 86244
5 | 19:09.70 | 2:14.47 | 86245 | 96341
6 | 21:24.42 | 3:20.45 | 96342 | 111386
7 | 24:45.12 | 3:38.33 | 111387 | 127769
8 | 28:23.45 | 4:17.45 | 127770 | 147089
9 | 32:41.15 | 4:26.52 | 147090 | 167091
10 | 37:07.67 | 3:29.70 | 167092 | 182836
Track 1
Filename C:\Users\admin\Music\EACFlac\FLAC\01 - Street Player.wav
Pre-gap length 0:00:02.00
Peak level 78.7 %
Extraction speed 2.1 X
Track quality 100.0 %
Test CRC 2575F7DD
Copy CRC 2575F7DD
Accurately ripped (confidence 1) [53CD895D] (AR v1)
Copy OK
Track 2
Filename C:\Users\admin\Music\EACFlac\FLAC\02 - Stay.wav
Peak level 71.1 %
Extraction speed 2.4 X
Track quality 100.0 %
Test CRC 028454B6
Copy CRC 028454B6
Accurately ripped (confidence 1) [E1B36C87] (AR v1)
Copy OK
Track 3
Filename C:\Users\admin\Music\EACFlac\FLAC\03 - Turn.wav
Pre-gap length 0:00:03.16
Peak level 96.5 %
Extraction speed 3.5 X
Track quality 100.0 %
Test CRC 1C85F3DE
Copy CRC 1C85F3DE
Accurately ripped (confidence 1) [ECA6AF5D] (AR v1)
Copy OK
Track 4
Filename C:\Users\admin\Music\EACFlac\FLAC\04 - Best of your Heart.wav
Pre-gap length 0:00:03.86
Peak level 99.0 %
Extraction speed 3.6 X
Track quality 100.0 %
Test CRC 86DE8668
Copy CRC 86DE8668
Accurately ripped (confidence 1) [3BE266D0] (AR v1)
Copy OK
Track 5
Filename C:\Users\admin\Music\EACFlac\FLAC\05 - Finale.wav
Peak level 60.4 %
Extraction speed 3.4 X
Track quality 100.0 %
Test CRC D3CB5FDC
Copy CRC D3CB5FDC
Accurately ripped (confidence 1) [124C19F2] (AR v1)
Copy OK
Track 6
Filename C:\Users\admin\Music\EACFlac\FLAC\06 - Blue Love.wav
Pre-gap length 0:00:02.96
Peak level 90.4 %
Extraction speed 3.8 X
Track quality 100.0 %
Test CRC F8190D19
Copy CRC F8190D19
Accurately ripped (confidence 1) [A0C66CD5] (AR v1)
Copy OK
Track 7
Filename C:\Users\admin\Music\EACFlac\FLAC\07 - Stranger to Love.wav
Peak level 83.2 %
Extraction speed 3.6 X
Track quality 99.9 %
Test CRC 377D76A2
Copy CRC 377D76A2
Accurately ripped (confidence 1) [87DDFA89] (AR v1)
Copy OK
Track 8
Filename C:\Users\admin\Music\EACFlac\FLAC\08 - Take Time.wav
Pre-gap length 0:00:02.17
Peak level 89.9 %
Extraction speed 3.8 X
Track quality 99.9 %
Test CRC 65CF7DC3
Copy CRC 65CF7DC3
Accurately ripped (confidence 1) [287FB08B] (AR v1)
Copy OK
Track 9
Filename C:\Users\admin\Music\EACFlac\FLAC\09 - Destiny.wav
Peak level 65.3 %
Extraction speed 4.5 X
Track quality 100.0 %
Test CRC C859B839
Copy CRC C859B839
Accurately ripped (confidence 1) [E930F26D] (AR v1)
Copy OK
Track 10
Filename C:\Users\admin\Music\EACFlac\FLAC\10 - Change your Ways.wav
Peak level 72.3 %
Extraction speed 4.5 X
Track quality 100.0 %
Test CRC 06A8CE54
Copy CRC 06A8CE54
Accurately ripped (confidence 1) [6D56FF66] (AR v1)
Copy OK
All tracks accurately ripped
No errors occurred
End of status report
---- CUETools DB Plugin V2.1.3
[CTDB TOCID: 4Db7muuKCZI5bZMBNEis1YkuKrY-] disk not present in database, Submit result: 4Db7muuKCZI5bZMBNEis1YkuKrY- has been uploaded
==== Log checksum 6FDE5CEBEBB87EE6F9B60B28CFBD3A7339F488658D9A647F0C139EE02BA20440 ====
 
Содержание индексной карты (.CUE)
REM GENRE Soul
REM DATE 1978
REM DISCID 9109850A
REM COMMENT "ExactAudioCopy v1.0b3"
PERFORMER "Chaka Khan & Rufus"
TITLE "Street Player"
FILE "01 - Street Player.wav" WAVE
TRACK 01 AUDIO
TITLE "Street Player"
PERFORMER "Chaka Khan & Rufus"
ISRC USMC17846056
INDEX 01 00:00:00
FILE "02 - Stay.wav" WAVE
TRACK 02 AUDIO
TITLE "Stay"
PERFORMER "Chaka Khan & Rufus"
ISRC USMC17846057
INDEX 01 00:00:00
TRACK 03 AUDIO
TITLE "Turn"
PERFORMER "Chaka Khan & Rufus"
ISRC USMC17846058
INDEX 00 05:40:03
FILE "03 - Turn.wav" WAVE
INDEX 01 00:00:00
TRACK 04 AUDIO
TITLE "Best of your Heart"
PERFORMER "Chaka Khan & Rufus"
ISRC USMC17846059
INDEX 00 04:41:45
FILE "04 - Best of your Heart.wav" WAVE
INDEX 01 00:00:00
FILE "05 - Finale.wav" WAVE
TRACK 05 AUDIO
TITLE "Finale"
PERFORMER "Chaka Khan & Rufus"
ISRC USMC17846060
INDEX 01 00:00:00
TRACK 06 AUDIO
TITLE "Blue Love"
PERFORMER "Chaka Khan & Rufus"
ISRC USMC17846061
INDEX 00 02:11:50
FILE "06 - Blue Love.wav" WAVE
INDEX 01 00:00:00
FILE "07 - Stranger to Love.wav" WAVE
TRACK 07 AUDIO
TITLE "Stranger to Love"
PERFORMER "Chaka Khan & Rufus"
ISRC USMC17846062
INDEX 01 00:00:00
TRACK 08 AUDIO
TITLE "Take Time"
PERFORMER "Chaka Khan & Rufus"
ISRC USMC17846063
INDEX 00 03:36:20
FILE "08 - Take Time.wav" WAVE
INDEX 01 00:00:00
FILE "09 - Destiny.wav" WAVE
TRACK 09 AUDIO
TITLE "Destiny"
PERFORMER "Chaka Khan & Rufus"
ISRC USMC17846064
INDEX 01 00:00:00
FILE "10 - Change your Ways.wav" WAVE
TRACK 10 AUDIO
TITLE "Change your Ways"
PERFORMER "Chaka Khan & Rufus"
ISRC USMC17846065
INDEX 01 00:00:00
Приватный:
Нет (DHT включён)
Размер:
253.14 Мб (265,434,978 байт) » файлов: 18
Участники:
0 раздают, 1 качают (1 участников всего)
Внешние участники:
1 раздают, 0 качают (1 участников всего) [ Обновить ]
Скорость:
3.29 Мб/c 0/c
Есть вопросы - пишите личное сообщение пользователю M0p94ok.
15:29
61
Нет комментариев. Ваш будет первым!