Поиск

(Gospel, Soul, R&B) [CD] Marion Williams - My Soul Looks Back :: The Genius Of Marion Williams 1962-1992 - 1994, FLAC (tracks+.cue), lossless

(Gospel, Soul, R&B) [CD] Marion Williams - My Soul Looks Back :: The Genius Of Marion Williams 1962-1992 - 1994, FLAC (tracks+.cue), lossless
Треклист:
Marion Williams - My Soul Looks Back :: The Genius Of Marion Williams 1962-1992 Жанр: Gospel, Soul, R&B
Носитель: CD
Год издания: 1994
Издатель (лейбл): Shanachie
Номер по каталогу: 6011
Аудиокодек: FLAC (*.flac)
Тип рипа: tracks+.cue
Битрейт аудио: lossless
Продолжительность: 76:36
Источник (релизер): Аполло
Наличие сканов в содержимом раздачи: да (PDF)
Треклист:
01. I Just Can't Help It (2:13)
02. Precious Lord (3:11)
03. In The Upper Room (3:17)
04. Stretch Out (3:31)
05. Poor Pilgrim Of Sorrow (4:25)
06. Revive Us Again (2:15)
07. The Great Speckled Bird (4:36)
08. Dead Cat On The Line (3:23)
09. I'm Beggin' You Please (2:05)
10. Stand By Me (2:40)
11. Look At The People (3:45)
12. How I Got Over (4:22)
13. The Moan (3:37)
14. Farther Along (3:08)
15. It's Your Time Now (3:29)
16. Poor Little Jesus (2:24)
17. The Servant's Prayer Amen (2:56)
18. I Looked Down The Line (3:03)
19. Even Me (2:35)
20. Just One Moment (2:48)
21. Can't No Grave Hold My Body Down (2:10)
22. Beams Of Heaven (4:15)
23. Packin' Up (2:09)
24. Surely God Is Able (0:56)
25. My Soul Looks Back (2:21)
 
 
AllMusic Review by Jason Ankeny
Soul Looks Back: The Genius of Marion Williams 1962-1992 is an outstanding 25-track portrait of the legendary gospel singer in all of her glory. Listening to early sides like "Packin' Up" and "Surely God Is Able," it's easy to understand her influence on the likes of Little Richard and Aretha Franklin. These powerful songs are primal blasts of energy with all the cathartic transcendence more commonly attributed to rock & roll. Closer to R&B than any of her contemporaries, Williams also flirts playfully with the blues on cuts like "Dead Cat on the Line" and "It's Your Time Now But My Time After Awhile," and even dabbles in country on a cover of Roy Acuff's "The Great Speckled Bird." Whatever the setting, however, her voice is a marvel of improvisatory brilliance, her soprano never less than devastating. This is gospel at its finest.

 
Лог создания рипа
Exact Audio Copy V1.1 from 23. June 2015
EAC extraction logfile from 12. September 2017, 9:25
Marion Williams / My Soul Looks Back
Used drive : PBDS CD-ROM DH-48N1S Adapter: 1 ID: 0
Read mode : Secure
Utilize accurate stream : Yes
Defeat audio cache : Yes
Make use of C2 pointers : No
Read offset correction : 6
Overread into Lead-In and Lead-Out : No
Fill up missing offset samples with silence : Yes
Delete leading and trailing silent blocks : No
Null samples used in CRC calculations : Yes
Used interface : Native Win32 interface for Win NT & 2000
Gap handling : Appended to previous track
Used output format : User Defined Encoder
Selected bitrate : 768 kBit/s
Quality : High
Add ID3 tag : No
Command line compressor : C:\Program Files (x86)\Exact Audio Copy\FLAC\FLAC.EXE
Additional command line options : -8 -V -T "ARTIST=%artist%" -T "TITLE=%title%" -T "ALBUM=%albumtitle%" -T "DATE=%year%" -T "TRACKNUMBER=%tracknr%" -T "GENRE=%genre%" -T "PERFORMER=%albuminterpret%" -T "COMPOSER=%composer%" %haslyrics%--tag-from-file=LYRICS="%lyricsfile%"%haslyrics% -T "ALBUMARTIST=%albumartist%" -T "DISCNUMBER=%cdnumber%" -T "TOTALDISCS=%totalcds%" -T "TOTALTRACKS=%numtracks%" -T "COMMENT=%comment%" %source% -o %dest%
TOC of the extracted CD
Track | Start | Length | Start sector | End sector
---------------------------------------------------------
1 | 0:00.32 | 2:13.13 | 32 | 10019
2 | 2:13.45 | 3:11.05 | 10020 | 24349
3 | 5:24.50 | 3:17.25 | 24350 | 39149
4 | 8:42.00 | 3:30.72 | 39150 | 54971
5 | 12:12.72 | 4:25.20 | 54972 | 74866
6 | 16:38.17 | 2:14.45 | 74867 | 84961
7 | 18:52.62 | 4:36.18 | 84962 | 105679
8 | 23:29.05 | 3:23.15 | 105680 | 120919
9 | 26:52.20 | 2:05.35 | 120920 | 130329
10 | 28:57.55 | 2:40.00 | 130330 | 142329
11 | 31:37.55 | 3:45.05 | 142330 | 159209
12 | 35:22.60 | 4:21.47 | 159210 | 178831
13 | 39:44.32 | 3:37.08 | 178832 | 195114
14 | 43:21.40 | 3:08.22 | 195115 | 209236
15 | 46:29.62 | 3:28.50 | 209237 | 224886
16 | 49:58.37 | 2:24.28 | 224887 | 235714
17 | 52:22.65 | 2:55.52 | 235715 | 248891
18 | 55:18.42 | 3:02.38 | 248892 | 262579
19 | 58:21.05 | 2:34.72 | 262580 | 274201
20 | 60:56.02 | 2:48.18 | 274202 | 286819
21 | 63:44.20 | 2:10.12 | 286820 | 296581
22 | 65:54.32 | 4:15.05 | 296582 | 315711
23 | 70:09.37 | 2:09.10 | 315712 | 325396
24 | 72:18.47 | 0:56.30 | 325397 | 329626
25 | 73:15.02 | 2:21.25 | 329627 | 340226
Track 1
Filename C:\EACRips\01 - I Just Can't Help It.wav
Pre-gap length 0:00:02.42
Peak level 95.5 %
Extraction speed 4.9 X
Track quality 100.0 %
Test CRC 8BDC7E34
Copy CRC 8BDC7E34
Accurately ripped (confidence 4) [69AC0F53] (AR v2)
Copy OK
Track 2
Filename C:\EACRips\02 - Precious Lord.wav
Pre-gap length 0:00:01.40
Peak level 93.2 %
Extraction speed 4.8 X
Track quality 100.0 %
Test CRC 9BB4129A
Copy CRC 9BB4129A
Accurately ripped (confidence 4) [E13D6CF6] (AR v2)
Copy OK
Track 3
Filename C:\EACRips\03 - In The Upper Room.wav
Pre-gap length 0:00:01.37
Peak level 92.0 %
Extraction speed 5.5 X
Track quality 100.0 %
Test CRC 3C79C905
Copy CRC 3C79C905
Accurately ripped (confidence 4) [DFB0DFED] (AR v2)
Copy OK
Track 4
Filename C:\EACRips\04 - Stretch Out.wav
Pre-gap length 0:00:01.66
Peak level 95.5 %
Extraction speed 5.8 X
Track quality 100.0 %
Test CRC 5172136E
Copy CRC 5172136E
Accurately ripped (confidence 4) [A2ABF597] (AR v2)
Copy OK
Track 5
Filename C:\EACRips\05 - Poor Pilgrim Of Sorrow.wav
Pre-gap length 0:00:01.96
Peak level 91.2 %
Extraction speed 4.8 X
Track quality 99.9 %
Test CRC 2F74546C
Copy CRC 2F74546C
Accurately ripped (confidence 4) [26C375AC] (AR v2)
Copy OK
Track 6
Filename C:\EACRips\06 - Revive Us Again.wav
Pre-gap length 0:00:01.76
Peak level 95.5 %
Extraction speed 3.9 X
Track quality 100.0 %
Test CRC AF717775
Copy CRC AF717775
Accurately ripped (confidence 4) [B42C5B2D] (AR v2)
Copy OK
Track 7
Filename C:\EACRips\07 - The Great Speckled Bird.wav
Pre-gap length 0:00:01.66
Peak level 95.0 %
Extraction speed 5.4 X
Track quality 99.9 %
Test CRC 9F824B39
Copy CRC 9F824B39
Accurately ripped (confidence 4) [2031F6E1] (AR v2)
Copy OK
Track 8
Filename C:\EACRips\08 - Dead Cat On The Line.wav
Pre-gap length 0:00:01.77
Peak level 95.5 %
Extraction speed 5.2 X
Track quality 99.9 %
Test CRC 958379BF
Copy CRC 958379BF
Accurately ripped (confidence 4) [AB50021E] (AR v2)
Copy OK
Track 9
Filename C:\EACRips\09 - I'm Beggin' You Please.wav
Pre-gap length 0:00:01.64
Peak level 93.6 %
Extraction speed 4.6 X
Track quality 99.9 %
Test CRC F4B333C7
Copy CRC F4B333C7
Accurately ripped (confidence 4) [B9EEB519] (AR v2)
Copy OK
Track 10
Filename C:\EACRips\10 - Stand By Me.wav
Pre-gap length 0:00:01.40
Peak level 95.5 %
Extraction speed 5.1 X
Track quality 99.9 %
Test CRC F87F2C36
Copy CRC F87F2C36
Accurately ripped (confidence 4) [1B24F561] (AR v2)
Copy OK
Track 11
Filename C:\EACRips\11 - Look At The People.wav
Pre-gap length 0:00:02.20
Peak level 95.5 %
Extraction speed 5.8 X
Track quality 99.9 %
Test CRC 9FF3B27F
Copy CRC 9FF3B27F
Accurately ripped (confidence 4) [65AC098F] (AR v2)
Copy OK
Track 12
Filename C:\EACRips\12 - How I Got Over.wav
Pre-gap length 0:00:01.53
Peak level 93.2 %
Extraction speed 6.4 X
Track quality 99.9 %
Test CRC 83106CB7
Copy CRC 83106CB7
Accurately ripped (confidence 4) [426EE211] (AR v2)
Copy OK
Track 13
Filename C:\EACRips\13 - The Moan.wav
Pre-gap length 0:00:01.02
Peak level 84.7 %
Extraction speed 6.4 X
Track quality 99.9 %
Test CRC 8CAA4D32
Copy CRC 8CAA4D32
Accurately ripped (confidence 4) [3CA79430] (AR v2)
Copy OK
Track 14
Filename C:\EACRips\14 - Farther Along.wav
Pre-gap length 0:00:01.66
Peak level 93.1 %
Extraction speed 7.5 X
Track quality 100.0 %
Test CRC CECBD927
Copy CRC CECBD927
Accurately ripped (confidence 4) [65FF6DD8] (AR v2)
Copy OK
Track 15
Filename C:\EACRips\15 - It's Your Time Now.wav
Pre-gap length 0:00:01.80
Peak level 91.5 %
Extraction speed 7.7 X
Track quality 100.0 %
Test CRC 575774F1
Copy CRC 575774F1
Accurately ripped (confidence 4) [75715176] (AR v2)
Copy OK
Track 16
Filename C:\EACRips\16 - Poor Little Jesus.wav
Pre-gap length 0:00:01.46
Peak level 92.7 %
Extraction speed 7.4 X
Track quality 100.0 %
Test CRC F5E0DFF5
Copy CRC F5E0DFF5
Accurately ripped (confidence 3) [3B065B3B] (AR v2)
Copy OK
Track 17
Filename C:\EACRips\17 - The Servant's Prayer Amen.wav
Pre-gap length 0:00:01.60
Peak level 95.2 %
Extraction speed 7.8 X
Track quality 100.0 %
Test CRC 24246B65
Copy CRC 24246B65
Accurately ripped (confidence 3) [4E32413B] (AR v2)
Copy OK
Track 18
Filename C:\EACRips\18 - I Looked Down The Line.wav
Pre-gap length 0:00:01.96
Peak level 89.6 %
Extraction speed 8.1 X
Track quality 100.0 %
Test CRC 349302B7
Copy CRC 349302B7
Accurately ripped (confidence 4) [6B549AA7] (AR v2)
Copy OK
Track 19
Filename C:\EACRips\19 - Even Me.wav
Pre-gap length 0:00:02.06
Peak level 95.2 %
Extraction speed 7.8 X
Track quality 100.0 %
Test CRC 5FD95158
Copy CRC 5FD95158
Accurately ripped (confidence 4) [A38CBC5C] (AR v2)
Copy OK
Track 20
Filename C:\EACRips\20 - Just One Moment.wav
Pre-gap length 0:00:01.69
Peak level 94.8 %
Extraction speed 7.9 X
Track quality 100.0 %
Test CRC 2D21C146
Copy CRC 2D21C146
Accurately ripped (confidence 4) [ED1B8193] (AR v2)
Copy OK
Track 21
Filename C:\EACRips\21 - Can't No Grave Hold My Body Down.wav
Pre-gap length 0:00:01.86
Peak level 95.5 %
Extraction speed 6.2 X
Track quality 99.9 %
Test CRC 079577FC
Copy CRC 079577FC
Accurately ripped (confidence 4) [1B4BA9BB] (AR v2)
Copy OK
Track 22
Filename C:\EACRips\22 - Beams Of Heaven.wav
Pre-gap length 0:00:01.76
Peak level 95.2 %
Extraction speed 9.0 X
Track quality 100.0 %
Test CRC 9F44A9F3
Copy CRC 9F44A9F3
Accurately ripped (confidence 4) [81AB9760] (AR v2)
Copy OK
Track 23
Filename C:\EACRips\23 - Packin' Up.wav
Pre-gap length 0:00:01.40
Peak level 95.4 %
Extraction speed 6.2 X
Track quality 99.9 %
Test CRC EEBB850D
Copy CRC EEBB850D
Accurately ripped (confidence 3) [1542BF6D] (AR v2)
Copy OK
Track 24
Filename C:\EACRips\24 - Surely God Is Able.wav
Pre-gap length 0:00:01.22
Peak level 95.5 %
Extraction speed 4.2 X
Track quality 99.8 %
Test CRC 51410C8F
Copy CRC 51410C8F
Accurately ripped (confidence 4) [1CE9B982] (AR v2)
Copy OK
Track 25
Filename C:\EACRips\25 - My Soul Looks Back.wav
Pre-gap length 0:00:01.36
Peak level 95.2 %
Extraction speed 4.7 X
Track quality 100.0 %
Test CRC B9C61E9D
Copy CRC B9C61E9D
Accurately ripped (confidence 4) [A54BD465] (AR v2)
Copy OK
All tracks accurately ripped
No errors occurred
End of status report
---- CUETools DB Plugin V2.1.6
[CTDB TOCID: EBNj0vTvWmmvVHRUkBb1jCtPDiY-] found
Submit result: EBNj0vTvWmmvVHRUkBb1jCtPDiY- has been confirmed
Track | CTDB Status
1 | (2/2) Accurately ripped
2 | (2/2) Accurately ripped
3 | (2/2) Accurately ripped
4 | (2/2) Accurately ripped
5 | (2/2) Accurately ripped
6 | (2/2) Accurately ripped
7 | (2/2) Accurately ripped
8 | (2/2) Accurately ripped
9 | (2/2) Accurately ripped
10 | (2/2) Accurately ripped
11 | (2/2) Accurately ripped
12 | (2/2) Accurately ripped
13 | (2/2) Accurately ripped
14 | (2/2) Accurately ripped
15 | (2/2) Accurately ripped
16 | (2/2) Accurately ripped
17 | (2/2) Accurately ripped
18 | (2/2) Accurately ripped
19 | (2/2) Accurately ripped
20 | (2/2) Accurately ripped
21 | (2/2) Accurately ripped
22 | (2/2) Accurately ripped
23 | (2/2) Accurately ripped
24 | (2/2) Accurately ripped
25 | (2/2) Accurately ripped
==== Log checksum FEBCBB5FD35A1C9A9D42486E3B0BF14EAAB2FF5C5D3F3760A33AFC82B9904C23 ====
 
Содержание индексной карты (.CUE)
REM GENRE Gospel
REM DATE 1994
REM DISCID 4211B819
REM COMMENT "ExactAudioCopy v1.1"
PERFORMER "Marion Williams"
TITLE "My Soul Looks Back"
FILE "01 - I Just Can't Help It.wav" WAVE
TRACK 01 AUDIO
TITLE "I Just Can't Help It"
PERFORMER "Marion Williams"
PREGAP 00:00:32
INDEX 01 00:00:00
TRACK 02 AUDIO
TITLE "Precious Lord"
PERFORMER "Marion Williams"
INDEX 00 02:11:58
FILE "02 - Precious Lord.wav" WAVE
INDEX 01 00:00:00
TRACK 03 AUDIO
TITLE "In The Upper Room"
PERFORMER "Marion Williams"
INDEX 00 03:09:52
FILE "03 - In The Upper Room.wav" WAVE
INDEX 01 00:00:00
TRACK 04 AUDIO
TITLE "Stretch Out"
PERFORMER "Marion Williams"
INDEX 00 03:15:50
FILE "04 - Stretch Out.wav" WAVE
INDEX 01 00:00:00
TRACK 05 AUDIO
TITLE "Poor Pilgrim Of Sorrow"
PERFORMER "Marion Williams"
INDEX 00 03:29:00
FILE "05 - Poor Pilgrim Of Sorrow.wav" WAVE
INDEX 01 00:00:00
TRACK 06 AUDIO
TITLE "Revive Us Again"
PERFORMER "Marion Williams"
INDEX 00 04:23:38
FILE "06 - Revive Us Again.wav" WAVE
INDEX 01 00:00:00
TRACK 07 AUDIO
TITLE "The Great Speckled Bird"
PERFORMER "Marion Williams"
INDEX 00 02:12:70
FILE "07 - The Great Speckled Bird.wav" WAVE
INDEX 01 00:00:00
TRACK 08 AUDIO
TITLE "Dead Cat On The Line"
PERFORMER "Marion Williams"
INDEX 00 04:34:35
FILE "08 - Dead Cat On The Line.wav" WAVE
INDEX 01 00:00:00
TRACK 09 AUDIO
TITLE "I'm Beggin' You Please"
PERFORMER "Marion Williams"
INDEX 00 03:21:42
FILE "09 - I'm Beggin' You Please.wav" WAVE
INDEX 01 00:00:00
TRACK 10 AUDIO
TITLE "Stand By Me"
PERFORMER "Marion Williams"
INDEX 00 02:04:05
FILE "10 - Stand By Me.wav" WAVE
INDEX 01 00:00:00
TRACK 11 AUDIO
TITLE "Look At The People"
PERFORMER "Marion Williams"
INDEX 00 02:37:60
FILE "11 - Look At The People.wav" WAVE
INDEX 01 00:00:00
TRACK 12 AUDIO
TITLE "How I Got Over"
PERFORMER "Marion Williams"
INDEX 00 03:43:40
FILE "12 - How I Got Over.wav" WAVE
INDEX 01 00:00:00
TRACK 13 AUDIO
TITLE "The Moan"
PERFORMER "Marion Williams"
INDEX 00 04:20:45
FILE "13 - The Moan.wav" WAVE
INDEX 01 00:00:00
TRACK 14 AUDIO
TITLE "Farther Along"
PERFORMER "Marion Williams"
INDEX 00 03:35:33
FILE "14 - Farther Along.wav" WAVE
INDEX 01 00:00:00
TRACK 15 AUDIO
TITLE "It's Your Time Now"
PERFORMER "Marion Williams"
INDEX 00 03:06:37
FILE "15 - It's Your Time Now.wav" WAVE
INDEX 01 00:00:00
TRACK 16 AUDIO
TITLE "Poor Little Jesus"
PERFORMER "Marion Williams"
INDEX 00 03:27:15
FILE "16 - Poor Little Jesus.wav" WAVE
INDEX 01 00:00:00
TRACK 17 AUDIO
TITLE "The Servant's Prayer Amen"
PERFORMER "Marion Williams"
INDEX 00 02:22:58
FILE "17 - The Servant's Prayer Amen.wav" WAVE
INDEX 01 00:00:00
TRACK 18 AUDIO
TITLE "I Looked Down The Line"
PERFORMER "Marion Williams"
INDEX 00 02:53:55
FILE "18 - I Looked Down The Line.wav" WAVE
INDEX 01 00:00:00
TRACK 19 AUDIO
TITLE "Even Me"
PERFORMER "Marion Williams"
INDEX 00 03:00:33
FILE "19 - Even Me.wav" WAVE
INDEX 01 00:00:00
TRACK 20 AUDIO
TITLE "Just One Moment"
PERFORMER "Marion Williams"
INDEX 00 02:33:20
FILE "20 - Just One Moment.wav" WAVE
INDEX 01 00:00:00
TRACK 21 AUDIO
TITLE "Can't No Grave Hold My Body Down"
PERFORMER "Marion Williams"
INDEX 00 02:46:28
FILE "21 - Can't No Grave Hold My Body Down.wav" WAVE
INDEX 01 00:00:00
TRACK 22 AUDIO
TITLE "Beams Of Heaven"
PERFORMER "Marion Williams"
INDEX 00 02:08:30
FILE "22 - Beams Of Heaven.wav" WAVE
INDEX 01 00:00:00
TRACK 23 AUDIO
TITLE "Packin' Up"
PERFORMER "Marion Williams"
INDEX 00 04:13:50
FILE "23 - Packin' Up.wav" WAVE
INDEX 01 00:00:00
TRACK 24 AUDIO
TITLE "Surely God Is Able"
PERFORMER "Marion Williams"
INDEX 00 02:07:68
FILE "24 - Surely God Is Able.wav" WAVE
INDEX 01 00:00:00
TRACK 25 AUDIO
TITLE "My Soul Looks Back"
PERFORMER "Marion Williams"
INDEX 00 00:55:03
FILE "25 - My Soul Looks Back.wav" WAVE
INDEX 01 00:00:00
Приватный:
Нет (DHT включён)
Размер:
414.25 Мб (434,367,712 байт) » файлов: 30
Участники:
0 раздают, 0 качают (0 участников всего)
Внешние участники:
2 раздают, 1 качают (3 участников всего) [ Обновить ]
Есть вопросы - пишите личное сообщение пользователю M0p94ok.
15:32
68
Нет комментариев. Ваш будет первым!