Поиск

(Gospel, Soul, R&B) [CD] Marion Williams - The Gospel Soul Of Marion Williams - 1999, FLAC (tracks+.cue), lossless

(Gospel, Soul, R&B) [CD] Marion Williams - The Gospel Soul Of Marion Williams - 1999, FLAC (tracks+.cue), lossless
Треклист:
Marion Williams - The Gospel Soul Of Marion Williams Жанр: Gospel, Soul, R&B
Носитель: CD
Год издания: 1999
Издатель (лейбл): Shanachie
Номер по каталогу: 6036
Аудиокодек: FLAC (*.flac)
Тип рипа: tracks+.cue
Битрейт аудио: lossless
Продолжительность: 70:51
Источник (релизер): Аполло
Наличие сканов в содержимом раздачи: да
Треклист:
01. Ain't No Harm Done (2:41)
02. The Old Sheep Knows the Road (3:29)
03. This Train (1:42)
04. I've Come So Far (4:30)
05. Ain't No Stranger Now (2:23)
06. Out Of The Depths (3:15)
07. He Knows How Much We Can Bear (4:20)
08. The Man I'm Looking For (4:18)
09. I Thank You Lord (3:57)
10. Victory Ahead (2:08)
11. The Fight Is On (2:12)
12. My Hope (2:28)
13. Nobody But You Lord (2:58)
14. Dark Was The Night (3:42)
15. Walk Around (2:06)
16. These Are They (2:32)
17. Jesus Traveled This Road Before (4:12)
18. Lord I Thank You (2:25)
19. Savior Don't Pass Me By (4:06)
20. Let Him Come In (1:55)
21. I'll Fly Away (2:51)
22. Go Preach My Gospel (1:54)
23. Just A Closer Walk With Thee (2:46)
24. Sit Down Servant (2:02)
 
 
AllMusic Review by AllMusic
Issued in 1999, this compilation focuses on the latter-day work of legendary gospel singer Marion Williams, who passed away in '94. Whether settling into lively soul-tinged tunes ("Ain't No Harm Done," "This Train") or working in a more spare and traditional church-oriented vein ("I Thank You Lord," "Just a Closer Walk With Thee"), Williams's impressively dynamic voice is always at the fore, reinforcing her status as one of the finest singers in gospel history. While other collections may cover more ground (see MY SOUL LOOKS BACK), THE GOSPEL OF MARION WILLIAMS offers up an excellent overview of her '70s-to-'90s recordings.

 
Лог создания рипа
Exact Audio Copy V1.3 from 2. September 2016
EAC extraction logfile from 23. September 2017, 17:54
Marion Williams / The Gospel Soul Of Marion Williams
Used drive : HL-DT-STDVD+-RW GH30N Adapter: 1 ID: 1
Read mode : Secure
Utilize accurate stream : Yes
Defeat audio cache : Yes
Make use of C2 pointers : No
Read offset correction : 102
Overread into Lead-In and Lead-Out : Yes
Fill up missing offset samples with silence : Yes
Delete leading and trailing silent blocks : No
Null samples used in CRC calculations : Yes
Used interface : Native Win32 interface for Win NT & 2000
Gap handling : Appended to previous track
Used output format : User Defined Encoder
Selected bitrate : 768 kBit/s
Quality : High
Add ID3 tag : No
Command line compressor : C:\Program Files (x86)\FLAC\win64\flac.exe
Additional command line options : -8 -V -T "ARTIST=%artist%" -T "TITLE=%title%" -T "ALBUM=%albumtitle%" -T "DATE=%year%" -T "TRACKNUMBER=%tracknr%" -T "GENRE=%genre%" -T "PERFORMER=%albuminterpret%" -T "COMPOSER=%composer%" %haslyrics%--tag-from-file=LYRICS="%lyricsfile%"%haslyrics% -T "ALBUMARTIST=%albumartist%" -T "DISCNUMBER=%cdnumber%" -T "TOTALDISCS=%totalcds%" -T "TOTALTRACKS=%numtracks%" -T "COMMENT=%comment%" %source% -o %dest%
TOC of the extracted CD
Track | Start | Length | Start sector | End sector
---------------------------------------------------------
1 | 0:00.00 | 2:41.12 | 0 | 12086
2 | 2:41.12 | 3:29.19 | 12087 | 27780
3 | 6:10.31 | 1:41.39 | 27781 | 35394
4 | 7:51.70 | 4:29.59 | 35395 | 55628
5 | 12:21.54 | 2:22.43 | 55629 | 66321
6 | 14:44.22 | 3:14.69 | 66322 | 80940
7 | 17:59.16 | 4:19.47 | 80941 | 100412
8 | 22:18.63 | 4:18.30 | 100413 | 119792
9 | 26:37.18 | 3:57.03 | 119793 | 137570
10 | 30:34.21 | 2:07.49 | 137571 | 147144
11 | 32:41.70 | 2:11.46 | 147145 | 157015
12 | 34:53.41 | 2:28.37 | 157016 | 168152
13 | 37:22.03 | 2:58.27 | 168153 | 181529
14 | 40:20.30 | 3:41.43 | 181530 | 198147
15 | 44:01.73 | 2:06.17 | 198148 | 207614
16 | 46:08.15 | 2:32.07 | 207615 | 219021
17 | 48:40.22 | 4:11.58 | 219022 | 237904
18 | 52:52.05 | 2:24.46 | 237905 | 248750
19 | 55:16.51 | 4:06.21 | 248751 | 267221
20 | 59:22.72 | 1:54.67 | 267222 | 275838
21 | 61:17.64 | 2:51.01 | 275839 | 288664
22 | 64:08.65 | 1:53.70 | 288665 | 297209
23 | 66:02.60 | 2:46.17 | 297210 | 309676
24 | 68:49.02 | 2:02.30 | 309677 | 318856
Track 1
Filename C:\EACRips\01 - Ain't No Harm Done.wav
Pre-gap length 0:00:02.00
Peak level 100.0 %
Extraction speed 1.5 X
Track quality 100.0 %
Test CRC EFCE2487
Copy CRC EFCE2487
Track not present in AccurateRip database
Copy OK
Track 2
Filename C:\EACRips\02 - The Old Sheep Knows the Road.wav
Pre-gap length 0:00:02.00
Peak level 80.2 %
Extraction speed 1.7 X
Track quality 100.0 %
Test CRC C62D2271
Copy CRC C62D2271
Track not present in AccurateRip database
Copy OK
Track 3
Filename C:\EACRips\03 - This Train.wav
Pre-gap length 0:00:02.00
Peak level 96.1 %
Extraction speed 1.5 X
Track quality 100.0 %
Test CRC 4843BF65
Copy CRC 4843BF65
Track not present in AccurateRip database
Copy OK
Track 4
Filename C:\EACRips\04 - I've Come So Far.wav
Pre-gap length 0:00:02.00
Peak level 92.7 %
Extraction speed 2.1 X
Track quality 100.0 %
Test CRC 02AFE4FA
Copy CRC 02AFE4FA
Track not present in AccurateRip database
Copy OK
Track 5
Filename C:\EACRips\05 - Ain't No Stranger Now.wav
Pre-gap length 0:00:02.00
Peak level 97.8 %
Extraction speed 2.0 X
Track quality 100.0 %
Test CRC ED565D4B
Copy CRC ED565D4B
Track not present in AccurateRip database
Copy OK
Track 6
Filename C:\EACRips\06 - Out Of The Depths.wav
Pre-gap length 0:00:02.00
Peak level 98.8 %
Extraction speed 2.2 X
Track quality 100.0 %
Test CRC E3C01F85
Copy CRC E3C01F85
Track not present in AccurateRip database
Copy OK
Track 7
Filename C:\EACRips\07 - He Knows How Much We Can Bear.wav
Pre-gap length 0:00:02.00
Peak level 88.5 %
Extraction speed 2.1 X
Track quality 99.9 %
Test CRC C0A07E80
Copy CRC C0A07E80
Track not present in AccurateRip database
Copy OK
Track 8
Filename C:\EACRips\08 - The Man I'm Looking For.wav
Pre-gap length 0:00:02.00
Peak level 57.3 %
Extraction speed 2.5 X
Track quality 100.0 %
Test CRC 586E6D21
Copy CRC 586E6D21
Track not present in AccurateRip database
Copy OK
Track 9
Filename C:\EACRips\09 - I Thank You Lord.wav
Pre-gap length 0:00:02.00
Peak level 82.2 %
Extraction speed 2.3 X
Track quality 99.9 %
Test CRC 27511FCD
Copy CRC 27511FCD
Track not present in AccurateRip database
Copy OK
Track 10
Filename C:\EACRips\10 - Victory Ahead.wav
Pre-gap length 0:00:02.00
Peak level 81.3 %
Extraction speed 2.3 X
Track quality 100.0 %
Test CRC 62FE88E7
Copy CRC 62FE88E7
Track not present in AccurateRip database
Copy OK
Track 11
Filename C:\EACRips\11 - The Fight Is On.wav
Pre-gap length 0:00:02.00
Peak level 97.2 %
Extraction speed 2.4 X
Track quality 100.0 %
Test CRC 73EA6890
Copy CRC 73EA6890
Track not present in AccurateRip database
Copy OK
Track 12
Filename C:\EACRips\12 - My Hope.wav
Pre-gap length 0:00:02.00
Peak level 81.2 %
Extraction speed 2.5 X
Track quality 100.0 %
Test CRC B8CF4997
Copy CRC B8CF4997
Track not present in AccurateRip database
Copy OK
Track 13
Filename C:\EACRips\13 - Nobody But You Lord.wav
Pre-gap length 0:00:02.00
Peak level 94.4 %
Extraction speed 2.7 X
Track quality 100.0 %
Test CRC 800EF3A1
Copy CRC 800EF3A1
Track not present in AccurateRip database
Copy OK
Track 14
Filename C:\EACRips\14 - Dark Was The Night.wav
Pre-gap length 0:00:02.00
Peak level 89.8 %
Extraction speed 2.8 X
Track quality 100.0 %
Test CRC EB225C42
Copy CRC EB225C42
Track not present in AccurateRip database
Copy OK
Track 15
Filename C:\EACRips\15 - Walk Around.wav
Pre-gap length 0:00:02.00
Peak level 97.9 %
Extraction speed 2.7 X
Track quality 100.0 %
Test CRC 22A7DD5A
Copy CRC 22A7DD5A
Track not present in AccurateRip database
Copy OK
Track 16
Filename C:\EACRips\16 - These Are They.wav
Pre-gap length 0:00:02.00
Peak level 89.8 %
Extraction speed 2.8 X
Track quality 100.0 %
Test CRC D2B6160F
Copy CRC D2B6160F
Track not present in AccurateRip database
Copy OK
Track 17
Filename C:\EACRips\17 - Jesus Traveled This Road Before.wav
Pre-gap length 0:00:02.00
Peak level 86.7 %
Extraction speed 3.2 X
Track quality 100.0 %
Test CRC 17E7D909
Copy CRC 17E7D909
Track not present in AccurateRip database
Copy OK
Track 18
Filename C:\EACRips\18 - Lord I Thank You.wav
Pre-gap length 0:00:02.00
Peak level 100.0 %
Extraction speed 3.0 X
Track quality 100.0 %
Test CRC 77AB0BC0
Copy CRC 77AB0BC0
Track not present in AccurateRip database
Copy OK
Track 19
Filename C:\EACRips\19 - Savior Don't Pass Me By.wav
Pre-gap length 0:00:02.01
Peak level 93.7 %
Extraction speed 3.4 X
Track quality 100.0 %
Test CRC A5591F3E
Copy CRC A5591F3E
Track not present in AccurateRip database
Copy OK
Track 20
Filename C:\EACRips\20 - Let Him Come In.wav
Pre-gap length 0:00:02.00
Peak level 96.8 %
Extraction speed 2.9 X
Track quality 100.0 %
Test CRC B874993C
Copy CRC B874993C
Track not present in AccurateRip database
Copy OK
Track 21
Filename C:\EACRips\21 - I'll Fly Away.wav
Pre-gap length 0:00:02.00
Peak level 93.2 %
Extraction speed 3.3 X
Track quality 100.0 %
Test CRC 2101B3A9
Copy CRC 2101B3A9
Track not present in AccurateRip database
Copy OK
Track 22
Filename C:\EACRips\22 - Go Preach My Gospel.wav
Pre-gap length 0:00:02.00
Peak level 91.6 %
Extraction speed 3.0 X
Track quality 100.0 %
Test CRC D967EF0D
Copy CRC D967EF0D
Track not present in AccurateRip database
Copy OK
Track 23
Filename C:\EACRips\23 - Just A Closer Walk With Thee.wav
Pre-gap length 0:00:02.00
Peak level 95.2 %
Extraction speed 3.4 X
Track quality 100.0 %
Test CRC 50921C97
Copy CRC 50921C97
Track not present in AccurateRip database
Copy OK
Track 24
Filename C:\EACRips\24 - Sit Down Servant.wav
Pre-gap length 0:00:02.00
Peak level 82.5 %
Extraction speed 3.9 X
Track quality 100.0 %
Test CRC 9249F4E4
Copy CRC 9249F4E4
Track not present in AccurateRip database
Copy OK
None of the tracks are present in the AccurateRip database
No errors occurred
End of status report
---- CUETools DB Plugin V2.1.6
[CTDB TOCID: Tewm_6XEJ5HoL9oBqpf4W_RSDSE-] disk not present in database
Submit result: Tewm_6XEJ5HoL9oBqpf4W_RSDSE- has been uploaded
==== Log checksum 73D3D304DFB54E94F78A13E34421BD9CF73EBEF74174FE46A37BF45EE17D583C ====
 
Содержание индексной карты (.CUE)
REM GENRE Gospel
REM DATE 1999
REM DISCID 66109B18
REM COMMENT "ExactAudioCopy v1.3"
CATALOG 0000000000000
PERFORMER "Marion Williams"
TITLE "The Gospel Soul Of Marion Williams"
REM COMPOSER ""
FILE "01 - Ain't No Harm Done.wav" WAVE
TRACK 01 AUDIO
TITLE "Ain't No Harm Done"
PERFORMER "Marion Williams"
REM COMPOSER ""
INDEX 01 00:00:00
TRACK 02 AUDIO
TITLE "The Old Sheep Knows the Road"
PERFORMER "Marion Williams"
REM COMPOSER ""
INDEX 00 02:39:12
FILE "02 - The Old Sheep Knows the Road.wav" WAVE
INDEX 01 00:00:00
TRACK 03 AUDIO
TITLE "This Train"
PERFORMER "Marion Williams"
REM COMPOSER ""
INDEX 00 03:27:19
FILE "03 - This Train.wav" WAVE
INDEX 01 00:00:00
TRACK 04 AUDIO
TITLE "I've Come So Far"
PERFORMER "Marion Williams"
REM COMPOSER ""
INDEX 00 01:39:39
FILE "04 - I've Come So Far.wav" WAVE
INDEX 01 00:00:00
TRACK 05 AUDIO
TITLE "Ain't No Stranger Now"
PERFORMER "Marion Williams"
REM COMPOSER ""
INDEX 00 04:27:59
FILE "05 - Ain't No Stranger Now.wav" WAVE
INDEX 01 00:00:00
TRACK 06 AUDIO
TITLE "Out Of The Depths"
PERFORMER "Marion Williams"
REM COMPOSER ""
INDEX 00 02:20:43
FILE "06 - Out Of The Depths.wav" WAVE
INDEX 01 00:00:00
TRACK 07 AUDIO
TITLE "He Knows How Much We Can Bear"
PERFORMER "Marion Williams"
REM COMPOSER ""
INDEX 00 03:12:69
FILE "07 - He Knows How Much We Can Bear.wav" WAVE
INDEX 01 00:00:00
TRACK 08 AUDIO
TITLE "The Man I'm Looking For"
PERFORMER "Marion Williams"
REM COMPOSER ""
INDEX 00 04:17:47
FILE "08 - The Man I'm Looking For.wav" WAVE
INDEX 01 00:00:00
TRACK 09 AUDIO
TITLE "I Thank You Lord"
PERFORMER "Marion Williams"
REM COMPOSER ""
INDEX 00 04:16:30
FILE "09 - I Thank You Lord.wav" WAVE
INDEX 01 00:00:00
TRACK 10 AUDIO
TITLE "Victory Ahead"
PERFORMER "Marion Williams"
REM COMPOSER ""
INDEX 00 03:55:03
FILE "10 - Victory Ahead.wav" WAVE
INDEX 01 00:00:00
TRACK 11 AUDIO
TITLE "The Fight Is On"
PERFORMER "Marion Williams"
REM COMPOSER ""
INDEX 00 02:05:49
FILE "11 - The Fight Is On.wav" WAVE
INDEX 01 00:00:00
TRACK 12 AUDIO
TITLE "My Hope"
PERFORMER "Marion Williams"
REM COMPOSER ""
INDEX 00 02:09:46
FILE "12 - My Hope.wav" WAVE
INDEX 01 00:00:00
TRACK 13 AUDIO
TITLE "Nobody But You Lord"
PERFORMER "Marion Williams"
REM COMPOSER ""
INDEX 00 02:26:37
FILE "13 - Nobody But You Lord.wav" WAVE
INDEX 01 00:00:00
TRACK 14 AUDIO
TITLE "Dark Was The Night"
PERFORMER "Marion Williams"
REM COMPOSER ""
INDEX 00 02:56:27
FILE "14 - Dark Was The Night.wav" WAVE
INDEX 01 00:00:00
TRACK 15 AUDIO
TITLE "Walk Around"
PERFORMER "Marion Williams"
REM COMPOSER ""
INDEX 00 03:39:43
FILE "15 - Walk Around.wav" WAVE
INDEX 01 00:00:00
TRACK 16 AUDIO
TITLE "These Are They"
PERFORMER "Marion Williams"
REM COMPOSER ""
INDEX 00 02:04:17
FILE "16 - These Are They.wav" WAVE
INDEX 01 00:00:00
TRACK 17 AUDIO
TITLE "Jesus Traveled This Road Before"
PERFORMER "Marion Williams"
REM COMPOSER ""
INDEX 00 02:30:07
FILE "17 - Jesus Traveled This Road Before.wav" WAVE
INDEX 01 00:00:00
TRACK 18 AUDIO
TITLE "Lord I Thank You"
PERFORMER "Marion Williams"
REM COMPOSER ""
INDEX 00 04:09:58
FILE "18 - Lord I Thank You.wav" WAVE
INDEX 01 00:00:00
TRACK 19 AUDIO
TITLE "Savior Don't Pass Me By"
PERFORMER "Marion Williams"
REM COMPOSER ""
INDEX 00 02:22:45
FILE "19 - Savior Don't Pass Me By.wav" WAVE
INDEX 01 00:00:00
TRACK 20 AUDIO
TITLE "Let Him Come In"
PERFORMER "Marion Williams"
REM COMPOSER ""
INDEX 00 04:04:21
FILE "20 - Let Him Come In.wav" WAVE
INDEX 01 00:00:00
TRACK 21 AUDIO
TITLE "I'll Fly Away"
PERFORMER "Marion Williams"
REM COMPOSER ""
INDEX 00 01:52:67
FILE "21 - I'll Fly Away.wav" WAVE
INDEX 01 00:00:00
TRACK 22 AUDIO
TITLE "Go Preach My Gospel"
PERFORMER "Marion Williams"
REM COMPOSER ""
INDEX 00 02:49:01
FILE "22 - Go Preach My Gospel.wav" WAVE
INDEX 01 00:00:00
TRACK 23 AUDIO
TITLE "Just A Closer Walk With Thee"
PERFORMER "Marion Williams"
REM COMPOSER ""
INDEX 00 01:51:70
FILE "23 - Just A Closer Walk With Thee.wav" WAVE
INDEX 01 00:00:00
TRACK 24 AUDIO
TITLE "Sit Down Servant"
PERFORMER "Marion Williams"
REM COMPOSER ""
INDEX 00 02:44:17
FILE "24 - Sit Down Servant.wav" WAVE
INDEX 01 00:00:00
Приватный:
Нет (DHT включён)
Размер:
350.89 Мб (367,935,501 байт) » файлов: 29
Участники:
0 раздают, 0 качают (0 участников всего)
Внешние участники:
2 раздают, 1 качают (3 участников всего) [ Обновить ]
No seeders - write personal message to user M0p94ok. Нет сидеров - пишите личное сообщение пользователю M0p94ok.
15:32
69
Нет комментариев. Ваш будет первым!