Поиск

(Funk, Soul, Rhythm & Blues) [CD] Barry White - The Icon Is Love - 1994 (Geffen Records USA), FLAC (image+.cue), lossless

(Funk, Soul, Rhythm & Blues) [CD] Barry White - The Icon Is Love - 1994 (Geffen Records USA), FLAC (image+.cue), lossless
Треклист:
Barry White - The Icon Is Love
Жанр: Funk, Soul, Rhythm & Blues
Страна-производитель диска: USA
Год издания диска: 1994
Издатель (лейбл): A&M Records
Номер по каталогу: 31454 0115 2
Страна: USA
Аудио кодек: FLAC (*.flac)
Тип рипа: image+.cue
Битрейт аудио: lossless
Продолжительность: 01:05:04
Источник (релизер): brookman
Наличие сканов в содержимом раздачи: да
Треклист:
01. Practice What You Preach (Barry White, Gerald Levert, Edwin Nicholas) 05:59
02. There It Is (White, Levert, Nicholas) 07:04
03. I Only Want to Be With You (James Harris III, Terry Lewis, White) 05:02
04. The Time Is Right (White, Chuckii Booker) 05:47
05. Baby's Home (Barry Eastmond, Gary Brown, Jolyon Skinner) 08:20
06. Come On (Harris, Lewis, White, James Wright) 05:51
07. Love Is the Icon (White, Jack Perry) 04:38
08. Sexy Undercover (White, Booker) 04:53
09. Don't You Want to Know (White, Michael Lovesmith) 06:51
10. Whatever We Had, We Had (White, Lovesmith) 10:40
 
Лог создания рипа
Exact Audio Copy V1.0 beta 3 from 29. August 2011
EAC extraction logfile from 2. February 2018, 21:45
Barry White / The Icon Is Love
Used drive : PIONEER BD-RW BDR-TD03 Adapter: 0 ID: 1
Read mode : Secure
Utilize accurate stream : Yes
Defeat audio cache : Yes
Make use of C2 pointers : No
Read offset correction : 667
Overread into Lead-In and Lead-Out : No
Fill up missing offset samples with silence : Yes
Delete leading and trailing silent blocks : No
Null samples used in CRC calculations : Yes
Used interface : Native Win32 interface for Win NT & 2000
Used output format : User Defined Encoder
Selected bitrate : 768 kBit/s
Quality : High
Add ID3 tag : No
Command line compressor : C:\Program Files (x86)\Exact Audio Copy\FLAC\FLAC.EXE
Additional command line options : -6 -V -T "ARTIST=%artist%" -T "TITLE=%title%" -T "ALBUM=%albumtitle%" -T "DATE=%year%" -T "TRACKNUMBER=%tracknr%" -T "GENRE=%genre%" -T "COMMENT=%comment%" -T "BAND=%albuminterpret%" -T "ALBUMARTIST=%albuminterpret%" -T "COMPOSER=%composer%" %haslyrics%--tag-from-file=LYRICS="%lyricsfile%"%haslyrics% -T "DISCNUMBER=%cdnumber%" -T "TOTALDISCS=%totalcds%" -T "TOTALTRACKS=%numtracks%" %hascover%--picture="%coverfile%"%hascover% %source% -o %dest%
TOC of the extracted CD
Track | Start | Length | Start sector | End sector
---------------------------------------------------------
1 | 0:00.33 | 5:58.62 | 33 | 26944
2 | 5:59.20 | 7:04.15 | 26945 | 58759
3 | 13:03.35 | 5:01.48 | 58760 | 81382
4 | 18:05.08 | 5:46.50 | 81383 | 107382
5 | 23:51.58 | 8:19.62 | 107383 | 144869
6 | 32:11.45 | 5:50.38 | 144870 | 171157
7 | 38:02.08 | 4:37.50 | 171158 | 191982
8 | 42:39.58 | 4:52.52 | 191983 | 213934
9 | 47:32.35 | 6:51.23 | 213935 | 244782
10 | 54:23.58 | 10:40.37 | 244783 | 292819
Range status and errors
Selected range
Filename C:\Users\Deris\Desktop\kpnemo.eu\WhiteIcon\Barry White - The Icon Is Love.wav
Peak level 95.3 %
Extraction speed 1.8 X
Range quality 99.9 %
Test CRC 4C346EAA
Copy CRC 4C346EAA
Copy OK
No errors occurred
AccurateRip summary
Track 1 accurately ripped (confidence 20) [21CA68FE] (AR v2)
Track 2 accurately ripped (confidence 19) [7919987D] (AR v2)
Track 3 accurately ripped (confidence 20) [D51E5D8C] (AR v2)
Track 4 accurately ripped (confidence 21) [C9883FF1] (AR v2)
Track 5 accurately ripped (confidence 19) [5B49B04D] (AR v2)
Track 6 accurately ripped (confidence 19) [21B70759] (AR v2)
Track 7 accurately ripped (confidence 20) [0213FB57] (AR v2)
Track 8 accurately ripped (confidence 18) [9C66D8DB] (AR v2)
Track 9 accurately ripped (confidence 17) [9C50AFAA] (AR v2)
Track 10 accurately ripped (confidence 20) [A1131B56] (AR v2)
All tracks accurately ripped
End of status report
---- CUETools DB Plugin V2.1.3
[CTDB TOCID: vaHVnieG_0ylEi0VkF.S9eMKXBo-] found
[5fe8f40d] (32/45) No match
[dfc0cab1] (01/45) Accurately ripped
[5d20070a] (01/45) Accurately ripped
[05005f11] (01/45) Accurately ripped
[eea445d0] (01/45) Accurately ripped
[b3155bb1] (01/45) Accurately ripped
[19dda3a7] (01/45) Accurately ripped
[114fcdba] (01/45) Accurately ripped
[1351bff2] (01/45) Accurately ripped
[8e2cd4e5] (01/45) Accurately ripped
[9f87cf02] (01/45) Accurately ripped
[a9616c4e] (01/45) Accurately ripped
[3fd3a863] (01/45) Accurately ripped
[46a1e2ed] (01/45) Accurately ripped
==== Log checksum 109E7B1F2BDAB2CB65BAD524CCDBBDDA8BAE202428AF077C2FDA735AF3447C17 ====
 
Содержание индексной карты (.CUE)
REM GENRE "R & B"
REM DATE 1994
REM DISCID 8C0F400A
REM COMMENT "ExactAudioCopy v1.0b3"
PERFORMER "Barry White"
TITLE "The Icon Is Love"
FILE "Barry White - The Icon Is Love.flac" WAVE
TRACK 01 AUDIO
TITLE "Practice What You Preach"
PERFORMER "Barry White"
INDEX 00 00:00:00
INDEX 01 00:00:33
TRACK 02 AUDIO
TITLE "There It Is"
PERFORMER "Barry White"
INDEX 01 05:59:20
TRACK 03 AUDIO
TITLE "I Only Want to Be With You"
PERFORMER "Barry White"
INDEX 00 13:02:53
INDEX 01 13:03:35
TRACK 04 AUDIO
TITLE "The Time Is Right"
PERFORMER "Barry White"
INDEX 00 18:04:68
INDEX 01 18:05:08
TRACK 05 AUDIO
TITLE "Baby's Home"
PERFORMER "Barry White"
INDEX 00 23:50:53
INDEX 01 23:51:58
TRACK 06 AUDIO
TITLE "Come On"
PERFORMER "Barry White"
INDEX 00 32:09:14
INDEX 01 32:11:45
TRACK 07 AUDIO
TITLE "Love Is the Icon"
PERFORMER "Barry White"
INDEX 00 38:01:08
INDEX 01 38:02:08
TRACK 08 AUDIO
TITLE "Sexy Undercover"
PERFORMER "Barry White"
INDEX 01 42:39:58
TRACK 09 AUDIO
TITLE "Don't You Want to Know"
PERFORMER "Barry White"
INDEX 00 47:30:55
INDEX 01 47:32:35
TRACK 10 AUDIO
TITLE "Whatever We Had, We Had"
PERFORMER "Barry White"
INDEX 01 54:23:58
 
Лог проверки качества
-----------------------
DON'T MODIFY THIS FILE
-----------------------
PERFORMER: auCDtect Task Manager, ver. 1.5.1RC4 build 1.5.1.5
Copyright (c) 2008-2010 y-soft. All rights reserved
http://y-soft.org
ANALYZER: auCDtect: CD records authenticity detector, version 0.8.2
Copyright (c) 2004 Oleg Berngardt. All rights reserved.
Copyright (c) 2004 Alexander Djourik. All rights reserved.
FILE: Barry White - The Icon Is Love.flac
Size: 417432310 Hash: 56E78EBFB067761462B61F9D81150F91 Accuracy: -m0
Conclusion: CDDA 100%
Signature: DDCBCC6CC66FA62A00C8CEC5FD7A3350A452FF8B
 
DR log
foobar2000 1.3.13 / Замер динамического диапазона (DR) 1.1.1
Дата отчёта: 2018-02-03 00:44:00
--------------------------------------------------------------------------------
Анализ: Barry White / The Icon Is Love
--------------------------------------------------------------------------------
DR Пики RMS Продолжительность трека
--------------------------------------------------------------------------------
DR11 -0.41 дБ -12.69 дБ 5:59 01-Practice What You Preach
DR12 -0.41 дБ -14.60 дБ 7:04 02-There It Is
DR10 -0.41 дБ -12.21 дБ 5:02 03-I Only Want to Be With You
DR9 -0.41 дБ -11.88 дБ 5:47 04-The Time Is Right
DR10 -0.41 дБ -12.50 дБ 8:20 05-Baby's Home
DR9 -0.41 дБ -13.12 дБ 5:51 06-Come On
DR11 -0.41 дБ -13.50 дБ 4:38 07-Love Is the Icon
DR10 -0.41 дБ -11.97 дБ 4:53 08-Sexy Undercover
DR11 -0.41 дБ -14.24 дБ 6:51 09-Don't You Want to Know
DR12 -0.41 дБ -15.64 дБ 10:40 10-Whatever We Had, We Had
--------------------------------------------------------------------------------
Количество треков: 10
Реальные значения DR: DR11
Частота: 44100 Гц
Каналов: 2
Разрядность: 16
Битрейт: 855 кбит/с
Кодек: FLAC
================================================================================
Доп. информация
 
Об исполнителе
Barry White (Barry Eugene Carter 12.09.1944 – 4.07.2003) был американским певцом, автором песен и композитором. Раз услышав великолепный бархатный голос этого исполнителя, его уже невозможно было забыть или спутать с голосами других артистов. За свою карьеру Barry White трижды становился лауреатом премии Grammy, а общий объем мировых продаж его альбомов перевалил за 100 млн копий. Студийные работы певца по всему миру собрали 106 золотых и 41 платиновых сертификатов, а синглы, соответственно, 20 и 10. Это ли не признание его таланта и успеха?
The Icon Is Love - девятнадцатый студийный альбом Barry White, вышедший на лейбле A&M Records 4 октября 1994, и ставший самым успешным его альбомом с конца 1970-х. Альбом достиг 1-й позиции в the Billboard R&B album charts и 20-й отметки в the Billboard pop charts. Это был также первый альбом Barry за 16 лет, который достиг the UK top 50. В 1996 The Icon Is Love был номинирован на Grammy в категории Best R&B Album.
Barry White has been to the top of the charts an admirable number of times, but only one of his hits was a ballad (a studio effort for the Quincy Jones album Back on the Block that included El DeBarge, James Ingram and Al B. Sure!). However, as a solo artist, White has never had a ballad usurp the number one spot on the Billboard charts. The Icon Is Love's featured release fills that void. "Practice What You Preach," which unites the maestro with producers Gerald LeVert and Edwin Nicholas, has a simmering arrangement, evocative lyric, and White's brawn delivery. The catchy melody and sensuous female backing vocals enhance this already stellar single. It stayed on the Billboard R&B charts for 30 weeks and had a consecutive three-week run at number one. White showcases his seductive, bassy baritone with romantic rap introductions on most of the selections. There is a balance of uptempo and balladic songs. The other two featured releases were "Come On" and "There It Is." The former is reminiscent of his days as the king of disco-swing, and the latter is a contemporary funky ballad. Respectively, they tipped in at 12 and 54. White, who is credited as producer and writer on every selection, embraces the savvy writing talents of industry veterans Barry Eastmond and Michael Lovesmith, and the keen production skills of Chuckii Booker (his godson), Jimmy Jam & Terry Lewis, and Jack Perry.
https://www.allmusic.com/album/the-icon-is-love-mw0000105740
https://en.wikipedia.org/wiki/Barry_White
https://en.wikipedia.org/wiki/The_Icon_Is_Love
http://www.onamrecords.com/myartists.php?artist=Barry%20White
https://www.whosampled.com/Barry-White/
Приватный:
Нет (DHT включён)
Размер:
516.89 Мб (541,993,864 байт) » файлов: 14
Участники:
0 раздают, 0 качают (0 участников всего)
Внешние участники:
2 раздают, 1 качают (3 участников всего) [ Обновить ]
Есть вопросы - пишите личное сообщение пользователю M0p94ok.
15:33
52
Нет комментариев. Ваш будет первым!