Поиск

(Soul / Funk) VA - Pulp Fusion: Bustin' Loose (2 CD) - 2006, FLAC (image+.cue), lossless

Треклист:
Various Artists - Pulp Fusion: Bustin' Loose (2 CD)
Жанр: Soul / Funk
Год выпуска диска: 2006
Производитель диска: UK, Harmless Recordings [HURTCD 067]
Аудио кодек: FLAC
Тип рипа: image+.cue
Битрейт аудио: lossless
Продолжительность: 45:46 + 45:03
Источник: оригинальный диск
Трэклист:
CD 1
01. Ray Bryant - Up Above The Rock (03:03)
02. Bobby’s Franklin’s Insanity - Bring it on Down (03:58)
03. Memphis Black - Why Don’t You Play That Organ, Man (02:36)
04. African Music Machine - Black Water Gold (03:04)
05. The Latin Blues Band feat. Luis Aviles - (I’ll Be a) Happy Man (03:32)
06. Lee Moses - Reach Out (02:48)
07. Alvin Cash - Keep on Dancing (02:50)
08. Fred Wesley - Blow You Head (04:44)
09. Banbarra - Shack Up (05:17)
10. James Brown - Papa Don’t Take No Mess (13:51)
 
EAC log
Exact Audio Copy V0.99 prebeta 4 from 23. January 2008
EAC extraction logfile from 15. April 2010, 0:00
Various / Pulp Fusion - Bustin' Loose (CD1)
Used drive : YAMAHA CRW-F1E Adapter: 4 ID: 0
Read mode : Secure
Utilize accurate stream : Yes
Defeat audio cache : Yes
Make use of C2 pointers : No
Read offset correction : 733
Overread into Lead-In and Lead-Out : No
Fill up missing offset samples with silence : Yes
Delete leading and trailing silent blocks : No
Null samples used in CRC calculations : Yes
Used interface : Native Win32 interface for Win NT & 2000
Used output format : Internal WAV Routines
Sample format : 44.100 Hz; 16 Bit; Stereo
TOC of the extracted CD
Track | Start | Length | Start sector | End sector
---------------------------------------------------------
1 | 0:00.00 | 3:03.07 | 0 | 13731
2 | 3:03.07 | 3:58.36 | 13732 | 31617
3 | 7:01.43 | 2:36.11 | 31618 | 43328
4 | 9:37.54 | 3:04.07 | 43329 | 57135
5 | 12:41.61 | 3:32.19 | 57136 | 73054
6 | 16:14.05 | 2:48.73 | 73055 | 85727
7 | 19:03.03 | 2:50.13 | 85728 | 98490
8 | 21:53.16 | 4:44.12 | 98491 | 119802
9 | 26:37.28 | 5:17.30 | 119803 | 143607
10 | 31:54.58 | 13:51.46 | 143608 | 205978
Range status and errors
Selected range
Filename D:\!mTorrent razdachi\Pulp Fusion_Bustin Loose\CD1\Various - Pulp Fusion - Bustin' Loose (CD1).wav
Peak level 98.1 %
Range quality 100.0 %
Test CRC 48358B25
Copy CRC 48358B25
Copy OK
No errors occurred
AccurateRip summary
Track 1 accurately ripped (confidence 4) [83726455]
Track 2 accurately ripped (confidence 4) [D47CC9EB]
Track 3 accurately ripped (confidence 4) [A3A115F6]
Track 4 accurately ripped (confidence 4) [EF3A55F9]
Track 5 accurately ripped (confidence 4) [9AFC285C]
Track 6 accurately ripped (confidence 4) [C5ECADC8]
Track 7 accurately ripped (confidence 4) [5ED08828]
Track 8 accurately ripped (confidence 4) [5605BD87]
Track 9 accurately ripped (confidence 4) [2A2CA210]
Track 10 accurately ripped (confidence 4) [0CF13FC8]
All tracks accurately ripped
End of status report
CD 2
01. Johnny Pate - El Jardia (03:04)
02. Sarah Vaughan - Inner City Blues (04:11)
03. Aaron Neville – Hercules (04:12)
04. Milton Wright - Keep It Up (03:18)
05. Lyn Christopher - Take Me With You (03:07)
06. Chico Hamilton – Gengis (04:04)
07. Manu Dibango – Senga (03:02)
08. Rufus Thomas - Fried Chicken (03:07)
09. Tyrone Washington – Submission (04:32)
10. Robert Palmer - Through It All There’s You (12:20)
 
EAC log
Exact Audio Copy V0.99 prebeta 4 from 23. January 2008
EAC extraction logfile from 15. April 2010, 0:30
Various / Pulp Fusion - Bustin' Loose (CD2)
Used drive : YAMAHA CRW-F1E Adapter: 4 ID: 0
Read mode : Secure
Utilize accurate stream : Yes
Defeat audio cache : Yes
Make use of C2 pointers : No
Read offset correction : 733
Overread into Lead-In and Lead-Out : No
Fill up missing offset samples with silence : Yes
Delete leading and trailing silent blocks : No
Null samples used in CRC calculations : Yes
Used interface : Native Win32 interface for Win NT & 2000
Used output format : Internal WAV Routines
Sample format : 44.100 Hz; 16 Bit; Stereo
TOC of the extracted CD
Track | Start | Length | Start sector | End sector
---------------------------------------------------------
1 | 0:00.00 | 3:04.65 | 0 | 13864
2 | 3:04.65 | 4:11.38 | 13865 | 32727
3 | 7:16.28 | 4:12.55 | 32728 | 51682
4 | 11:29.08 | 3:18.67 | 51683 | 66599
5 | 14:48.00 | 3:07.51 | 66600 | 80675
6 | 17:55.51 | 4:04.68 | 80676 | 99043
7 | 22:00.44 | 3:02.59 | 99044 | 112752
8 | 25:03.28 | 3:07.49 | 112753 | 126826
9 | 28:11.02 | 4:32.08 | 126827 | 147234
10 | 32:43.10 | 12:20.26 | 147235 | 202760
Range status and errors
Selected range
Filename D:\!mTorrent razdachi\Pulp Fusion_Bustin Loose\CD2\Various - Pulp Fusion - Bustin' Loose (CD2).wav
Peak level 98.1 %
Range quality 100.0 %
Test CRC 6D0F3BCF
Copy CRC 6D0F3BCF
Copy OK
No errors occurred
AccurateRip summary
Track 1 accurately ripped (confidence 4) [03159864]
Track 2 accurately ripped (confidence 4) [0A80FB3D]
Track 3 accurately ripped (confidence 4) [64E864F6]
Track 4 accurately ripped (confidence 4) [597B62A4]
Track 5 accurately ripped (confidence 4) [59D559EB]
Track 6 accurately ripped (confidence 4) [5B4930C9]
Track 7 accurately ripped (confidence 4) [9F0454F3]
Track 8 accurately ripped (confidence 4) [5FD9DD4F]
Track 9 accurately ripped (confidence 4) [A200DEB5]
Track 10 accurately ripped (confidence 5) [D2E09C40]
All tracks accurately ripped
End of status report
Доп. информация:
Pulp Fusion: Bustin’ Loose — один из последних сборников соула и фанка 70-х годов,
выпускавшихся на британском лейбле Harmless в рамках коллекционной теперь серии Pulp Fusion.
Составители сборников старательно обходились без хитовых треков (которые и так наверняка
присутствовали в коллекциях потенциальных покупателей).
У популярных имён они отбирали менее известные темы, или попросту черпали раритеты
у исполнителей второго и третьего эшелонов — благодаря чему серия и пользуется сегодня таким спросом.
Дополнительно в раздаче Pulp Fusion: Bustin’ Loose — сканы буклета с комментариями составителя к каждому треку.
здесь моя раздача сборника Pulp Fusion: Fully Loaded
Приватный:
Нет (DHT включён)
Размер:
598.25 Мб (627,313,539 байт) » файлов: 13
Участники:
0 раздают, 0 качают (0 участников всего)
Внешние участники:
3 раздают, 1 качают (4 участников всего) [ Обновить ]
Нет сидеров - пишите личное сообщение M0p94ok. Не нравятся торренты? Участники группы Pro-jazz Club могут заказать прямую ссылку на скачивание из облака.
No seeders - write a personal message to M0p94ok. Don't like torrents? Members of Pro-jazz Club group can order a direct download link from the cloud.
04:17
73
Нет комментариев. Ваш будет первым!