Поиск

(Jazz-Funk) VA - Classic Jazz-Funk Mastercuts Volume 3 - 1992, FLAC (tracks+.cue), lossless

Треклист:
Various Artists - Classic Jazz-Funk Mastercuts Volume 3
Жанр: Jazz-Funk
Год выпуска диска: 1992
Производитель диска: UK, Mastercuts
Аудио кодек: FLAC
Тип рипа: tracks+.cue
Битрейт аудио: lossless
Продолжительность: 1:12:15
Трэклист:
1 David Bendeth - Feel The Real (Original 12" Mix) 6:47
2 Al Di Meola - Roller Jubilee (Original 12" Mix) 4:41
3 Herbie Hancock - Saturday Night 7:11
4 Donald Byrd - Love Has Come Around 7:47
5 Ramsey Lewis - Spring High 4:16
6 Roy Ayers - Love Will Bring Us Back Together (Original 12" Mix) 6:00
7 Bob James - Westchester Lady 7:18
8 Kool & The Gang - Summer Madness 4:16
9 Ramsey Lewis And Earth, Wind & Fire - Sun Goddess 8:25
10 Steve Khan - Darlin' Darlin' Baby 6:28
11 Aquarian Dream (2) - You're A Star (Original 12" Mix) 5:30
12 Lenny White - Best Of Friends 3:36
 
eac
Exact Audio Copy V0.99 prebeta 5 from 4. May 2009
EAC extraction logfile from 26. August 2009, 16:11
Various Artists / Classic Jazz Funk Mastercuts, Vol. 3
Used drive : PIONEER DVD-RW DVR-212 Adapter: 1 ID: 0
Read mode : Secure
Utilize accurate stream : Yes
Defeat audio cache : Yes
Make use of C2 pointers : No
Read offset correction : 48
Overread into Lead-In and Lead-Out : No
Fill up missing offset samples with silence : Yes
Delete leading and trailing silent blocks : No
Null samples used in CRC calculations : Yes
Used interface : Installed external ASPI interface
Gap handling : Appended to previous track
Used output format : User Defined Encoder
Selected bitrate : 128 kBit/s
Quality : High
Add ID3 tag : No
Command line compressor : C:\Program Files (x86)\FLAC\flac.exe
Additional command line options : -V -8 -T "artist=%a" -T "title=%t" -T "album=%g" -T "date=%y" -T "tracknumber=%n" -T "genre=%m" %s
TOC of the extracted CD
Track | Start | Length | Start sector | End sector
---------------------------------------------------------
1 | 0:00.37 | 6:51.05 | 37 | 30866
2 | 6:51.42 | 4:44.48 | 30867 | 52214
3 | 11:36.15 | 7:14.27 | 52215 | 84791
4 | 18:50.42 | 7:49.63 | 84792 | 120029
5 | 26:40.30 | 4:18.70 | 120030 | 139449
6 | 30:59.25 | 5:58.67 | 139450 | 166366
7 | 36:58.17 | 7:21.08 | 166367 | 199449
8 | 44:19.25 | 4:19.07 | 199450 | 218881
9 | 48:38.32 | 8:28.03 | 218882 | 256984
10 | 57:06.35 | 6:31.15 | 256985 | 286324
11 | 63:37.50 | 5:32.57 | 286325 | 311281
12 | 69:10.32 | 3:36.58 | 311282 | 327539
Track 1
Filename D:\My Music\EAC Rip\01 - Feel The Real.wav
Pre-gap length 0:00:02.49
Peak level 94.5 %
Track quality 100.0 %
Test CRC 59EAAC1E
Copy CRC 59EAAC1E
Cannot be verified as accurate (confidence 6) [2ACE2ECA], AccurateRip returned [20AE0B11]
Copy OK
Track 2
Filename D:\My Music\EAC Rip\02 - Roller Jubilee.wav
Pre-gap length 0:00:03.26
Peak level 60.7 %
Track quality 100.0 %
Test CRC 7719A381
Copy CRC 7719A381
Cannot be verified as accurate (confidence 6) [010E3CBD], AccurateRip returned [CFE83E45]
Copy OK
Track 3
Filename D:\My Music\EAC Rip\03 - Saturday Night.wav
Pre-gap length 0:00:03.10
Peak level 99.3 %
Track quality 100.0 %
Test CRC F00C01A6
Copy CRC F00C01A6
Cannot be verified as accurate (confidence 6) [DC28C232], AccurateRip returned [C514172F]
Copy OK
Track 4
Filename D:\My Music\EAC Rip\04 - Love Has Come Around.wav
Pre-gap length 0:00:02.86
Peak level 90.7 %
Track quality 99.9 %
Test CRC DAE81110
Copy CRC DAE81110
Cannot be verified as accurate (confidence 6) [CA264AD2], AccurateRip returned [B7B1D397]
Copy OK
Track 5
Filename D:\My Music\EAC Rip\05 - Spring High.wav
Pre-gap length 0:00:02.57
Peak level 61.0 %
Track quality 100.0 %
Test CRC 7A0C549F
Copy CRC 7A0C549F
Cannot be verified as accurate (confidence 6) [000C22AA], AccurateRip returned [29384630]
Copy OK
Track 6
Filename D:\My Music\EAC Rip\06 - Love Will Bring Us Back Together.wav
Pre-gap length 0:00:02.90
Peak level 89.7 %
Track quality 100.0 %
Test CRC 17BB63AB
Copy CRC 17BB63AB
Cannot be verified as accurate (confidence 6) [F68BD816], AccurateRip returned [4E58CAC6]
Copy OK
Track 7
Filename D:\My Music\EAC Rip\07 - Westchester Lady.wav
Pre-gap length 0:00:03.09
Peak level 94.5 %
Track quality 100.0 %
Test CRC EE22C5DB
Copy CRC EE22C5DB
Cannot be verified as accurate (confidence 6) [3346006D], AccurateRip returned [8A3C0144]
Copy OK
Track 8
Filename D:\My Music\EAC Rip\08 - Summer Madness.wav
Pre-gap length 0:00:02.50
Peak level 94.5 %
Track quality 100.0 %
Test CRC B61B56ED
Copy CRC B61B56ED
Cannot be verified as accurate (confidence 6) [D3E669F2], AccurateRip returned [1D558ECD]
Copy OK
Track 9
Filename D:\My Music\EAC Rip\09 - Sun Godess.wav
Pre-gap length 0:00:02.20
Peak level 94.5 %
Track quality 99.9 %
Test CRC 79EE69B1
Copy CRC 79EE69B1
Cannot be verified as accurate (confidence 6) [F9CD16EC], AccurateRip returned [12AFE327]
Copy OK
Track 10
Filename D:\My Music\EAC Rip\10 - Darlin' Darlin' Baby.wav
Pre-gap length 0:00:02.84
Peak level 88.4 %
Track quality 100.0 %
Test CRC FC68E3ED
Copy CRC FC68E3ED
Cannot be verified as accurate (confidence 6) [4748FF08], AccurateRip returned [35BF1B8D]
Copy OK
Track 11
Filename D:\My Music\EAC Rip\11 - You're A Star.wav
Pre-gap length 0:00:03.13
Peak level 94.5 %
Track quality 100.0 %
Test CRC 01D1189A
Copy CRC 01D1189A
Cannot be verified as accurate (confidence 6) [72C3D95D], AccurateRip returned [B051FCD7]
Copy OK
Track 12
Filename D:\My Music\EAC Rip\12 - Best Of Friends.wav
Pre-gap length 0:00:02.49
Peak level 94.2 %
Track quality 100.0 %
Test CRC 83908A3C
Copy CRC 83908A3C
Cannot be verified as accurate (confidence 6) [6060D058], AccurateRip returned [7714D928]
Copy OK
No tracks could be verified as accurate
You may have a different pressing from the one(s) in the database
No errors occurred
End of status report
 
cue
REM GENRE Jazz+Funk
REM DATE 1992
REM DISCID 95110F0C
REM COMMENT "ExactAudioCopy v0.99pb5"
PERFORMER "Various Artists"
TITLE "Classic Jazz Funk Mastercuts, Vol. 3"
FILE "01 - Feel The Real.wav" WAVE
TRACK 01 AUDIO
TITLE "Feel The Real"
PERFORMER "David Bendeth"
PREGAP 00:00:37
INDEX 01 00:00:00
TRACK 02 AUDIO
TITLE "Roller Jubilee"
PERFORMER "Al Di Meola"
INDEX 00 06:47:60
FILE "02 - Roller Jubilee.wav" WAVE
INDEX 01 00:00:00
TRACK 03 AUDIO
TITLE "Saturday Night"
PERFORMER "Herbie Hancock"
INDEX 00 04:41:40
FILE "03 - Saturday Night.wav" WAVE
INDEX 01 00:00:00
TRACK 04 AUDIO
TITLE "Love Has Come Around"
PERFORMER "Donald Byrd"
INDEX 00 07:11:37
FILE "04 - Love Has Come Around.wav" WAVE
INDEX 01 00:00:00
TRACK 05 AUDIO
TITLE "Spring High"
PERFORMER "Ramsey Lewis"
INDEX 00 07:47:20
FILE "05 - Spring High.wav" WAVE
INDEX 01 00:00:00
TRACK 06 AUDIO
TITLE "Love Will Bring Us Back Together"
PERFORMER "Roy Ayers"
INDEX 00 04:16:02
FILE "06 - Love Will Bring Us Back Together.wav" WAVE
INDEX 01 00:00:00
TRACK 07 AUDIO
TITLE "Westchester Lady"
PERFORMER "Bob James"
INDEX 00 05:55:60
FILE "07 - Westchester Lady.wav" WAVE
INDEX 01 00:00:00
TRACK 08 AUDIO
TITLE "Summer Madness"
PERFORMER "Kool & The Gang"
INDEX 00 07:18:45
FILE "08 - Summer Madness.wav" WAVE
INDEX 01 00:00:00
TRACK 09 AUDIO
TITLE "Sun Godess"
PERFORMER "Ramsey Lewis And Earth, Wind & Fire"
INDEX 00 04:16:67
FILE "09 - Sun Godess.wav" WAVE
INDEX 01 00:00:00
TRACK 10 AUDIO
TITLE "Darlin' Darlin' Baby"
PERFORMER "Steve Khan"
INDEX 00 08:25:15
FILE "10 - Darlin' Darlin' Baby.wav" WAVE
INDEX 01 00:00:00
TRACK 11 AUDIO
TITLE "You're A Star"
PERFORMER "Aquarian Dream"
INDEX 00 06:28:05
FILE "11 - You're A Star.wav" WAVE
INDEX 01 00:00:00
TRACK 12 AUDIO
TITLE "Best Of Friends"
PERFORMER "Lenny White"
INDEX 00 05:30:20
FILE "12 - Best Of Friends.wav" WAVE
INDEX 01 00:00:00
demonoid.com
Приватный:
Нет (DHT включён)
Размер:
452.26 Мб (474,228,024 байт) » файлов: 17
Участники:
0 раздают, 0 качают (0 участников всего)
Внешние участники:
5 раздают, 1 качают (6 участников всего) [ Обновить ]
Никого нет на раздаче - пишите личное сообщение M0p94ok
No seeders - write personal message to M0p94ok
04:08
27
Нет комментариев. Ваш будет первым!