Поиск

(Jazz-Funk) VA - Classic Jazz-Funk Mastercuts Volume 2 - 1991, FLAC (tracks+.cue), lossless

Треклист:
Various Artists - Classic Jazz-Funk Mastercuts Volume 2
Жанр: Jazz-Funk
Год выпуска диска: 1991
Производитель диска: UK, Mastercuts
Аудио кодек: FLAC
Тип рипа: tracks+.cue
Битрейт аудио: lossless
Продолжительность: 1:17:44
Трэклист:
1 Idris Muhammad - Could Heaven Ever Be Like This (Original 12" Mix) 8:37
2 George Duke - Brazilian Love Affair (Original 12" Mix) 7:22
3 Al Jarreau - Easy (Original Full LP Version) 5:18
4 Donald Byrd - Dominoes (Original 12" Mix) 7:37
5 Ned Doheny - To Prove My Love (Original 12" Mix) 4:43
6 B. Baker Chocolate Co. - Snowblower (Original Full LP Version) 6:45
7 Roy Ayers - Poo Poo La La (Original 12" Mix) 6:32
8 Tania Maria - Come With Me (Original Full LP Version) 5:38
9 Herb Alpert - Rotation (Original 12" Mix) 6:48
10 David Sanborn - Chicago Song (Original 12" Mix) 6:58
11 Benny Golson - The New Killer Joe (Edited Original 12" Mix) 5:38
12 Crusaders, The - Keep That Same Old Feeling (Original Full LP Version) 5:38
 
eac
Exact Audio Copy V0.99 prebeta 4 from 23. January 2008
EAC extraction logfile from 11. May 2009, 16:24
Various / Classic Jazz-Funk Mastercuts - Vol 2
Used drive : PIONEER DVD-RW DVR-212 Adapter: 1 ID: 1
Read mode : Secure
Utilize accurate stream : Yes
Defeat audio cache : Yes
Make use of C2 pointers : No
Read offset correction : 48
Overread into Lead-In and Lead-Out : No
Fill up missing offset samples with silence : Yes
Delete leading and trailing silent blocks : No
Null samples used in CRC calculations : Yes
Used interface : Installed external ASPI interface
Gap handling : Appended to previous track
Used output format : User Defined Encoder
Selected bitrate : 1024 kBit/s
Quality : High
Add ID3 tag : No
Command line compressor : C:\Program Files\FLAC\flac.exe
Additional command line options : -8 -V -T "ARTIST=%a" -T "TITLE=%t" -T "ALBUM=%g" -T "DATE=%y" -T "TRACKNUMBER=%n" -T "TOTALTRACKS=%x" -T "GENRE=%m" -T "ALBUM ARTIST=%v" -T "ALBUMARTIST=%v" -T "COMMENT=EAC V0.99 prebeta 4, Secure Mode, Test & Copy, Accurat
TOC of the extracted CD
Track | Start | Length | Start sector | End sector
---------------------------------------------------------
1 | 0:00.32 | 8:40.50 | 32 | 39081
2 | 8:41.07 | 7:25.10 | 39082 | 72466
3 | 16:06.17 | 5:28.65 | 72467 | 97131
4 | 21:35.07 | 7:38.38 | 97132 | 131519
5 | 29:13.45 | 4:50.37 | 131520 | 153306
6 | 34:04.07 | 6:49.00 | 153307 | 183981
7 | 40:53.07 | 6:33.50 | 183982 | 213506
8 | 47:26.57 | 5:41.25 | 213507 | 239106
9 | 53:08.07 | 6:53.00 | 239107 | 270081
10 | 60:01.07 | 7:02.00 | 270082 | 301731
11 | 67:03.07 | 5:43.13 | 301732 | 327469
12 | 72:46.20 | 5:33.20 | 327470 | 352464
Track 1
Filename D:\My Music\EAC Rip\01 - Could Heaven Ever Be Like this.wav
Pre-gap length 0:00:02.42
Peak level 89.4 %
Track quality 99.9 %
Test CRC 4E92306E
Copy CRC 4E92306E
Cannot be verified as accurate (confidence 4) [AB965E28], AccurateRip returned [DBD73042]
Copy OK
Track 2
Filename D:\My Music\EAC Rip\02 - Brazilian Love Affair.wav
Pre-gap length 0:00:04.00
Peak level 94.7 %
Track quality 100.0 %
Test CRC C388D107
Copy CRC C388D107
Cannot be verified as accurate (confidence 4) [DEB35F92], AccurateRip returned [331CBF9E]
Copy OK
Track 3
Filename D:\My Music\EAC Rip\03 - Easy.wav
Pre-gap length 0:00:02.80
Peak level 89.7 %
Track quality 100.0 %
Test CRC 4A92E1FC
Copy CRC 4A92E1FC
Cannot be verified as accurate (confidence 4) [97069B85], AccurateRip returned [00EFE6B5]
Copy OK
Track 4
Filename D:\My Music\EAC Rip\04 - Dominoes.wav
Pre-gap length 0:00:03.82
Peak level 69.4 %
Track quality 100.0 %
Test CRC 76594543
Copy CRC 76594543
Cannot be verified as accurate (confidence 4) [325EF2C1], AccurateRip returned [BF995C3B]
Copy OK
Track 5
Filename D:\My Music\EAC Rip\05 - To Prove My Love.wav
Pre-gap length 0:00:02.33
Peak level 100.0 %
Track quality 100.0 %
Test CRC 48766BC6
Copy CRC 48766BC6
Cannot be verified as accurate (confidence 4) [753954E6], AccurateRip returned [B787B4AB]
Copy OK
Track 6
Filename D:\My Music\EAC Rip\06 - Snowblower.wav
Pre-gap length 0:00:03.60
Peak level 79.5 %
Track quality 100.0 %
Test CRC 4F6D1BD3
Copy CRC 4F6D1BD3
Cannot be verified as accurate (confidence 4) [AFC63323], AccurateRip returned [97D0C637]
Copy OK
Track 7
Filename D:\My Music\EAC Rip\07 - Poo Poo La La.wav
Pre-gap length 0:00:03.16
Peak level 81.5 %
Track quality 100.0 %
Test CRC 075FF6AF
Copy CRC 075FF6AF
Cannot be verified as accurate (confidence 4) [2B05E1A2], AccurateRip returned [2E0BE4D4]
Copy OK
Track 8
Filename D:\My Music\EAC Rip\08 - Come With Me.wav
Pre-gap length 0:00:02.82
Peak level 93.6 %
Track quality 100.0 %
Test CRC 45058BCF
Copy CRC 45058BCF
Cannot be verified as accurate (confidence 4) [44378572], AccurateRip returned [423C0C78]
Copy OK
Track 9
Filename D:\My Music\EAC Rip\09 - Rotation.wav
Pre-gap length 0:00:03.00
Peak level 90.7 %
Track quality 100.0 %
Test CRC AF36DBE2
Copy CRC AF36DBE2
Cannot be verified as accurate (confidence 4) [A88E8FC4], AccurateRip returned [74154CD9]
Copy OK
Track 10
Filename D:\My Music\EAC Rip\10 - Chicago Song.wav
Pre-gap length 0:00:03.82
Peak level 93.4 %
Track quality 100.0 %
Test CRC EE20865F
Copy CRC EE20865F
Cannot be verified as accurate (confidence 4) [1F90928D], AccurateRip returned [76B091DD]
Copy OK
Track 11
Filename D:\My Music\EAC Rip\11 - The New Killer Joe.wav
Pre-gap length 0:00:03.16
Peak level 96.6 %
Track quality 100.0 %
Test CRC B739EA8C
Copy CRC B739EA8C
Cannot be verified as accurate (confidence 4) [43840A1B], AccurateRip returned [D68AE8BE]
Copy OK
Track 12
Filename D:\My Music\EAC Rip\12 - Keep That Same Old Feeling.wav
Pre-gap length 0:00:02.46
Peak level 85.0 %
Track quality 100.0 %
Test CRC C1BC7B7B
Copy CRC C1BC7B7B
Cannot be verified as accurate (confidence 3) [28228AC0], AccurateRip returned [8978689A]
Copy OK
No tracks could be verified as accurate
You may have a different pressing from the one(s) in the database
No errors occurred
End of status report
 
cue
REM GENRE Jazz
REM DATE 1991
REM DISCID B3125B0C
REM COMMENT "ExactAudioCopy v0.99pb4"
PERFORMER "Various"
TITLE "Classic Jazz-Funk Mastercuts - Vol 2"
FILE "01 - Could Heaven Ever Be Like this.wav" WAVE
TRACK 01 AUDIO
TITLE "Could Heaven Ever Be Like this"
PERFORMER "Idris Muhammad"
PREGAP 00:00:32
INDEX 01 00:00:00
TRACK 02 AUDIO
TITLE "Brazilian Love Affair"
PERFORMER "George Duke"
INDEX 00 08:36:50
FILE "02 - Brazilian Love Affair.wav" WAVE
INDEX 01 00:00:00
TRACK 03 AUDIO
TITLE "Easy"
PERFORMER "Al Jarreau"
INDEX 00 07:22:25
FILE "03 - Easy.wav" WAVE
INDEX 01 00:00:00
TRACK 04 AUDIO
TITLE "Dominoes"
PERFORMER "Donald Byrd"
INDEX 00 05:25:03
FILE "04 - Dominoes.wav" WAVE
INDEX 01 00:00:00
TRACK 05 AUDIO
TITLE "To Prove My Love"
PERFORMER "Ned Doheny"
INDEX 00 07:36:13
FILE "05 - To Prove My Love.wav" WAVE
INDEX 01 00:00:00
TRACK 06 AUDIO
TITLE "Snowblower"
PERFORMER "B. Baker Chocolate Co."
INDEX 00 04:46:67
FILE "06 - Snowblower.wav" WAVE
INDEX 01 00:00:00
TRACK 07 AUDIO
TITLE "Poo Poo La La"
PERFORMER "Roy Ayers"
INDEX 00 06:45:63
FILE "07 - Poo Poo La La.wav" WAVE
INDEX 01 00:00:00
TRACK 08 AUDIO
TITLE "Come With Me"
PERFORMER "Tania Maria"
INDEX 00 06:30:63
FILE "08 - Come With Me.wav" WAVE
INDEX 01 00:00:00
TRACK 09 AUDIO
TITLE "Rotation"
PERFORMER "Herb Alpert"
INDEX 00 05:38:25
FILE "09 - Rotation.wav" WAVE
INDEX 01 00:00:00
TRACK 10 AUDIO
TITLE "Chicago Song"
PERFORMER "David Sanborn"
INDEX 00 06:49:13
FILE "10 - Chicago Song.wav" WAVE
INDEX 01 00:00:00
TRACK 11 AUDIO
TITLE "The New Killer Joe"
PERFORMER "Benny Golson"
INDEX 00 06:58:63
FILE "11 - The New Killer Joe.wav" WAVE
INDEX 01 00:00:00
TRACK 12 AUDIO
TITLE "Keep That Same Old Feeling"
PERFORMER "The Crusaders"
INDEX 00 05:40:53
FILE "12 - Keep That Same Old Feeling.wav" WAVE
INDEX 01 00:00:00
demonoid.com
Приватный:
Нет (DHT включён)
Размер:
472.43 Мб (495,381,504 байт) » файлов: 18
Участники:
0 раздают, 0 качают (0 участников всего)
Внешние участники:
5 раздают, 1 качают (6 участников всего) [ Обновить ]
Никого нет на раздаче - пишите личное сообщение M0p94ok
No seeders - write personal message to M0p94ok
04:08
21
Нет комментариев. Ваш будет первым!