Поиск

(Jazz-Funk, Disco) VA - Classic Jazz-Funk Mastercuts Volume 1 - 1991, FLAC (tracks+.cue), lossless

Треклист:
Various Artists - Classic Jazz-Funk Mastercuts Volume 1
Жанр: Jazz-Funk, Disco
Год выпуска диска: 1991
Производитель диска: UK, Mastercuts
Аудио кодек: FLAC
Тип рипа: tracks+.cue
Битрейт аудио: lossless
Продолжительность: 1:12:35
Трэклист:
1 Lonnie Liston Smith - Expansions (Original 12" Mix) 6:09
2 Ronnie Laws - Always There (Original 12" Mix) 4:42
3 Gil Scott-Heron - The Bottle (Original Version) (Original 12" Mix) 5:07
4 Donald Byrd - Change (Makes You Want To Hustle) (Original Full LP Version) 5:08
5 Wilton Felder - Inherit The Wind (Original 12" Mix) 6:54
6 Spyro Gyra - Shaker Song (Original 12" Mix) 4:49
7 Azymuth - Jazz Carnival (Original 12" Mix) 9:32
8 Johnny Hammond - Los Conquistadores Chocolates (Original Full LP Version) 6:10
9 Eddie Henderson - Say You Will (Original 12" Mix) 4:26
10 John Klemmer - Brasilia (Original Full LP Version) 9:06
11 Harvey Mason - Till You Take My Love (Original 12" Mix) 3:41
12 Dizzy Gillespie - Unicorn (Original 12" Mix) 6:46
 
eac
Exact Audio Copy V0.99 prebeta 4 from 23. January 2008
EAC extraction logfile from 11. May 2009, 15:53
Various / Classic Jazz-Funk Mastercuts volume 1
Used drive : PIONEER DVD-RW DVR-212 Adapter: 1 ID: 1
Read mode : Secure
Utilize accurate stream : Yes
Defeat audio cache : Yes
Make use of C2 pointers : No
Read offset correction : 48
Overread into Lead-In and Lead-Out : No
Fill up missing offset samples with silence : Yes
Delete leading and trailing silent blocks : No
Null samples used in CRC calculations : Yes
Used interface : Installed external ASPI interface
Gap handling : Appended to previous track
Used output format : User Defined Encoder
Selected bitrate : 1024 kBit/s
Quality : High
Add ID3 tag : No
Command line compressor : C:\Program Files\FLAC\flac.exe
Additional command line options : -8 -V -T "ARTIST=%a" -T "TITLE=%t" -T "ALBUM=%g" -T "DATE=%y" -T "TRACKNUMBER=%n" -T "TOTALTRACKS=%x" -T "GENRE=%m" -T "ALBUM ARTIST=%v" -T "ALBUMARTIST=%v" -T "COMMENT=EAC V0.99 prebeta 4, Secure Mode, Test & Copy, Accurat
TOC of the extracted CD
Track | Start | Length | Start sector | End sector
---------------------------------------------------------
1 | 0:00.00 | 6:09.40 | 0 | 27714
2 | 6:09.40 | 4:42.37 | 27715 | 48901
3 | 10:52.02 | 5:07.18 | 48902 | 71944
4 | 15:59.20 | 5:08.15 | 71945 | 95059
5 | 21:07.35 | 6:54.60 | 95060 | 126169
6 | 28:02.20 | 4:49.30 | 126170 | 147874
7 | 32:51.50 | 9:32.50 | 147875 | 190824
8 | 42:24.25 | 6:10.57 | 190825 | 218631
9 | 48:35.07 | 4:26.05 | 218632 | 238586
10 | 53:01.12 | 9:06.65 | 238587 | 279601
11 | 62:08.02 | 3:41.08 | 279602 | 296184
12 | 65:49.10 | 6:46.50 | 296185 | 326684
Track 1
Filename D:\My Music\EAC Rip\01 - Expansions.wav
Pre-gap length 0:00:02.00
Peak level 89.5 %
Track quality 100.0 %
Test CRC 12F30EC7
Copy CRC 12F30EC7
Track not present in AccurateRip database
Copy OK
Track 2
Filename D:\My Music\EAC Rip\02 - Always There.wav
Peak level 77.4 %
Track quality 100.0 %
Test CRC DA17DDCF
Copy CRC DA17DDCF
Track not present in AccurateRip database
Copy OK
Track 3
Filename D:\My Music\EAC Rip\03 - The Bottle.wav
Peak level 86.0 %
Track quality 100.0 %
Test CRC 99420917
Copy CRC 99420917
Track not present in AccurateRip database
Copy OK
Track 4
Filename D:\My Music\EAC Rip\04 - Change (Makes You Want To Hustle).wav
Peak level 78.9 %
Track quality 100.0 %
Test CRC A10E7EC9
Copy CRC A10E7EC9
Track not present in AccurateRip database
Copy OK
Track 5
Filename D:\My Music\EAC Rip\05 - Inherit The Wind.wav
Peak level 100.0 %
Track quality 100.0 %
Test CRC A4FB6B47
Copy CRC A4FB6B47
Track not present in AccurateRip database
Copy OK
Track 6
Filename D:\My Music\EAC Rip\06 - Shaker Song.wav
Peak level 85.1 %
Track quality 100.0 %
Test CRC 4741AC4E
Copy CRC 4741AC4E
Track not present in AccurateRip database
Copy OK
Track 7
Filename D:\My Music\EAC Rip\07 - Jazz Carnival.wav
Peak level 78.0 %
Track quality 100.0 %
Test CRC 3B1080D5
Copy CRC 3B1080D5
Track not present in AccurateRip database
Copy OK
Track 8
Filename D:\My Music\EAC Rip\08 - Los Conquistadores Chocolates.wav
Peak level 82.8 %
Track quality 100.0 %
Test CRC 8915C82A
Copy CRC 8915C82A
Track not present in AccurateRip database
Copy OK
Track 9
Filename D:\My Music\EAC Rip\09 - Say You Will.wav
Peak level 92.4 %
Track quality 100.0 %
Test CRC E926246E
Copy CRC E926246E
Track not present in AccurateRip database
Copy OK
Track 10
Filename D:\My Music\EAC Rip\10 - Brasilia.wav
Peak level 83.3 %
Track quality 100.0 %
Test CRC 05F580EC
Copy CRC 05F580EC
Track not present in AccurateRip database
Copy OK
Track 11
Filename D:\My Music\EAC Rip\11 - Till You Take My Love.wav
Peak level 96.2 %
Track quality 100.0 %
Test CRC 6A1A08A2
Copy CRC 6A1A08A2
Track not present in AccurateRip database
Copy OK
Track 12
Filename D:\My Music\EAC Rip\12 - Unicorn.wav
Peak level 87.4 %
Track quality 100.0 %
Test CRC BFF5484C
Copy CRC BFF5484C
Track not present in AccurateRip database
Copy OK
None of the tracks are present in the AccurateRip database
No errors occurred
End of status report
 
cue
REM GENRE Jazz
REM DATE 1991
REM DISCID B711030C
REM COMMENT "ExactAudioCopy v0.99pb4"
PERFORMER "Various"
TITLE "Classic Jazz-Funk Mastercuts volume 1"
FILE "01 - Expansions.wav" WAVE
TRACK 01 AUDIO
TITLE "Expansions"
PERFORMER "Lonnie Liston Smith"
INDEX 01 00:00:00
FILE "02 - Always There.wav" WAVE
TRACK 02 AUDIO
TITLE "Always There"
PERFORMER "Ronnie Laws"
INDEX 01 00:00:00
FILE "03 - The Bottle.wav" WAVE
TRACK 03 AUDIO
TITLE "The Bottle"
PERFORMER "Gil Scott Heron"
INDEX 01 00:00:00
FILE "04 - Change (Makes You Want To Hustle).wav" WAVE
TRACK 04 AUDIO
TITLE "Change (Makes You Want To Hustle)"
PERFORMER "Donald Byrd"
INDEX 01 00:00:00
FILE "05 - Inherit The Wind.wav" WAVE
TRACK 05 AUDIO
TITLE "Inherit The Wind"
PERFORMER "Wilton Felder"
INDEX 01 00:00:00
FILE "06 - Shaker Song.wav" WAVE
TRACK 06 AUDIO
TITLE "Shaker Song"
PERFORMER "Spyro Gyra"
INDEX 01 00:00:00
FILE "07 - Jazz Carnival.wav" WAVE
TRACK 07 AUDIO
TITLE "Jazz Carnival"
PERFORMER "Azymuth"
INDEX 01 00:00:00
FILE "08 - Los Conquistadores Chocolates.wav" WAVE
TRACK 08 AUDIO
TITLE "Los Conquistadores Chocolates"
PERFORMER "Johnny Hammond"
INDEX 01 00:00:00
FILE "09 - Say You Will.wav" WAVE
TRACK 09 AUDIO
TITLE "Say You Will"
PERFORMER "Eddie Henderson"
INDEX 01 00:00:00
FILE "10 - Brasilia.wav" WAVE
TRACK 10 AUDIO
TITLE "Brasilia"
PERFORMER "John Klemmer"
INDEX 01 00:00:00
FILE "11 - Till You Take My Love.wav" WAVE
TRACK 11 AUDIO
TITLE "Till You Take My Love"
PERFORMER "Harvey Mason"
INDEX 01 00:00:00
FILE "12 - Unicorn.wav" WAVE
TRACK 12 AUDIO
TITLE "Unicorn"
PERFORMER "Dizzy Gillespie"
INDEX 01 00:00:00
demonoid.com
Приватный:
Нет (DHT включён)
Размер:
458.70 Мб (480,982,527 байт) » файлов: 16
Участники:
0 раздают, 0 качают (0 участников всего)
Внешние участники:
1 раздают, 0 качают (1 участников всего) [ Обновить ]
Нет сидеров - пишите личное сообщение M0p94ok. Не нравятся торренты? Участники группы Pro-jazz Club могут заказать прямую ссылку на скачивание из облака.
No seeders - write a personal message to M0p94ok. Don't like torrents? Members of Pro-jazz Club group can order a direct download link from the cloud.
04:07
46
Нет комментариев. Ваш будет первым!