Поиск

(Funk, Soul, Disco) VA - Have a Nice Decade: The '70s Pop Culture Box (R2 72919) - 1998, FLAC (tracks+.cue), lossless

Треклист:
Various Artists - Have a Nice Decade: The '70s Pop Culture Box
Жанр: Funk, Soul, Disco
Год выпуска диска: 1998
Производитель диска: USA \ Rhino
Аудио кодек: FLAC
Тип рипа: tracks+.cue
Битрейт аудио: lossless
Продолжительность: 09:13:14
 
CD 1
Продолжительность: 79 min 19 sec
01 Edison Lighthouse - Love Grows (Where My Rosemary Goes) [02:53]
02 Shocking Blue - Venus [03:06]
03 Lynn Anderson - Rose Garden [03:27]
04 The Guess Who - American Woman [03:53]
05 Sugarloaf - Green-Eyed Lady [03:40]
06 The Ides Of March - Vehicle [02:56]
07 George Baker Selection - Little Green Bag [03:24]
08 Blues Image - Ride Captain Ride [03:09]
09 Norman Greenbaum - Spirit In The Sky [04:02]
10 Murray Head - Superstar [04:22]
11 The Chairmen Of The Board - Give Me Just A Little More Time [02:41]
12 The Delfonics - Didn't I (Blow Your Mind This Time) [03:23]
13 The 5 Stairsteps - O-o-h Child [03:16]
14 The Jackson 5 - ABC [02:43]
15 Freda Payne - Band Of Gold [02:55]
16 James Taylor - Fire & Rain [03:54]
17 Paul Revere & The Raiders - Indian Reservation (The Lament Of The Cherokee Reservation Indian) [03:27]
18 Ocean - Put Your Hand In The Hand [02:57]
19 Brewer & Shipley - One Toke Over The Line [03:21]
20 Five Man Electrical Band - Signs [03:27]
21 Hamilton, Joe Frank & Reynolds - Don't Pull Your Love [02:43]
22 Lobo - Me & You & A Dog Named Boo [02:57]
23 Cat Stevens - Wild World [03:20]
24 Three Dog Night - Joy To The World [03:15]
 
Log EAC
EAC extraction logfile from 26. May 2007, 2:44 for CD
Various / Have A Nice Decade: The '70s Pop Culture Box
Used drive : HL-DT-STDVD-ROM GDR8163B Adapter: 1 ID: 1
Read mode : Secure with NO C2, accurate stream, disable cache
Read offset correction : 102
Overread into Lead-In and Lead-Out : No
Used output format : F:\Program Files\FLAC\flac.exe (User Defined Encoder)
32 kBit/s
Additional command line options : -V -8 -T "artist=%a" -T "title=%t" -T "album=%g" -T "date=%y" -T "tracknumber=%n" -T "genre=%m" %s
Other options :
Fill up missing offset samples with silence : Yes
Delete leading and trailing silent blocks : No
Installed external ASPI interface
Track 1
Filename C:\Have A Nice Decade The 70's Pop Culture Box (98)\01 Love Grows.wav
Pre-gap length 0:00:02.32
Peak level 98.1 %
Track quality 100.0 %
Test CRC D2E680B7
Copy CRC D2E680B7
Copy OK
Track 2
Filename C:\Have A Nice Decade The 70's Pop Culture Box (98)\02 Venus.wav
Peak level 99.8 %
Track quality 100.0 %
Test CRC 015DBA0A
Copy CRC 015DBA0A
Copy OK
Track 3
Filename C:\Have A Nice Decade The 70's Pop Culture Box (98)\03 Rose Garden.wav
Peak level 99.8 %
Track quality 100.0 %
Test CRC 45538710
Copy CRC 45538710
Copy OK
Track 4
Filename C:\Have A Nice Decade The 70's Pop Culture Box (98)\04 American Woman.wav
Peak level 99.8 %
Track quality 100.0 %
Test CRC 3C485B11
Copy CRC 3C485B11
Copy OK
Track 5
Filename C:\Have A Nice Decade The 70's Pop Culture Box (98)\05 Green-Eyed Lady.wav
Peak level 99.8 %
Track quality 100.0 %
Test CRC B96BC427
Copy CRC B96BC427
Copy OK
Track 6
Filename C:\Have A Nice Decade The 70's Pop Culture Box (98)\06 Vehicle.wav
Peak level 99.8 %
Track quality 100.0 %
Test CRC 957BF68B
Copy CRC 957BF68B
Copy OK
Track 7
Filename C:\Have A Nice Decade The 70's Pop Culture Box (98)\07 Little Green Bag.wav
Peak level 99.8 %
Track quality 100.0 %
Test CRC E4008B9E
Copy CRC E4008B9E
Copy OK
Track 8
Filename C:\Have A Nice Decade The 70's Pop Culture Box (98)\08 Ride Captain Ride.wav
Peak level 99.8 %
Track quality 99.9 %
Test CRC B864508C
Copy CRC B864508C
Copy OK
Track 9
Filename C:\Have A Nice Decade The 70's Pop Culture Box (98)\09 Spirit in the Sky.wav
Peak level 99.8 %
Track quality 100.0 %
Test CRC 76CA1762
Copy CRC 76CA1762
Copy OK
Track 10
Filename C:\Have A Nice Decade The 70's Pop Culture Box (98)\10 Superstar.wav
Peak level 99.7 %
Track quality 99.9 %
Test CRC 57E7FA22
Copy CRC 57E7FA22
Copy OK
Track 11
Filename C:\Have A Nice Decade The 70's Pop Culture Box (98)\11 Give Me Just a Little More Time.wav
Peak level 99.8 %
Track quality 100.0 %
Test CRC 5EEB8DD6
Copy CRC 5EEB8DD6
Copy OK
Track 12
Filename C:\Have A Nice Decade The 70's Pop Culture Box (98)\12 Didn't I.wav
Peak level 99.8 %
Track quality 100.0 %
Test CRC 8DEB82C7
Copy CRC 8DEB82C7
Copy OK
Track 13
Filename C:\Have A Nice Decade The 70's Pop Culture Box (98)\13 O-o-h Child.wav
Peak level 99.8 %
Track quality 100.0 %
Test CRC F44F8011
Copy CRC F44F8011
Copy OK
Track 14
Filename C:\Have A Nice Decade The 70's Pop Culture Box (98)\14 ABC.wav
Peak level 99.6 %
Track quality 100.0 %
Test CRC 60DC2894
Copy CRC 60DC2894
Copy OK
Track 15
Filename C:\Have A Nice Decade The 70's Pop Culture Box (98)\15 Band of Gold.wav
Peak level 99.8 %
Track quality 99.9 %
Test CRC 29EC6972
Copy CRC 29EC6972
Copy OK
Track 16
Filename C:\Have A Nice Decade The 70's Pop Culture Box (98)\16 Fire and Rain.wav
Peak level 99.8 %
Track quality 100.0 %
Test CRC 8B924BFC
Copy CRC 8B924BFC
Copy OK
Track 17
Filename C:\Have A Nice Decade The 70's Pop Culture Box (98)\17 Indian Reservation.wav
Peak level 99.8 %
Track quality 100.0 %
Test CRC 87CA6008
Copy CRC 87CA6008
Copy OK
Track 18
Filename C:\Have A Nice Decade The 70's Pop Culture Box (98)\18 Put Your Hand In the Hand.wav
Peak level 99.8 %
Track quality 99.9 %
Test CRC ECB5C90A
Copy CRC ECB5C90A
Copy OK
Track 19
Filename C:\Have A Nice Decade The 70's Pop Culture Box (98)\19 One Toke Over the Line.wav
Peak level 99.8 %
Track quality 100.0 %
Test CRC F0366025
Copy CRC F0366025
Copy OK
Track 20
Filename C:\Have A Nice Decade The 70's Pop Culture Box (98)\20 Signs.wav
Peak level 99.8 %
Track quality 100.0 %
Test CRC F9AE1160
Copy CRC F9AE1160
Copy OK
Track 21
Filename C:\Have A Nice Decade The 70's Pop Culture Box (98)\21 Don't Pull Your Love.wav
Peak level 99.8 %
Track quality 100.0 %
Test CRC 530CD0B6
Copy CRC 530CD0B6
Copy OK
Track 22
Filename C:\Have A Nice Decade The 70's Pop Culture Box (98)\22 Me And You And a Dog Named Boo.wav
Peak level 99.8 %
Track quality 100.0 %
Test CRC C746E078
Copy CRC C746E078
Copy OK
Track 23
Filename C:\Have A Nice Decade The 70's Pop Culture Box (98)\23 Wild World.wav
Peak level 99.8 %
Track quality 100.0 %
Test CRC B6CB2890
Copy CRC B6CB2890
Copy OK
Track 24
Filename C:\Have A Nice Decade The 70's Pop Culture Box (98)\24 Joy To the World.wav
Peak level 99.8 %
Track quality 100.0 %
Test CRC BD64A6B0
Copy CRC BD64A6B0
Copy OK
No errors occured
End of status report
 
CUE
PERFORMER "Various"
TITLE "Have A Nice Decade: The '70s Pop Culture Box Disc 1"
FILE "01 Love Grows.wav" WAVE
TRACK 01 AUDIO
TITLE "Love Grows"
PERFORMER "Edison Lighthouse"
INDEX 01 00:00:00
FILE "02 Venus.wav" WAVE
TRACK 02 AUDIO
TITLE "Venus"
PERFORMER "The Shocking Blue"
INDEX 01 00:00:00
FILE "03 Rose Garden.wav" WAVE
TRACK 03 AUDIO
TITLE "Rose Garden"
PERFORMER "Lynn Anderson"
INDEX 01 00:00:00
FILE "04 American Woman.wav" WAVE
TRACK 04 AUDIO
TITLE "American Woman"
PERFORMER "The Guess Who"
INDEX 01 00:00:00
FILE "05 Green-Eyed Lady.wav" WAVE
TRACK 05 AUDIO
TITLE "Green-Eyed Lady"
PERFORMER "Sugarloaf"
INDEX 01 00:00:00
FILE "06 Vehicle.wav" WAVE
TRACK 06 AUDIO
TITLE "Vehicle"
PERFORMER "The Ides Of March"
INDEX 01 00:00:00
FILE "07 Little Green Bag.wav" WAVE
TRACK 07 AUDIO
TITLE "Little Green Bag"
PERFORMER "George Baker Selection"
INDEX 01 00:00:00
FILE "08 Ride Captain Ride.wav" WAVE
TRACK 08 AUDIO
TITLE "Ride Captain Ride"
PERFORMER "Blues Image"
INDEX 01 00:00:00
FILE "09 Spirit in the Sky.wav" WAVE
TRACK 09 AUDIO
TITLE "Spirit in the Sky"
PERFORMER "Norman Greenbaum"
INDEX 01 00:00:00
FILE "10 Superstar.wav" WAVE
TRACK 10 AUDIO
TITLE "Superstar"
PERFORMER "Murray Head"
INDEX 01 00:00:00
FILE "11 Give Me Just a Little More Time.wav" WAVE
TRACK 11 AUDIO
TITLE "Give Me Just a Little More Time"
PERFORMER "Chairmen of the Board"
INDEX 01 00:00:00
FILE "12 Didn't I.wav" WAVE
TRACK 12 AUDIO
TITLE "Didn't I"
PERFORMER "The Delfonics"
INDEX 01 00:00:00
FILE "13 O-o-h Child.wav" WAVE
TRACK 13 AUDIO
TITLE "O-o-h Child"
PERFORMER "The 5 Stairsteps"
INDEX 01 00:00:00
FILE "14 ABC.wav" WAVE
TRACK 14 AUDIO
TITLE "ABC"
PERFORMER "The Jackson 5"
INDEX 01 00:00:00
FILE "15 Band of Gold.wav" WAVE
TRACK 15 AUDIO
TITLE "Band of Gold"
PERFORMER "Freda Payne"
INDEX 01 00:00:00
FILE "16 Fire and Rain.wav" WAVE
TRACK 16 AUDIO
TITLE "Fire and Rain"
PERFORMER "James Taylor"
INDEX 01 00:00:00
FILE "17 Indian Reservation.wav" WAVE
TRACK 17 AUDIO
TITLE "Indian Reservation"
PERFORMER "The Raiders"
INDEX 01 00:00:00
FILE "18 Put Your Hand In the Hand.wav" WAVE
TRACK 18 AUDIO
TITLE "Put Your Hand In the Hand"
PERFORMER "Ocean"
INDEX 01 00:00:00
FILE "19 One Toke Over the Line.wav" WAVE
TRACK 19 AUDIO
TITLE "One Toke Over the Line"
PERFORMER "Brewer & Shipley"
INDEX 01 00:00:00
FILE "20 Signs.wav" WAVE
TRACK 20 AUDIO
TITLE "Signs"
PERFORMER "Five Man Electrical Band"
INDEX 01 00:00:00
FILE "21 Don't Pull Your Love.wav" WAVE
TRACK 21 AUDIO
TITLE "Don't Pull Your Love"
PERFORMER "Hamilton, Joe Frank & Reynolds"
INDEX 01 00:00:00
FILE "22 Me And You And a Dog Named Boo.wav" WAVE
TRACK 22 AUDIO
TITLE "Me And You And a Dog Named Boo"
PERFORMER "Lobo"
INDEX 01 00:00:00
FILE "23 Wild World.wav" WAVE
TRACK 23 AUDIO
TITLE "Wild World"
PERFORMER "Cat Stevens"
INDEX 01 00:00:00
FILE "24 Joy To the World.wav" WAVE
TRACK 24 AUDIO
TITLE "Joy To the World"
PERFORMER "Three Dog Night"
INDEX 01 00:00:00
 
CD 2
Продолжительность: 79 min 19 sec
01 Isaac Hayes - Theme From Shaft [03:17]
02 Sly & The Family Stone - Family Affair [03:06]
03 The Dramatics - Whatcha See Is Whatcha Get [03:33]
04 The Cornelius Brothers & Sister Rose - Treat Her Like A Lady [02:46]
05 The Chi-Lites - Have You Seen Her? [04:49]
06 Honey Cone - Want Ads [02:47]
07 Al Green - Let's Stay Together [03:18]
08 Lee Michaels - Do You Know What I Mean? [03:14]
09 Rod Stewart - Maggie May [05:19]
10 Jean Knight - Mr Big Stuff [02:30]
11 Daddy Dewdrop - Chick-A-Boom (Don't Ya Jes' Love It) [02:51]
12 Melanie - Brand New Key [02:26]
13 Coven - One Tin Soldier (The Legend Of Billy Jack) [03:38]
14 Alice Cooper - School's Out [03:30]
15 Hot Butter - Popcorn [02:33]
16 Apollo 100 - Joy [02:46]
17 Helen Reddy - I Am Woman [03:16]
18 America - A Horse With No Name [03:50]
19 The Staple Singers - I'll Take You There [03:23]
20 The Main Ingredient - Everybody Plays The Fool [03:39]
21 Joe Tex - I Gotcha [02:29]
22 The Spinners - I'll Be Around [03:12]
23 Bill Withers - Lean On Me [03:42]
24 Godspell - Day By Day [03:14]
 
Log EAC
EAC extraction logfile from 26. May 2007, 2:44 for CD
Various / Have A Nice Decade: The '70s Pop Culture Box
Used drive : HL-DT-STDVD-ROM GDR8163B Adapter: 1 ID: 1
Read mode : Secure with NO C2, accurate stream, disable cache
Read offset correction : 102
Overread into Lead-In and Lead-Out : No
Used output format : F:\Program Files\FLAC\flac.exe (User Defined Encoder)
32 kBit/s
Additional command line options : -V -8 -T "artist=%a" -T "title=%t" -T "album=%g" -T "date=%y" -T "tracknumber=%n" -T "genre=%m" %s
Other options :
Fill up missing offset samples with silence : Yes
Delete leading and trailing silent blocks : No
Installed external ASPI interface
Track 1
Filename C:\Have A Nice Decade The 70's Pop Culture Box (98)\01 Theme From 'Shaft'.wav
Pre-gap length 0:00:02.00
Peak level 99.8 %
Track quality 99.9 %
Test CRC 957C8B5C
Copy CRC 957C8B5C
Copy OK
Track 2
Filename C:\Have A Nice Decade The 70's Pop Culture Box (98)\02 Family Affair.wav
Peak level 99.8 %
Track quality 100.0 %
Test CRC 31EC4344
Copy CRC 31EC4344
Copy OK
Track 3
Filename C:\Have A Nice Decade The 70's Pop Culture Box (98)\03 Whatcha See Is Whatcha Get.wav
Peak level 99.8 %
Track quality 100.0 %
Test CRC 210105B0
Copy CRC 210105B0
Copy OK
Track 4
Filename C:\Have A Nice Decade The 70's Pop Culture Box (98)\04 Treat Her Like A Lady.wav
Peak level 78.0 %
Track quality 99.9 %
Test CRC 483C831B
Copy CRC 483C831B
Copy OK
Track 5
Filename C:\Have A Nice Decade The 70's Pop Culture Box (98)\05 Have You Seen Her .wav
Peak level 96.1 %
Track quality 99.9 %
Test CRC 4E5B2971
Copy CRC 4E5B2971
Copy OK
Track 6
Filename C:\Have A Nice Decade The 70's Pop Culture Box (98)\06 Want Ads.wav
Peak level 99.8 %
Track quality 100.0 %
Test CRC 35F3205C
Copy CRC 35F3205C
Copy OK
Track 7
Filename C:\Have A Nice Decade The 70's Pop Culture Box (98)\07 Let's Stay Together.wav
Peak level 93.4 %
Track quality 100.0 %
Test CRC 733FE167
Copy CRC 733FE167
Copy OK
Track 8
Filename C:\Have A Nice Decade The 70's Pop Culture Box (98)\08 Do You Know What I Mean .wav
Peak level 99.8 %
Track quality 100.0 %
Test CRC 2164D9E9
Copy CRC 2164D9E9
Copy OK
Track 9
Filename C:\Have A Nice Decade The 70's Pop Culture Box (98)\09 Maggie May.wav
Peak level 99.8 %
Track quality 100.0 %
Test CRC 1D3BFE7B
Copy CRC 1D3BFE7B
Copy OK
Track 10
Filename C:\Have A Nice Decade The 70's Pop Culture Box (98)\10 Mr. Big Stuff.wav
Peak level 99.8 %
Track quality 99.9 %
Test CRC D384165A
Copy CRC D384165A
Copy OK
Track 11
Filename C:\Have A Nice Decade The 70's Pop Culture Box (98)\11 Chick-A-Boom.wav
Peak level 99.8 %
Track quality 100.0 %
Test CRC 38DDE269
Copy CRC 38DDE269
Copy OK
Track 12
Filename C:\Have A Nice Decade The 70's Pop Culture Box (98)\12 Brand New Key.wav
Peak level 91.4 %
Track quality 100.0 %
Test CRC 65CEFC2B
Copy CRC 65CEFC2B
Copy OK
Track 13
Filename C:\Have A Nice Decade The 70's Pop Culture Box (98)\13 One Tin Soldier.wav
Peak level 91.8 %
Track quality 100.0 %
Test CRC 7ABDC73D
Copy CRC 7ABDC73D
Copy OK
Track 14
Filename C:\Have A Nice Decade The 70's Pop Culture Box (98)\14 School's Out.wav
Peak level 91.3 %
Track quality 100.0 %
Test CRC B14C1957
Copy CRC B14C1957
Copy OK
Track 15
Filename C:\Have A Nice Decade The 70's Pop Culture Box (98)\15 Popcorn.wav
Peak level 99.8 %
Track quality 100.0 %
Test CRC 97F74371
Copy CRC 97F74371
Copy OK
Track 16
Filename C:\Have A Nice Decade The 70's Pop Culture Box (98)\16 Joy.wav
Peak level 99.8 %
Track quality 99.9 %
Test CRC D2B1A1CE
Copy CRC D2B1A1CE
Copy OK
Track 17
Filename C:\Have A Nice Decade The 70's Pop Culture Box (98)\17 I Am Woman.wav
Peak level 99.8 %
Track quality 100.0 %
Test CRC 6D03DFE2
Copy CRC 6D03DFE2
Copy OK
Track 18
Filename C:\Have A Nice Decade The 70's Pop Culture Box (98)\18 A Horse With No Name.wav
Peak level 99.8 %
Track quality 100.0 %
Test CRC BAF6530F
Copy CRC BAF6530F
Copy OK
Track 19
Filename C:\Have A Nice Decade The 70's Pop Culture Box (98)\19 I'll Take You There.wav
Peak level 99.8 %
Track quality 100.0 %
Test CRC 3D70797D
Copy CRC 3D70797D
Copy OK
Track 20
Filename C:\Have A Nice Decade The 70's Pop Culture Box (98)\20 Everybody Plays The Fool.wav
Peak level 99.8 %
Track quality 100.0 %
Test CRC DFC64658
Copy CRC DFC64658
Copy OK
Track 21
Filename C:\Have A Nice Decade The 70's Pop Culture Box (98)\21 I Gotcha.wav
Peak level 99.8 %
Track quality 100.0 %
Test CRC 0FE76CBD
Copy CRC 0FE76CBD
Copy OK
Track 22
Filename C:\Have A Nice Decade The 70's Pop Culture Box (98)\22 I'll Be Around.wav
Peak level 99.8 %
Track quality 100.0 %
Test CRC 2F349146
Copy CRC 2F349146
Copy OK
Track 23
Filename C:\Have A Nice Decade The 70's Pop Culture Box (98)\23 Lean On Me.wav
Peak level 99.8 %
Track quality 100.0 %
Test CRC 93B32614
Copy CRC 93B32614
Copy OK
Track 24
Filename C:\Have A Nice Decade The 70's Pop Culture Box (98)\24 Day By Day.wav
Peak level 99.8 %
Track quality 100.0 %
Test CRC C32EB365
Copy CRC C32EB365
Copy OK
No errors occured
End of status report
 
CUE
PERFORMER "Various"
TITLE "Have A Nice Decade: The '70s Pop Culture Box (Disc 2)"
FILE "01 Theme From 'Shaft'.wav" WAVE
TRACK 01 AUDIO
TITLE "Theme From 'Shaft'"
PERFORMER "Isaac Hayes"
INDEX 01 00:00:00
FILE "02 Family Affair.wav" WAVE
TRACK 02 AUDIO
TITLE "Family Affair"
PERFORMER "Sly & The Family Stone"
INDEX 01 00:00:00
FILE "03 Whatcha See Is Whatcha Get.wav" WAVE
TRACK 03 AUDIO
TITLE "Whatcha See Is Whatcha Get"
PERFORMER "Dramatics"
INDEX 01 00:00:00
FILE "04 Treat Her Like A Lady.wav" WAVE
TRACK 04 AUDIO
TITLE "Treat Her Like A Lady"
PERFORMER "Cornelius Brothers & Sister Rose"
INDEX 01 00:00:00
FILE "05 Have You Seen Her.wav" WAVE
TRACK 05 AUDIO
TITLE "Have You Seen Her?"
PERFORMER "Chi-Lites"
INDEX 01 00:00:00
FILE "06 Want Ads.wav" WAVE
TRACK 06 AUDIO
TITLE "Want Ads"
PERFORMER "The Honey Cone"
INDEX 01 00:00:00
FILE "07 Let's Stay Together.wav" WAVE
TRACK 07 AUDIO
TITLE "Let's Stay Together"
PERFORMER "Al Green"
INDEX 01 00:00:00
FILE "08 Do You Know What I Mean .wav" WAVE
TRACK 08 AUDIO
TITLE "Do You Know What I Mean?"
PERFORMER "Lee Michaels"
INDEX 01 00:00:00
FILE "09 Maggie May.wav" WAVE
TRACK 09 AUDIO
TITLE "Maggie May"
PERFORMER "Rod Stewart"
INDEX 01 00:00:00
FILE "10 Mr. Big Stuff.wav" WAVE
TRACK 10 AUDIO
TITLE "Mr. Big Stuff"
PERFORMER "Jean Knight"
INDEX 01 00:00:00
FILE "11 Chick-A-Boom.wav" WAVE
TRACK 11 AUDIO
TITLE "Chick-A-Boom"
PERFORMER "Daddy Dewdrop"
INDEX 01 00:00:00
FILE "12 Brand New Key.wav" WAVE
TRACK 12 AUDIO
TITLE "Brand New Key"
PERFORMER "Melanie"
INDEX 01 00:00:00
FILE "13 One Tin Soldier.wav" WAVE
TRACK 13 AUDIO
TITLE "One Tin Soldier"
PERFORMER "Coven"
INDEX 01 00:00:00
FILE "14 School's Out.wav" WAVE
TRACK 14 AUDIO
TITLE "School's Out"
PERFORMER "Alice Cooper"
INDEX 01 00:00:00
FILE "15 Popcorn.wav" WAVE
TRACK 15 AUDIO
TITLE "Popcorn"
PERFORMER "Hot Butter"
INDEX 01 00:00:00
FILE "16 Joy.wav" WAVE
TRACK 16 AUDIO
TITLE "Joy"
PERFORMER "Apollo 100"
INDEX 01 00:00:00
FILE "17 I Am Woman.wav" WAVE
TRACK 17 AUDIO
TITLE "I Am Woman"
PERFORMER "Helen Reddy"
INDEX 01 00:00:00
FILE "18 A Horse With No Name.wav" WAVE
TRACK 18 AUDIO
TITLE "A Horse With No Name"
PERFORMER "America"
INDEX 01 00:00:00
FILE "19 I'll Take You There.wav" WAVE
TRACK 19 AUDIO
TITLE "I'll Take You There"
PERFORMER "The Staple Singers"
INDEX 01 00:00:00
FILE "20 Everybody Plays The Fool.wav" WAVE
TRACK 20 AUDIO
TITLE "Everybody Plays The Fool"
PERFORMER "The Main Ingredient"
INDEX 01 00:00:00
FILE "21 I Gotcha.wav" WAVE
TRACK 21 AUDIO
TITLE "I Gotcha"
PERFORMER "Joe Tex"
INDEX 01 00:00:00
FILE "22 I'll Be Around.wav" WAVE
TRACK 22 AUDIO
TITLE "I'll Be Around"
PERFORMER "Spinners"
INDEX 01 00:00:00
FILE "23 Lean On Me.wav" WAVE
TRACK 23 AUDIO
TITLE "Lean OnMme"
PERFORMER "Bill Withers"
INDEX 01 00:00:00
FILE "24 Day By Day.wav" WAVE
TRACK 24 AUDIO
TITLE "Day By Day"
PERFORMER "Godspell"
INDEX 01 00:00:00
 
CD 3
Продолжительность: 78 min 49 sec
01 Gilbert O'Sullivan - Alone Again (Naturally) [03:39]
02 Climax - Precious & Few [02:47]
03 Looking Glass - Brandy (You're A Fine Girl) [03:05]
04 King Harvest - Dancing In The Moonlight [02:51]
05 Gallery - Nice To Be With You [02:38]
06 Sammy Davis Jr. - The Candy Man [03:10]
07 Wayne Newton - Daddy Don't You Walk So Fast [03:24]
08 Commander Cody & His Lost Planet Airmen - Hot Rod Lincoln [02:44]
09 Gary Glitter - Rock & Roll (Part 2) [03:02]
10 Dr. Hook & The Medicine Show - The Cover Of Rolling Stone [02:54]
11 Carly Simon - You're So Vain [04:20]
12 Billy Paul - Me & Mrs Jones [04:47]
13 Curtis Mayfield - Freddie's Dead (Theme From Superfly) [03:27]
14 Maureen McGovern - The Morning After [02:23]
15 The Isley Brothers - That Lady (Part 1) [03:49]
16 Barry White - I'm Gonna Love You Just A Little More Baby [04:10]
17 Love Unlimited Orchestra - Love's Theme [03:35]
18 Kool & The Gang - Jungle Boogie [03:06]
19 El Chicano - Tell Her She's Lovely [03:14]
20 Stealers Wheel - Stuck In The Middle With You [03:26]
21 Dawn - Tie A Yellow Ribbon 'Round The Ole Oak Tree [03:26]
22 Brownsville Station - Smokin' In The Boy's Room [02:58]
23 The Edgar Winter Group - Frankenstein [03:27]
24 Eric Weissberg - Dueling Banjos [02:17]
 
Log EAC
EAC extraction logfile from 26. May 2007, 2:44 for CD
Various / Have A Nice Decade: The '70s Pop Culture Box
Used drive : HL-DT-STDVD-ROM GDR8163B Adapter: 1 ID: 1
Read mode : Secure with NO C2, accurate stream, disable cache
Read offset correction : 102
Overread into Lead-In and Lead-Out : No
Used output format : F:\Program Files\FLAC\flac.exe (User Defined Encoder)
32 kBit/s
Additional command line options : -V -8 -T "artist=%a" -T "title=%t" -T "album=%g" -T "date=%y" -T "tracknumber=%n" -T "genre=%m" %s
Other options :
Fill up missing offset samples with silence : Yes
Delete leading and trailing silent blocks : No
Installed external ASPI interface
Track 1
Filename C:\Have A Nice Decade The 70's Pop Culture Box (98)\01 Alone Again (Naturally).wav
Pre-gap length 0:00:02.32
Peak level 99.8 %
Track quality 100.0 %
Test CRC 329C6595
Copy CRC 329C6595
Copy OK
Track 2
Filename C:\Have A Nice Decade The 70's Pop Culture Box (98)\02 Precious And Few.wav
Peak level 99.8 %
Track quality 99.9 %
Test CRC 8EFE0411
Copy CRC 8EFE0411
Copy OK
Track 3
Filename C:\Have A Nice Decade The 70's Pop Culture Box (98)\03 Brandy (You're A Fine Girl).wav
Peak level 99.8 %
Track quality 100.0 %
Test CRC 6AC68B34
Copy CRC 6AC68B34
Copy OK
Track 4
Filename C:\Have A Nice Decade The 70's Pop Culture Box (98)\04 Dancing In The Moonlight.wav
Peak level 99.8 %
Track quality 100.0 %
Test CRC 29EB4842
Copy CRC 29EB4842
Copy OK
Track 5
Filename C:\Have A Nice Decade The 70's Pop Culture Box (98)\05 Nice To Be With You.wav
Peak level 99.8 %
Track quality 100.0 %
Test CRC BA8A9B57
Copy CRC BA8A9B57
Copy OK
Track 6
Filename C:\Have A Nice Decade The 70's Pop Culture Box (98)\06 The Candy Man.wav
Peak level 99.8 %
Track quality 100.0 %
Test CRC A281DED6
Copy CRC A281DED6
Copy OK
Track 7
Filename C:\Have A Nice Decade The 70's Pop Culture Box (98)\07 Daddy Don't You Walk So Fast.wav
Peak level 99.8 %
Track quality 100.0 %
Test CRC C7AB5912
Copy CRC C7AB5912
Copy OK
Track 8
Filename C:\Have A Nice Decade The 70's Pop Culture Box (98)\08 Hot Rod Lincoln.wav
Peak level 99.8 %
Track quality 100.0 %
Test CRC C1D2F8ED
Copy CRC C1D2F8ED
Copy OK
Track 9
Filename C:\Have A Nice Decade The 70's Pop Culture Box (98)\09 Rock And Roll Part 2.wav
Peak level 99.8 %
Track quality 100.0 %
Test CRC A8CC28CF
Copy CRC A8CC28CF
Copy OK
Track 10
Filename C:\Have A Nice Decade The 70's Pop Culture Box (98)\10 The Cover Of Rolling Stone.wav
Peak level 99.8 %
Track quality 100.0 %
Test CRC D2618318
Copy CRC D2618318
Copy OK
Track 11
Filename C:\Have A Nice Decade The 70's Pop Culture Box (98)\11 You're So Vain.wav
Peak level 99.8 %
Track quality 99.9 %
Test CRC 68956537
Copy CRC 68956537
Copy OK
Track 12
Filename C:\Have A Nice Decade The 70's Pop Culture Box (98)\12 Me And Mrs. Jones.wav
Peak level 99.8 %
Track quality 100.0 %
Test CRC 6A6BAB21
Copy CRC 6A6BAB21
Copy OK
Track 13
Filename C:\Have A Nice Decade The 70's Pop Culture Box (98)\13 Freddie's Dead (Theme From 'Superfly').wav
Peak level 99.8 %
Track quality 100.0 %
Test CRC D059E04E
Copy CRC D059E04E
Copy OK
Track 14
Filename C:\Have A Nice Decade The 70's Pop Culture Box (98)\14 The Morning After.wav
Peak level 99.8 %
Track quality 100.0 %
Test CRC D0D67316
Copy CRC D0D67316
Copy OK
Track 15
Filename C:\Have A Nice Decade The 70's Pop Culture Box (98)\15 That Lady (Part 1).wav
Peak level 99.8 %
Track quality 100.0 %
Test CRC 9DA9CA9D
Copy CRC 9DA9CA9D
Copy OK
Track 16
Filename C:\Have A Nice Decade The 70's Pop Culture Box (98)\16 I'm Gonna Love You Just A Little More Baby.wav
Peak level 99.8 %
Track quality 100.0 %
Test CRC 91B820F0
Copy CRC 91B820F0
Copy OK
Track 17
Filename C:\Have A Nice Decade The 70's Pop Culture Box (98)\17 Love's Theme.wav
Peak level 99.8 %
Track quality 100.0 %
Test CRC 97548E02
Copy CRC 97548E02
Copy OK
Track 18
Filename C:\Have A Nice Decade The 70's Pop Culture Box (98)\18 Jungle Boogie.wav
Peak level 99.8 %
Track quality 99.9 %
Test CRC 7CB2424C
Copy CRC 7CB2424C
Copy OK
Track 19
Filename C:\Have A Nice Decade The 70's Pop Culture Box (98)\19 Tell Her She's Lovely.wav
Peak level 99.8 %
Track quality 100.0 %
Test CRC 4E0B8F94
Copy CRC 4E0B8F94
Copy OK
Track 20
Filename C:\Have A Nice Decade The 70's Pop Culture Box (98)\20 Stuck In The Middle With You.wav
Peak level 99.8 %
Track quality 100.0 %
Test CRC 22FB4971
Copy CRC 22FB4971
Copy OK
Track 21
Filename C:\Have A Nice Decade The 70's Pop Culture Box (98)\21 Tie A Yellow Ribbon Round The Old Oak Tree.wav
Peak level 99.8 %
Track quality 99.9 %
Test CRC 8D7304C3
Copy CRC 8D7304C3
Copy OK
Track 22
Filename C:\Have A Nice Decade The 70's Pop Culture Box (98)\22 Smokin' In The Boy's Room.wav
Peak level 99.8 %
Track quality 100.0 %
Test CRC 3CA5EEFE
Copy CRC 3CA5EEFE
Copy OK
Track 23
Filename C:\Have A Nice Decade The 70's Pop Culture Box (98)\23 Frankenstein.wav
Peak level 99.8 %
Track quality 100.0 %
Test CRC 96F7356F
Copy CRC 96F7356F
Copy OK
Track 24
Filename C:\Have A Nice Decade The 70's Pop Culture Box (98)\24 Dueling Banjos.wav
Peak level 97.1 %
Track quality 99.9 %
Test CRC 02A20948
Copy CRC 02A20948
Copy OK
No errors occured
End of status report
 
CUE
PERFORMER "Various"
TITLE "Have A Nice Decade: The '70s Pop Culture Box Disc 3"
FILE "01 Alone Again (Naturally).wav" WAVE
TRACK 01 AUDIO
TITLE "Alone Again (Naturally)"
PERFORMER "Gilbert O'Sullivan"
INDEX 01 00:00:00
FILE "02 Precious And Few.wav" WAVE
TRACK 02 AUDIO
TITLE "Precious And Few"
PERFORMER "Climax"
INDEX 01 00:00:00
FILE "03 Brandy (You're A Fine Girl).wav" WAVE
TRACK 03 AUDIO
TITLE "Brandy (You're A Fine Girl)"
PERFORMER "Looking Glass"
INDEX 01 00:00:00
FILE "04 Dancing In The Moonlight.wav" WAVE
TRACK 04 AUDIO
TITLE "Dancing In The Moonlight"
PERFORMER "King Harvest"
INDEX 01 00:00:00
FILE "05 Nice To Be With You.wav" WAVE
TRACK 05 AUDIO
TITLE "Nice To Be With You"
PERFORMER "Gallery"
INDEX 01 00:00:00
FILE "06 The Candy Man.wav" WAVE
TRACK 06 AUDIO
TITLE "The Candy Man"
PERFORMER "Sammy Davis Jr"
INDEX 01 00:00:00
FILE "07 Daddy Don't You Walk So Fast.wav" WAVE
TRACK 07 AUDIO
TITLE "Daddy Don't You Walk So Fast"
PERFORMER "Wayne Newton"
INDEX 01 00:00:00
FILE "08 Hot Rod Lincoln.wav" WAVE
TRACK 08 AUDIO
TITLE "Hot Rod Lincoln"
PERFORMER "Commander Cody & His Lost Planet Airmen"
INDEX 01 00:00:00
FILE "09 Rock And Roll Part 2.wav" WAVE
TRACK 09 AUDIO
TITLE "Rock And Roll Part 2"
PERFORMER "Gary Glitter"
INDEX 01 00:00:00
FILE "10 The Cover Of Rolling Stone.wav" WAVE
TRACK 10 AUDIO
TITLE "The Cover Of Rolling Stone"
PERFORMER "Dr. Hook & The Medicine Show"
INDEX 01 00:00:00
FILE "11 You're So Vain.wav" WAVE
TRACK 11 AUDIO
TITLE "You're So Vain"
PERFORMER "Carly Simon"
INDEX 01 00:00:00
FILE "12 Me And Mrs. Jones.wav" WAVE
TRACK 12 AUDIO
TITLE "Me And Mrs. Jones"
PERFORMER "Billy Paul"
INDEX 01 00:00:00
FILE "13 Freddie's Dead (Theme From 'Superfly').wav" WAVE
TRACK 13 AUDIO
TITLE "Freddie's Dead (Theme From 'Superfly')"
PERFORMER "Curtis Mayfield"
INDEX 01 00:00:00
FILE "14 The Morning After.wav" WAVE
TRACK 14 AUDIO
TITLE "The Morning After"
PERFORMER "Maureen McGovern"
INDEX 01 00:00:00
FILE "15 That Lady (Part 1).wav" WAVE
TRACK 15 AUDIO
TITLE "That Lady (Part 1)"
PERFORMER "The Isley Brothers"
INDEX 01 00:00:00
FILE "16 I'm Gonna Love You Just A Little More Baby.wav" WAVE
TRACK 16 AUDIO
TITLE "I'm Gonna Love You Just A Little More Baby"
PERFORMER "Barry White"
INDEX 01 00:00:00
FILE "17 Love's Theme.wav" WAVE
TRACK 17 AUDIO
TITLE "Love's Theme"
PERFORMER "Love Unlimited Orchestra"
INDEX 01 00:00:00
FILE "18 Jungle Boogie.wav" WAVE
TRACK 18 AUDIO
TITLE "Jungle Boogie"
PERFORMER "Kool & The Gang"
INDEX 01 00:00:00
FILE "19 Tell Her She's Lovely.wav" WAVE
TRACK 19 AUDIO
TITLE "Tell Her She's Lovely"
PERFORMER "El Chicano"
INDEX 01 00:00:00
FILE "20 Stuck In The Middle With You.wav" WAVE
TRACK 20 AUDIO
TITLE "Stuck In The Middle With You"
PERFORMER "Stealers Wheel"
INDEX 01 00:00:00
FILE "21 Tie A Yellow Ribbon Round The Old Oak Tree.wav" WAVE
TRACK 21 AUDIO
TITLE "Tie A Yellow Ribbon Round The Old Oak Tree"
PERFORMER "Dawn"
INDEX 01 00:00:00
FILE "22 Smokin' In The Boy's Room.wav" WAVE
TRACK 22 AUDIO
TITLE "Smokin' In The Boy's Room"
PERFORMER "Brownsville Station"
INDEX 01 00:00:00
FILE "23 Frankenstein.wav" WAVE
TRACK 23 AUDIO
TITLE "Frankenstein"
PERFORMER "Edgar Winter Group"
INDEX 01 00:00:00
FILE "24 Dueling Banjos.wav" WAVE
TRACK 24 AUDIO
TITLE "Dueling Banjos"
PERFORMER "Eric Weissberg"
INDEX 01 00:00:00
 
CD 4
Продолжительность: 79 min 28 sec
01 O'Jays - Love Train [02:58]
02 Gladys Knight & The Pips - Midnight Train To Georgia [03:58]
03 Vicki Lawrence - The Night The Lights Went Out In Georgia [03:35]
04 The Doobie Brothers - Long Train Runnin' [03:27]
05 Stories - Brother Louie [03:56]
06 Todd Rundgren - Hello It's Me [03:30]
07 Terry Jacks - Seasons In The Sun [03:44]
08 The Hollies - The Air That I Breathe [03:47]
09 Harry Chapin - Cat's In The Cradle [03:39]
10 Paper Lace - The Night Chicago Died [03:31]
11 Rufus - Tell Me Something Good [03:32]
12 Bo Donaldson & The Heywoods - Billy Don't Be A Hero [03:40]
13 Styx - Lady [03:31]
14 James Brown - The Payback (Part 1) [04:06]
15 Linda Ronstadt - You're No Good [03:38]
16 Marvin Hamlisch - The Entertainer [03:05]
17 Hues Corporation - Rock The Boat [03:08]
18 Carl Douglas - Kung Fu Fighting [03:15]
19 Maria Muldaur - Midnight At The Oasis [03:45]
20 Ray Stevens - The Streak [03:16]
21 BT Express - Do It ('Til You're Satisfied) [03:12]
22 Golden Earring - Radar Love [05:04]
 
Log EAC
EAC extraction logfile from 26. May 2007, 2:44 for CD
Various / Have A Nice Decade: The '70s Pop Culture Box
Used drive : HL-DT-STDVD-ROM GDR8163B Adapter: 1 ID: 1
Read mode : Secure with NO C2, accurate stream, disable cache
Read offset correction : 102
Overread into Lead-In and Lead-Out : No
Used output format : F:\Program Files\FLAC\flac.exe (User Defined Encoder)
32 kBit/s
Additional command line options : -V -8 -T "artist=%a" -T "title=%t" -T "album=%g" -T "date=%y" -T "tracknumber=%n" -T "genre=%m" %s
Other options :
Fill up missing offset samples with silence : Yes
Delete leading and trailing silent blocks : No
Installed external ASPI interface
Track 1
Filename C:\Have A Nice Decade The 70's Pop Culture Box (98)\01 Love Train.wav
Pre-gap length 0:00:02.32
Peak level 99.8 %
Track quality 99.9 %
Test CRC 209DE7B7
Copy CRC 209DE7B7
Copy OK
Track 2
Filename C:\Have A Nice Decade The 70's Pop Culture Box (98)\02 Midnight Train To Georgia.wav
Peak level 99.8 %
Track quality 100.0 %
Test CRC 305AC2C9
Copy CRC 305AC2C9
Copy OK
Track 3
Filename C:\Have A Nice Decade The 70's Pop Culture Box (98)\03 The Night The Lights Went Out In Georgia.wav
Peak level 99.8 %
Track quality 100.0 %
Test CRC D2477BA6
Copy CRC D2477BA6
Copy OK
Track 4
Filename C:\Have A Nice Decade The 70's Pop Culture Box (98)\04 Long Train Runnin'.wav
Peak level 99.8 %
Track quality 100.0 %
Test CRC 3CD04583
Copy CRC 3CD04583
Copy OK
Track 5
Filename C:\Have A Nice Decade The 70's Pop Culture Box (98)\05 Brother Louie.wav
Peak level 99.8 %
Track quality 100.0 %
Test CRC CD093D74
Copy CRC CD093D74
Copy OK
Track 6
Filename C:\Have A Nice Decade The 70's Pop Culture Box (98)\06 Hello It's Me.wav
Peak level 87.3 %
Track quality 100.0 %
Test CRC FD81F225
Copy CRC FD81F225
Copy OK
Track 7
Filename C:\Have A Nice Decade The 70's Pop Culture Box (98)\07 Seasons In The Sun.wav
Peak level 99.8 %
Track quality 100.0 %
Test CRC 9D5C729E
Copy CRC 9D5C729E
Copy OK
Track 8
Filename C:\Have A Nice Decade The 70's Pop Culture Box (98)\08 The Air That I Breathe.wav
Peak level 94.6 %
Track quality 100.0 %
Test CRC AA96BDB7
Copy CRC AA96BDB7
Copy OK
Track 9
Filename C:\Have A Nice Decade The 70's Pop Culture Box (98)\09 Cat's In The Cradle.wav
Peak level 99.2 %
Track quality 99.9 %
Test CRC 82CCE239
Copy CRC 82CCE239
Copy OK
Track 10
Filename C:\Have A Nice Decade The 70's Pop Culture Box (98)\10 The Night Chicago Died.wav
Peak level 99.8 %
Track quality 100.0 %
Test CRC 55A3FD17
Copy CRC 55A3FD17
Copy OK
Track 11
Filename C:\Have A Nice Decade The 70's Pop Culture Box (98)\11 Tell Me Something Good.wav
Peak level 99.8 %
Track quality 99.9 %
Test CRC FE472472
Copy CRC FE472472
Copy OK
Track 12
Filename C:\Have A Nice Decade The 70's Pop Culture Box (98)\12 Billy, Don't Be A Hero.wav
Peak level 99.8 %
Track quality 100.0 %
Test CRC 330766F9
Copy CRC 330766F9
Copy OK
Track 13
Filename C:\Have A Nice Decade The 70's Pop Culture Box (98)\13 Lady.wav
Peak level 99.8 %
Track quality 100.0 %
Test CRC F72C3781
Copy CRC F72C3781
Copy OK
Track 14
Filename C:\Have A Nice Decade The 70's Pop Culture Box (98)\14 The Payback Part 1.wav
Peak level 99.8 %
Track quality 100.0 %
Test CRC 2D368E9F
Copy CRC 2D368E9F
Copy OK
Track 15
Filename C:\Have A Nice Decade The 70's Pop Culture Box (98)\15 You're No Good.wav
Peak level 99.8 %
Track quality 100.0 %
Test CRC EC393A22
Copy CRC EC393A22
Copy OK
Track 16
Filename C:\Have A Nice Decade The 70's Pop Culture Box (98)\16 The Entertainer.wav
Peak level 99.8 %
Track quality 100.0 %
Test CRC 19777162
Copy CRC 19777162
Copy OK
Track 17
Filename C:\Have A Nice Decade The 70's Pop Culture Box (98)\17 Rock The Boat.wav
Peak level 99.8 %
Track quality 100.0 %
Test CRC D9A1D743
Copy CRC D9A1D743
Copy OK
Track 18
Filename C:\Have A Nice Decade The 70's Pop Culture Box (98)\18 Kung Fu Fighting.wav
Peak level 99.8 %
Track quality 100.0 %
Test CRC E69D144A
Copy CRC E69D144A
Copy OK
Track 19
Filename C:\Have A Nice Decade The 70's Pop Culture Box (98)\19 Midnight At The Oasis.wav
Peak level 99.8 %
Track quality 100.0 %
Test CRC A6CEB277
Copy CRC A6CEB277
Copy OK
Track 20
Filename C:\Have A Nice Decade The 70's Pop Culture Box (98)\20 The Streak.wav
Peak level 99.8 %
Track quality 100.0 %
Test CRC A7429EBE
Copy CRC A7429EBE
Copy OK
Track 21
Filename C:\Have A Nice Decade The 70's Pop Culture Box (98)\21 Do It ('Til You're Satisfied).wav
Peak level 99.8 %
Track quality 99.9 %
Test CRC 94081268
Copy CRC 94081268
Copy OK
Track 22
Filename C:\Have A Nice Decade The 70's Pop Culture Box (98)\22 Radar Love.wav
Peak level 99.8 %
Track quality 100.0 %
Test CRC 8ED51298
Copy CRC 8ED51298
Copy OK
No errors occured
End of status report
 
CUE
PERFORMER "Various"
TITLE "Have A Nice Decade The '70s Pop Culture Box 4"
FILE "01 Love Train.wav" WAVE
TRACK 01 AUDIO
TITLE "Love Train"
PERFORMER "O'Jays"
INDEX 01 00:00:00
FILE "02 Midnight Train To Georgia.wav" WAVE
TRACK 02 AUDIO
TITLE "Midnight Train To Georgia"
PERFORMER "Gladys Knight & The Pips"
INDEX 01 00:00:00
FILE "03 The Night The Lights Went Out In Georgia.wav" WAVE
TRACK 03 AUDIO
TITLE "The Night The Lights Went Out In Georgia"
PERFORMER "Vicki Lawrence"
INDEX 01 00:00:00
FILE "04 Long Train Runnin'.wav" WAVE
TRACK 04 AUDIO
TITLE "Long Train Runnin'"
PERFORMER "Doobie Brothers"
INDEX 01 00:00:00
FILE "05 Brother Louie.wav" WAVE
TRACK 05 AUDIO
TITLE "Brother Louie"
PERFORMER "Stories"
INDEX 01 00:00:00
FILE "06 Hello It's Me.wav" WAVE
TRACK 06 AUDIO
TITLE "Hello It's Me"
PERFORMER "Todd Rundgren"
INDEX 01 00:00:00
FILE "07 Seasons In The Sun.wav" WAVE
TRACK 07 AUDIO
TITLE "Seasons In The Sun"
PERFORMER "Terry Jacks"
INDEX 01 00:00:00
FILE "08 The Air That I Breathe.wav" WAVE
TRACK 08 AUDIO
TITLE "The Air That I Breathe"
PERFORMER "The Hollies"
INDEX 01 00:00:00
FILE "09 Cat's In The Cradle.wav" WAVE
TRACK 09 AUDIO
TITLE "Cat's In The Cradle"
PERFORMER "Harry Chapin"
INDEX 01 00:00:00
FILE "10 The Night Chicago Died.wav" WAVE
TRACK 10 AUDIO
TITLE "The Night Chicago Died"
PERFORMER "Paper Lace"
INDEX 01 00:00:00
FILE "11 Tell Me Something Good.wav" WAVE
TRACK 11 AUDIO
TITLE "Tell Me Something Good"
PERFORMER "Rufus"
INDEX 01 00:00:00
FILE "12 Billy, Don't Be A Hero.wav" WAVE
TRACK 12 AUDIO
TITLE "Billy, Don't Be A Hero"
PERFORMER "Bo Donaldson & The Heywoods"
INDEX 01 00:00:00
FILE "13 Lady.wav" WAVE
TRACK 13 AUDIO
TITLE "Lady"
PERFORMER "Styx"
INDEX 01 00:00:00
FILE "14 The Payback Part 1.wav" WAVE
TRACK 14 AUDIO
TITLE "The Payback Part 1"
PERFORMER "James Brown"
INDEX 01 00:00:00
FILE "15 You're No Good.wav" WAVE
TRACK 15 AUDIO
TITLE "You're No Good"
PERFORMER "Linda Ronstadt"
INDEX 01 00:00:00
FILE "16 The Entertainer.wav" WAVE
TRACK 16 AUDIO
TITLE "The Entertainer"
PERFORMER "Marvin Hamlisch"
INDEX 01 00:00:00
FILE "17 Rock The Boat.wav" WAVE
TRACK 17 AUDIO
TITLE "Rock The Boat"
PERFORMER "The Hues Corporation"
INDEX 01 00:00:00
FILE "18 Kung Fu Fighting.wav" WAVE
TRACK 18 AUDIO
TITLE "Kung Fu Fighting"
PERFORMER "Carl Douglas"
INDEX 01 00:00:00
FILE "19 Midnight At The Oasis.wav" WAVE
TRACK 19 AUDIO
TITLE "Midnight At The Oasis"
PERFORMER "Maria Muldaur"
INDEX 01 00:00:00
FILE "20 The Streak.wav" WAVE
TRACK 20 AUDIO
TITLE "The Streak"
PERFORMER "Ray Stevens"
INDEX 01 00:00:00
FILE "21 Do It ('Til You're Satisfied).wav" WAVE
TRACK 21 AUDIO
TITLE "Do It ('Til You're Satisfied)"
PERFORMER "B T Express"
INDEX 01 00:00:00
FILE "22 Radar Love.wav" WAVE
TRACK 22 AUDIO
TITLE "Radar Love"
PERFORMER "Golden Earring"
INDEX 01 00:00:00
 
CD 5
Продолжительность: 79 min 05 sec
01 First Class - Beach Baby [05:05]
02 Blue Magic - Sideshow [04:11]
03 Bachman-Turner Overdrive - You Ain't Seen Nothing Yet [03:28]
04 10CC - I'm Not In Love [03:58]
05 Jimmy Castor Bunch - The Bertha Butt Boogie (Part 1) [03:36]
06 Johnny Wakelin & The Kinshasa Band - Black Superman Muhammad Ali [03:36]
07 The Ozark Mountain Daredevils - Jackie Blue [03:37]
08 Sammy Jones - Chevy Van [02:58]
09 Earth Wind & Fire - Shining Star [02:53]
10 War - Why Can't We Be Friends? [03:50]
11 Captain & Tennille - Love Will Keep Us Together [03:24]
12 Morris Albert - Feelings [03:56]
13 The Jefferson Starship - Miracles [03:29]
14 Pilot - Magic [03:04]
15 The Miracles - Love Machine (Part 1) [02:58]
16 Hot Chocolate - You Sexy Thing [03:31]
17 La Belle - Lady Marmalade [03:20]
18 David Bowie - Fame [03:47]
19 Jigsaw - Sky High [02:50]
20 CW McCall - Convoy [04:11]
21 Neil Sedaka - Bad Blood [03:17]
22 Foghat - Slow Ride [03:56]
 
Log EAC
EAC extraction logfile from 26. May 2007, 2:44 for CD
Various / Have A Nice Decade: The '70s Pop Culture Box
Used drive : HL-DT-STDVD-ROM GDR8163B Adapter: 1 ID: 1
Read mode : Secure with NO C2, accurate stream, disable cache
Read offset correction : 102
Overread into Lead-In and Lead-Out : No
Used output format : F:\Program Files\FLAC\flac.exe (User Defined Encoder)
32 kBit/s
Additional command line options : -V -8 -T "artist=%a" -T "title=%t" -T "album=%g" -T "date=%y" -T "tracknumber=%n" -T "genre=%m" %s
Other options :
Fill up missing offset samples with silence : Yes
Delete leading and trailing silent blocks : No
Installed external ASPI interface
Track 1
Filename C:\Have A Nice Decade The 70's Pop Culture Box (98)\01 Beach Baby.wav
Pre-gap length 0:00:02.32
Peak level 99.8 %
Track quality 99.9 %
Test CRC BCEAEF8C
Copy CRC BCEAEF8C
Copy OK
Track 2
Filename C:\Have A Nice Decade The 70's Pop Culture Box (98)\02 Sideshow.wav
Peak level 92.7 %
Track quality 100.0 %
Test CRC E843E483
Copy CRC E843E483
Copy OK
Track 3
Filename C:\Have A Nice Decade The 70's Pop Culture Box (98)\03 You Ain't Seen Nothing Yet.wav
Peak level 99.8 %
Track quality 100.0 %
Test CRC C76FBFCE
Copy CRC C76FBFCE
Copy OK
Track 4
Filename C:\Have A Nice Decade The 70's Pop Culture Box (98)\04 I'm Not In Love.wav
Peak level 96.0 %
Track quality 100.0 %
Test CRC 8AF6F321
Copy CRC 8AF6F321
Copy OK
Track 5
Filename C:\Have A Nice Decade The 70's Pop Culture Box (98)\05 The Bertha Butt Boogie Part 1.wav
Peak level 92.7 %
Track quality 100.0 %
Test CRC BFAEDB42
Copy CRC BFAEDB42
Copy OK
Track 6
Filename C:\Have A Nice Decade The 70's Pop Culture Box (98)\06 Black Superman Muhammad Ali.wav
Peak level 99.8 %
Track quality 100.0 %
Test CRC 64F4EE32
Copy CRC 64F4EE32
Copy OK
Track 7
Filename C:\Have A Nice Decade The 70's Pop Culture Box (98)\07 Jackie Blue.wav
Peak level 99.8 %
Track quality 100.0 %
Test CRC 1B8572CD
Copy CRC 1B8572CD
Copy OK
Track 8
Filename C:\Have A Nice Decade The 70's Pop Culture Box (98)\08 Chevy Van.wav
Peak level 99.8 %
Track quality 100.0 %
Test CRC A94D6CBA
Copy CRC A94D6CBA
Copy OK
Track 9
Filename C:\Have A Nice Decade The 70's Pop Culture Box (98)\09 Shining Star.wav
Peak level 99.8 %
Track quality 100.0 %
Test CRC 80CE5B8D
Copy CRC 80CE5B8D
Copy OK
Track 10
Filename C:\Have A Nice Decade The 70's Pop Culture Box (98)\10 Why Can't We Be Friends.wav
Peak level 99.8 %
Track quality 99.9 %
Test CRC 7ADFA844
Copy CRC 7ADFA844
Copy OK
Track 11
Filename C:\Have A Nice Decade The 70's Pop Culture Box (98)\11 Love Will Keep Us Together.wav
Peak level 99.8 %
Track quality 100.0 %
Test CRC A61D0D54
Copy CRC A61D0D54
Copy OK
Track 12
Filename C:\Have A Nice Decade The 70's Pop Culture Box (98)\12 Feelings.wav
Peak level 99.8 %
Track quality 100.0 %
Test CRC 87C8A73E
Copy CRC 87C8A73E
Copy OK
Track 13
Filename C:\Have A Nice Decade The 70's Pop Culture Box (98)\13 Miracles.wav
Peak level 99.8 %
Track quality 100.0 %
Test CRC 18FDD44F
Copy CRC 18FDD44F
Copy OK
Track 14
Filename C:\Have A Nice Decade The 70's Pop Culture Box (98)\14 Magic.wav
Peak level 99.8 %
Track quality 99.9 %
Test CRC 0F808EA6
Copy CRC 0F808EA6
Copy OK
Track 15
Filename C:\Have A Nice Decade The 70's Pop Culture Box (98)\15 Love Machine (Part1).wav
Peak level 99.8 %
Track quality 99.9 %
Test CRC 410E93E4
Copy CRC 410E93E4
Copy OK
Track 16
Filename C:\Have A Nice Decade The 70's Pop Culture Box (98)\16 You Sexy Thing.wav
Peak level 99.8 %
Track quality 100.0 %
Test CRC 301DE3D1
Copy CRC 301DE3D1
Copy OK
Track 17
Filename C:\Have A Nice Decade The 70's Pop Culture Box (98)\17 Lady Marmalade.wav
Peak level 99.8 %
Track quality 100.0 %
Test CRC EBE2F0E0
Copy CRC EBE2F0E0
Copy OK
Track 18
Filename C:\Have A Nice Decade The 70's Pop Culture Box (98)\18 Fame.wav
Peak level 99.8 %
Track quality 100.0 %
Test CRC 3EB09F68
Copy CRC 3EB09F68
Copy OK
Track 19
Filename C:\Have A Nice Decade The 70's Pop Culture Box (98)\19 Sky High.wav
Peak level 99.8 %
Track quality 100.0 %
Test CRC 8EC9973A
Copy CRC 8EC9973A
Copy OK
Track 20
Filename C:\Have A Nice Decade The 70's Pop Culture Box (98)\20 Convoy.wav
Peak level 99.8 %
Track quality 100.0 %
Test CRC 640813E9
Copy CRC 640813E9
Copy OK
Track 21
Filename C:\Have A Nice Decade The 70's Pop Culture Box (98)\21 Bad Blood.wav
Peak level 99.8 %
Track quality 100.0 %
Test CRC AA224F26
Copy CRC AA224F26
Copy OK
Track 22
Filename C:\Have A Nice Decade The 70's Pop Culture Box (98)\22 Slow Ride.wav
Peak level 99.8 %
Track quality 100.0 %
Test CRC 6D76A941
Copy CRC 6D76A941
Copy OK
No errors occured
End of status report
 
CUE
PERFORMER "Various"
TITLE "Have A Nice Decade The '70s Pop Culture Box 5"
FILE "01 Beach Baby.wav" WAVE
TRACK 01 AUDIO
TITLE "Beach Baby"
PERFORMER "First Class"
INDEX 01 00:00:00
FILE "02 Sideshow.wav" WAVE
TRACK 02 AUDIO
TITLE "Sideshow"
PERFORMER "Blue Magic"
INDEX 01 00:00:00
FILE "03 You Ain't Seen Nothing Yet.wav" WAVE
TRACK 03 AUDIO
TITLE "You Ain't Seen Nothing Yet"
PERFORMER "Bachman-Turner Overdrive"
INDEX 01 00:00:00
FILE "04 I'm Not In Love.wav" WAVE
TRACK 04 AUDIO
TITLE "I'm Not In Love"
PERFORMER "10cc"
INDEX 01 00:00:00
FILE "05 The Bertha Butt Boogie Part 1.wav" WAVE
TRACK 05 AUDIO
TITLE "The Bertha Butt Boogie Part 1"
PERFORMER "Jimmy Castor Bunch"
INDEX 01 00:00:00
FILE "06 Black Superman Muhammad Ali.wav" WAVE
TRACK 06 AUDIO
TITLE "Black Superman Muhammad Ali"
PERFORMER "Johnny Wakelin & The Kinshasa Band"
INDEX 01 00:00:00
FILE "07 Jackie Blue.wav" WAVE
TRACK 07 AUDIO
TITLE "Jackie Blue"
PERFORMER "Ozark Mountain Daredevils"
INDEX 01 00:00:00
FILE "08 Chevy Van.wav" WAVE
TRACK 08 AUDIO
TITLE "Chevy Van"
PERFORMER "Sammy Jones"
INDEX 01 00:00:00
FILE "09 Shining Star.wav" WAVE
TRACK 09 AUDIO
TITLE "Shining Star"
PERFORMER "Earth, Wind & Fire"
INDEX 01 00:00:00
FILE "10 Why Can't We Be Friends.wav" WAVE
TRACK 10 AUDIO
TITLE "Why Can't We Be Friends"
PERFORMER "War"
INDEX 01 00:00:00
FILE "11 Love Will Keep Us Together.wav" WAVE
TRACK 11 AUDIO
TITLE "Love Will Keep Us Together"
PERFORMER "The Captain & Tennille"
INDEX 01 00:00:00
FILE "12 Feelings.wav" WAVE
TRACK 12 AUDIO
TITLE "Feelings"
PERFORMER "Morris Albert"
INDEX 01 00:00:00
FILE "13 Miracles.wav" WAVE
TRACK 13 AUDIO
TITLE "Miracles"
PERFORMER "Jefferson Starship"
INDEX 01 00:00:00
FILE "14 Magic.wav" WAVE
TRACK 14 AUDIO
TITLE "Magic"
PERFORMER "Pilot"
INDEX 01 00:00:00
FILE "15 Love Machine (Part1).wav" WAVE
TRACK 15 AUDIO
TITLE "Love Machine (Part1)"
PERFORMER "The Miracles"
INDEX 01 00:00:00
FILE "16 You Sexy Thing.wav" WAVE
TRACK 16 AUDIO
TITLE "You Sexy Thing"
PERFORMER "Hot Chocolate"
INDEX 01 00:00:00
FILE "17 Lady Marmalade.wav" WAVE
TRACK 17 AUDIO
TITLE "Lady Marmalade"
PERFORMER "La Belle"
INDEX 01 00:00:00
FILE "18 Fame.wav" WAVE
TRACK 18 AUDIO
TITLE "Fame"
PERFORMER "David Bowie"
INDEX 01 00:00:00
FILE "19 Sky High.wav" WAVE
TRACK 19 AUDIO
TITLE "Sky High"
PERFORMER "Jigsaw"
INDEX 01 00:00:00
FILE "20 Convoy.wav" WAVE
TRACK 20 AUDIO
TITLE "Convoy"
PERFORMER "C W McCall"
INDEX 01 00:00:00
FILE "21 Bad Blood.wav" WAVE
TRACK 21 AUDIO
TITLE "Bad Blood"
PERFORMER "Neil Sedaka"
INDEX 01 00:00:00
FILE "22 Slow Ride.wav" WAVE
TRACK 22 AUDIO
TITLE "Slow Ride"
PERFORMER "Foghat"
INDEX 01 00:00:00
 
CD 6
Продолжительность: 79 min 27 sec
01 KC & The Sunshine Band - Get Down Tonight [03:13]
02 The Ohio Players - Love Rollercoaster [02:54]
03 The Four Seasons - December 1963 (Oh What A Night) [03:32]
04 The Bay City Rollers - Saturday Night [02:55]
05 Mike Post - The Rockford Files [03:12]
06 Glen Campbell - Rhinestone Cowboy [03:14]
07 Silver Convention - Fly Robin Fly [03:38]
08 Electric Light Orchestra - Evil Woman [03:19]
09 Diana Ross - Theme From Mahogany (Do You Know Where You're Going To?) [03:24]
10 Pratt & McClain - Happy Days [03:15]
11 Cyndi Grecco - Making Our Dreams Come True [02:31]
12 The Bellamy Brothers - Let Your Love Flow [03:17]
13 Parliament - Give Up The Funk (Tear The Roof Off The Sucker) [04:09]
14 Maxine Nightingale - Right Back Where We Started From [03:16]
15 Elvin Bishop - Fooled Around & Fell In Love [02:58]
16 Starland Vocal Band - Afternoon Delight [03:49]
17 Gary Wright - Dream Weaver [03:26]
18 England Dan & John Ford Coley - I'd Really Love To See You Tonight [02:38]
19 Rick Dees & His Cast Of Idiots - Disco Duck (Part 1) [03:43]
20 Vickie Sue Robinson - Turn The Beat Around [03:50]
21 Rose Royce - Car Wash [04:08]
22 The Andrea True Connection - More More More (Pt 1) [03:01]
23 Firefall - You Are The Woman [02:54]
24 Steve Miller - Fly Like An Eagle [03:01]
 
Log EAC
EAC extraction logfile from 26. May 2007, 2:44 for CD
Various / Have A Nice Decade: The '70s Pop Culture Box
Used drive : HL-DT-STDVD-ROM GDR8163B Adapter: 1 ID: 1
Read mode : Secure with NO C2, accurate stream, disable cache
Read offset correction : 102
Overread into Lead-In and Lead-Out : No
Used output format : F:\Program Files\FLAC\flac.exe (User Defined Encoder)
32 kBit/s
Additional command line options : -V -8 -T "artist=%a" -T "title=%t" -T "album=%g" -T "date=%y" -T "tracknumber=%n" -T "genre=%m" %s
Other options :
Fill up missing offset samples with silence : Yes
Delete leading and trailing silent blocks : No
Installed external ASPI interface
Track 1
Filename C:\Have A Nice Decade The 70's Pop Culture Box (98)\01 Get Down Tonight.wav
Pre-gap length 0:00:02.32
Peak level 99.8 %
Track quality 100.0 %
Test CRC D5F843E2
Copy CRC D5F843E2
Copy OK
Track 2
Filename C:\Have A Nice Decade The 70's Pop Culture Box (98)\02 Love Rollercoaster.wav
Peak level 99.8 %
Track quality 100.0 %
Test CRC 34F96B7F
Copy CRC 34F96B7F
Copy OK
Track 3
Filename C:\Have A Nice Decade The 70's Pop Culture Box (98)\03 December, 1963 (Oh, What A Night).wav
Peak level 98.4 %
Track quality 100.0 %
Test CRC 16E0298D
Copy CRC 16E0298D
Copy OK
Track 4
Filename C:\Have A Nice Decade The 70's Pop Culture Box (98)\04 Saturday Night..wav
Peak level 99.8 %
Track quality 99.9 %
Test CRC 920B5C07
Copy CRC 920B5C07
Copy OK
Track 5
Filename C:\Have A Nice Decade The 70's Pop Culture Box (98)\05 The Rockford Files.wav
Peak level 99.8 %
Track quality 100.0 %
Test CRC 3DBA5085
Copy CRC 3DBA5085
Copy OK
Track 6
Filename C:\Have A Nice Decade The 70's Pop Culture Box (98)\06 Rhinestone Cowboy.wav
Peak level 99.8 %
Track quality 100.0 %
Test CRC 0215E35A
Copy CRC 0215E35A
Copy OK
Track 7
Filename C:\Have A Nice Decade The 70's Pop Culture Box (98)\07 Fly, Robin, Fly.wav
Peak level 99.8 %
Track quality 100.0 %
Test CRC A404C3C5
Copy CRC A404C3C5
Copy OK
Track 8
Filename C:\Have A Nice Decade The 70's Pop Culture Box (98)\08 Evil Woman.wav
Peak level 99.8 %
Track quality 100.0 %
Test CRC 0DCD899B
Copy CRC 0DCD899B
Copy OK
Track 9
Filename C:\Have A Nice Decade The 70's Pop Culture Box (98)\09 Theme From Mahogany (Do You Know Where You're Going To).wav
Peak level 90.0 %
Track quality 100.0 %
Test CRC 189B7451
Copy CRC 189B7451
Copy OK
Track 10
Filename C:\Have A Nice Decade The 70's Pop Culture Box (98)\10 Happy Days.wav
Peak level 99.8 %
Track quality 100.0 %
Test CRC 43B06C88
Copy CRC 43B06C88
Copy OK
Track 11
Filename C:\Have A Nice Decade The 70's Pop Culture Box (98)\11 Making Our Dreams Come True.wav
Peak level 99.8 %
Track quality 99.9 %
Test CRC B3F04D4B
Copy CRC B3F04D4B
Copy OK
Track 12
Filename C:\Have A Nice Decade The 70's Pop Culture Box (98)\12 Let Your Love Flow.wav
Peak level 99.8 %
Track quality 99.9 %
Test CRC BD58EF00
Copy CRC BD58EF00
Copy OK
Track 13
Filename C:\Have A Nice Decade The 70's Pop Culture Box (98)\13 Tear The Roof Off The Sucker (Give Up The Funk).wav
Peak level 99.8 %
Track quality 100.0 %
Test CRC A870577E
Copy CRC A870577E
Copy OK
Track 14
Filename C:\Have A Nice Decade The 70's Pop Culture Box (98)\14 Right Back Where We Started From.wav
Peak level 99.8 %
Track quality 100.0 %
Test CRC 7A1BDA01
Copy CRC 7A1BDA01
Copy OK
Track 15
Filename C:\Have A Nice Decade The 70's Pop Culture Box (98)\15 Fooled Around And Fell In Love.wav
Peak level 99.8 %
Track quality 100.0 %
Test CRC 98E3C4C5
Copy CRC 98E3C4C5
Copy OK
Track 16
Filename C:\Have A Nice Decade The 70's Pop Culture Box (98)\16 Afternoon Delight.wav
Peak level 99.8 %
Track quality 100.0 %
Test CRC 3B5DC964
Copy CRC 3B5DC964
Copy OK
Track 17
Filename C:\Have A Nice Decade The 70's Pop Culture Box (98)\17 Dream Weaver.wav
Peak level 99.6 %
Track quality 100.0 %
Test CRC 0DF53CAE
Copy CRC 0DF53CAE
Copy OK
Track 18
Filename C:\Have A Nice Decade The 70's Pop Culture Box (98)\18 I'd Really Love To See You Tonight.wav
Peak level 99.8 %
Track quality 99.9 %
Test CRC CF942031
Copy CRC CF942031
Copy OK
Track 19
Filename C:\Have A Nice Decade The 70's Pop Culture Box (98)\19 Disco Duck (Part 1).wav
Peak level 96.5 %
Track quality 100.0 %
Test CRC A4D823D9
Copy CRC A4D823D9
Copy OK
Track 20
Filename C:\Have A Nice Decade The 70's Pop Culture Box (98)\20 Turn The Beat Around.wav
Peak level 96.0 %
Track quality 99.9 %
Test CRC 45F737CB
Copy CRC 45F737CB
Copy OK
Track 21
Filename C:\Have A Nice Decade The 70's Pop Culture Box (98)\21 Car Wash.wav
Peak level 99.8 %
Track quality 100.0 %
Test CRC 8CA16087
Copy CRC 8CA16087
Copy OK
Track 22
Filename C:\Have A Nice Decade The 70's Pop Culture Box (98)\22 More, More, More (Pt 1).wav
Peak level 99.8 %
Track quality 100.0 %
Test CRC C94883FB
Copy CRC C94883FB
Copy OK
Track 23
Filename C:\Have A Nice Decade The 70's Pop Culture Box (98)\23 You Are The Woman.wav
Peak level 99.8 %
Track quality 99.9 %
Test CRC 076F3F62
Copy CRC 076F3F62
Copy OK
Track 24
Filename C:\Have A Nice Decade The 70's Pop Culture Box (98)\24 Fly Like An Eagle.wav
Peak level 99.8 %
Track quality 99.9 %
Test CRC 6591AEB6
Copy CRC 6591AEB6
Copy OK
No errors occured
End of status report
 
CUE
PERFORMER "Various"
TITLE "Have A Nice Decade The 70s Pop Culture Box 6"
FILE "01 Get Down Tonight.wav" WAVE
TRACK 01 AUDIO
TITLE "Get Down Tonight"
PERFORMER "KC & The Sunshine Band"
INDEX 01 00:00:00
FILE "02 Love Rollercoaster.wav" WAVE
TRACK 02 AUDIO
TITLE "Love Rollercoaster"
PERFORMER "Ohio Players"
INDEX 01 00:00:00
FILE "03 December, 1963 (Oh, What A Night).wav" WAVE
TRACK 03 AUDIO
TITLE "December, 1963 (Oh, What A Night)"
PERFORMER "The Four Seasons"
INDEX 01 00:00:00
FILE "04 Saturday Night..wav" WAVE
TRACK 04 AUDIO
TITLE "Saturday Night."
PERFORMER "Bay City Rollers"
INDEX 01 00:00:00
FILE "05 The Rockford Files.wav" WAVE
TRACK 05 AUDIO
TITLE "The Rockford Files"
PERFORMER "Mike Post"
INDEX 01 00:00:00
FILE "06 Rhinestone Cowboy.wav" WAVE
TRACK 06 AUDIO
TITLE "Rhinestone Cowboy"
PERFORMER "Glen Campbell"
INDEX 01 00:00:00
FILE "07 Fly, Robin, Fly.wav" WAVE
TRACK 07 AUDIO
TITLE "Fly, Robin, Fly"
PERFORMER "Silver Convention"
INDEX 01 00:00:00
FILE "08 Evil Woman.wav" WAVE
TRACK 08 AUDIO
TITLE "Evil Woman"
PERFORMER "Electric Light Orchestra"
INDEX 01 00:00:00
FILE "09 Theme From Mahogany (Do You Know Where You're Going To).wav" WAVE
TRACK 09 AUDIO
TITLE "Theme From Mahogany (Do You Know Where You're Going To)"
PERFORMER "Diana Ross"
INDEX 01 00:00:00
FILE "10 Happy Days.wav" WAVE
TRACK 10 AUDIO
TITLE "Happy Days"
PERFORMER "Pratt & McClain"
INDEX 01 00:00:00
FILE "11 Making Our Dreams Come True.wav" WAVE
TRACK 11 AUDIO
TITLE "Making Our Dreams Come True"
PERFORMER "Cyndi Grecco"
INDEX 01 00:00:00
FILE "12 Let Your Love Flow.wav" WAVE
TRACK 12 AUDIO
TITLE "Let Your Love Flow"
PERFORMER "Bellamy Brothers"
INDEX 01 00:00:00
FILE "13 Tear The Roof Off The Sucker (Give Up The Funk).wav" WAVE
TRACK 13 AUDIO
TITLE "Tear The Roof Off The Sucker (Give Up The Funk)"
PERFORMER "Parliament"
INDEX 01 00:00:00
FILE "14 Right Back Where We Started From.wav" WAVE
TRACK 14 AUDIO
TITLE "Right Back Where We Started From"
PERFORMER "Maxine Nightngale"
INDEX 01 00:00:00
FILE "15 Fooled Around And Fell In Love.wav" WAVE
TRACK 15 AUDIO
TITLE "Fooled Around And Fell In Love"
PERFORMER "Elvin Bishop"
INDEX 01 00:00:00
FILE "16 Afternoon Delight.wav" WAVE
TRACK 16 AUDIO
TITLE "Afternoon Delight"
PERFORMER "Starland Vocal Band"
INDEX 01 00:00:00
FILE "17 Dream Weaver.wav" WAVE
TRACK 17 AUDIO
TITLE "Dream Weaver"
PERFORMER "Gary Wright"
INDEX 01 00:00:00
FILE "18 I'd Really Love To See You Tonight.wav" WAVE
TRACK 18 AUDIO
TITLE "I'd Really Love To See You Tonight"
PERFORMER "England Dan & John Ford Coley"
INDEX 01 00:00:00
FILE "19 Disco Duck (Part 1).wav" WAVE
TRACK 19 AUDIO
TITLE "Disco Duck (Part 1)"
PERFORMER "Rick Dees & His Cast Of Idiots"
INDEX 01 00:00:00
FILE "20 Turn The Beat Around.wav" WAVE
TRACK 20 AUDIO
TITLE "Turn The Beat Around"
PERFORMER "Vickie Sue Robinson"
INDEX 01 00:00:00
FILE "21 Car Wash.wav" WAVE
TRACK 21 AUDIO
TITLE "Car Wash"
PERFORMER "Rose Royce"
INDEX 01 00:00:00
FILE "22 More, More, More (Pt 1).wav" WAVE
TRACK 22 AUDIO
TITLE "More, More, More (Pt 1)"
PERFORMER "Andrea True Connection"
INDEX 01 00:00:00
FILE "23 You Are The Woman.wav" WAVE
TRACK 23 AUDIO
TITLE "You Are The Woman"
PERFORMER "Firefall"
INDEX 01 00:00:00
FILE "24 Fly Like An Eagle.wav" WAVE
TRACK 24 AUDIO
TITLE "Fly Like An Eagle"
PERFORMER "Steve Miller"
INDEX 01 00:00:00
 
CD 7
Продолжительность: 77 min 44 sec
01 Peter Frampton - Do You Feel Like We Do? (Live) [07:46]
02 Lynyrd Skynyrd - Free Bird (Live) [04:57]
03 REO Speedwagon - Ridin' The Storm Out (Live) [03:05]
04 Meco - Star Wars Theme/Cantina Band [03:59]
05 The Trammps - Disco Inferno [03:35]
06 The Commodores - Brick House [03:58]
07 Marvin Gaye - Got To Give It Up (Part 1) [04:12]
08 Foreigner - Feels Like The First Time [03:22]
09 David Soul - Don't Give Up On Us [03:37]
10 Dan Hill - Sometimes When We Touch [03:32]
11 Stevie Wonder - Sir Duke [03:55]
12 Gloria Gaynor - I Will Survive [03:34]
13 Alicia Bridges - I Love The Nightlife (Disco 'Round) [03:01]
14 The Little River Band - Happy Anniversary [03:39]
15 Eddie Money - Baby Hold On [03:04]
16 Warren Zevon - Werewolves Of London [03:27]
17 Exile - Kiss You All Over [03:31]
18 Chic - I Want Your Love [03:32]
19 Sister Sledge - We Are Family [04:07]
20 McFadden & Whitehead - Ain't No Stoppin' Us Now [03:41]
 
Log EAC
EAC extraction logfile from 26. May 2007, 2:44 for CD
Various / Have A Nice Decade: The '70s Pop Culture Box
Used drive : HL-DT-STDVD-ROM GDR8163B Adapter: 1 ID: 1
Read mode : Secure with NO C2, accurate stream, disable cache
Read offset correction : 102
Overread into Lead-In and Lead-Out : No
Used output format : F:\Program Files\FLAC\flac.exe (User Defined Encoder)
32 kBit/s
Additional command line options : -V -8 -T "artist=%a" -T "title=%t" -T "album=%g" -T "date=%y" -T "tracknumber=%n" -T "genre=%m" %s
Other options :
Fill up missing offset samples with silence : Yes
Delete leading and trailing silent blocks : No
Installed external ASPI interface
Track 1
Filename C:\Have A Nice Decade The 70's Pop Culture Box (98)\01 Do You Feel Like We Do.wav
Pre-gap length 0:00:02.32
Peak level 99.8 %
Track quality 100.0 %
Test CRC E721F0E3
Copy CRC E721F0E3
Copy OK
Track 2
Filename C:\Have A Nice Decade The 70's Pop Culture Box (98)\02 Free Bird (Live Version).wav
Peak level 99.8 %
Track quality 100.0 %
Test CRC 2FCF9319
Copy CRC 2FCF9319
Copy OK
Track 3
Filename C:\Have A Nice Decade The 70's Pop Culture Box (98)\03 Ridin' The Storm Out.wav
Peak level 99.8 %
Track quality 100.0 %
Test CRC 9E19E33F
Copy CRC 9E19E33F
Copy OK
Track 4
Filename C:\Have A Nice Decade The 70's Pop Culture Box (98)\04 Star Wars Theme-Cantina Band.wav
Peak level 99.8 %
Track quality 100.0 %
Test CRC 51A1E020
Copy CRC 51A1E020
Copy OK
Track 5
Filename C:\Have A Nice Decade The 70's Pop Culture Box (98)\05 Disco Inferno.wav
Peak level 99.8 %
Track quality 100.0 %
Test CRC 783B4921
Copy CRC 783B4921
Copy OK
Track 6
Filename C:\Have A Nice Decade The 70's Pop Culture Box (98)\06 Brick House.wav
Peak level 99.8 %
Track quality 99.9 %
Test CRC BF156905
Copy CRC BF156905
Copy OK
Track 7
Filename C:\Have A Nice Decade The 70's Pop Culture Box (98)\07 Got To Give It Up (Part 1).wav
Peak level 96.2 %
Track quality 100.0 %
Test CRC 6CDF7B2E
Copy CRC 6CDF7B2E
Copy OK
Track 8
Filename C:\Have A Nice Decade The 70's Pop Culture Box (98)\08 Feels Like The First Time.wav
Peak level 99.5 %
Track quality 100.0 %
Test CRC 01E94757
Copy CRC 01E94757
Copy OK
Track 9
Filename C:\Have A Nice Decade The 70's Pop Culture Box (98)\09 Don't Give Up On Us.wav
Peak level 92.8 %
Track quality 100.0 %
Test CRC B8C0CB9E
Copy CRC B8C0CB9E
Copy OK
Track 10
Filename C:\Have A Nice Decade The 70's Pop Culture Box (98)\10 Sometimes When We Touch.wav
Peak level 99.8 %
Track quality 100.0 %
Test CRC 2A49CCA6
Copy CRC 2A49CCA6
Copy OK
Track 11
Filename C:\Have A Nice Decade The 70's Pop Culture Box (98)\11 Sir Duke.wav
Peak level 98.6 %
Track quality 100.0 %
Test CRC 0E2D9A4F
Copy CRC 0E2D9A4F
Copy OK
Track 12
Filename C:\Have A Nice Decade The 70's Pop Culture Box (98)\12 I Will Survive.wav
Peak level 99.8 %
Track quality 100.0 %
Test CRC 946EE2B1
Copy CRC 946EE2B1
Copy OK
Track 13
Filename C:\Have A Nice Decade The 70's Pop Culture Box (98)\13 I Love The Nightlife (Disco 'Round).wav
Peak level 99.8 %
Track quality 100.0 %
Test CRC 7C02F827
Copy CRC 7C02F827
Copy OK
Track 14
Filename C:\Have A Nice Decade The 70's Pop Culture Box (98)\14 Happy Anniversary.wav
Peak level 99.8 %
Track quality 100.0 %
Test CRC 138363B2
Copy CRC 138363B2
Copy OK
Track 15
Filename C:\Have A Nice Decade The 70's Pop Culture Box (98)\15 Baby Hold On.wav
Peak level 99.8 %
Track quality 100.0 %
Test CRC 5311F5E0
Copy CRC 5311F5E0
Copy OK
Track 16
Filename C:\Have A Nice Decade The 70's Pop Culture Box (98)\16 Werewolves Of London.wav
Peak level 99.8 %
Track quality 100.0 %
Test CRC A36D7CA5
Copy CRC A36D7CA5
Copy OK
Track 17
Filename C:\Have A Nice Decade The 70's Pop Culture Box (98)\17 Kiss You All Over.wav
Peak level 100.0 %
Track quality 100.0 %
Test CRC 79EC6604
Copy CRC 79EC6604
Copy OK
Track 18
Filename C:\Have A Nice Decade The 70's Pop Culture Box (98)\18 I Want Your Love.wav
Peak level 99.8 %
Track quality 100.0 %
Test CRC 5703017F
Copy CRC 5703017F
Copy OK
Track 19
Filename C:\Have A Nice Decade The 70's Pop Culture Box (98)\19 We Are Family.wav
Peak level 99.8 %
Track quality 100.0 %
Test CRC BBE00FFB
Copy CRC BBE00FFB
Copy OK
Track 20
Filename C:\Have A Nice Decade The 70's Pop Culture Box (98)\20 Ain't No Stoppin' Us Now.wav
Peak level 99.8 %
Track quality 100.0 %
Test CRC B7AE9BFA
Copy CRC B7AE9BFA
Copy OK
No errors occured
End of status report
 
CUE
PERFORMER "Various"
TITLE "Have A Nice Decade The '70s Pop Culture Box 7"
FILE "01 Do You Feel Like We Do.wav" WAVE
TRACK 01 AUDIO
TITLE "Do You Feel Like We Do"
PERFORMER "Peter Frampton"
INDEX 01 00:00:00
FILE "02 Free Bird (Live Version).wav" WAVE
TRACK 02 AUDIO
TITLE "Free Bird (Live Version)"
PERFORMER "Lynyrd Skynyrd"
INDEX 01 00:00:00
FILE "03 Ridin' The Storm Out.wav" WAVE
TRACK 03 AUDIO
TITLE "Ridin' The Storm Out"
PERFORMER "REO Speedwagon"
INDEX 01 00:00:00
FILE "04 Star Wars Theme-Cantina Band.wav" WAVE
TRACK 04 AUDIO
TITLE "Star Wars Theme-Cantina Band"
PERFORMER "Meco"
INDEX 01 00:00:00
FILE "05 Disco Inferno.wav" WAVE
TRACK 05 AUDIO
TITLE "Disco Inferno"
PERFORMER "The Trammps"
INDEX 01 00:00:00
FILE "06 Brick House.wav" WAVE
TRACK 06 AUDIO
TITLE "Brick House"
PERFORMER "Commodores"
INDEX 01 00:00:00
FILE "07 Got To Give It Up (Part 1).wav" WAVE
TRACK 07 AUDIO
TITLE "Got To Give It Up (Part 1)"
PERFORMER "Marvin Gaye"
INDEX 01 00:00:00
FILE "08 Feels Like The First Time.wav" WAVE
TRACK 08 AUDIO
TITLE "Feels Like The First Time"
PERFORMER "Foreigner"
INDEX 01 00:00:00
FILE "09 Don't Give Up On Us.wav" WAVE
TRACK 09 AUDIO
TITLE "Don't Give Up On Us"
PERFORMER "David Soul"
INDEX 01 00:00:00
FILE "10 Sometimes When We Touch.wav" WAVE
TRACK 10 AUDIO
TITLE "Sometimes When We Touch"
PERFORMER "Dan Hill"
INDEX 01 00:00:00
FILE "11 Sir Duke.wav" WAVE
TRACK 11 AUDIO
TITLE "Sir Duke"
PERFORMER "Stevie Wonder"
INDEX 01 00:00:00
FILE "12 I Will Survive.wav" WAVE
TRACK 12 AUDIO
TITLE "I Will Survive"
PERFORMER "Gloria Gaynor"
INDEX 01 00:00:00
FILE "13 I Love The Nightlife (Disco 'Round).wav" WAVE
TRACK 13 AUDIO
TITLE "I Love The Nightlife (Disco 'Round)"
PERFORMER "Alicia Bridges"
INDEX 01 00:00:00
FILE "14 Happy Anniversary.wav" WAVE
TRACK 14 AUDIO
TITLE "Happy Anniversary"
PERFORMER "Little River Band"
INDEX 01 00:00:00
FILE "15 Baby Hold On.wav" WAVE
TRACK 15 AUDIO
TITLE "Baby Hold On"
PERFORMER "Eddie Money"
INDEX 01 00:00:00
FILE "16 Werewolves Of London.wav" WAVE
TRACK 16 AUDIO
TITLE "Werewolves Of London"
PERFORMER "Warren Zevon"
INDEX 01 00:00:00
FILE "17 Kiss You All Over.wav" WAVE
TRACK 17 AUDIO
TITLE "Kiss You All Over"
PERFORMER "Exile"
INDEX 01 00:00:00
FILE "18 I Want Your Love.wav" WAVE
TRACK 18 AUDIO
TITLE "I Want Your Love"
PERFORMER "Chic"
INDEX 01 00:00:00
FILE "19 We Are Family.wav" WAVE
TRACK 19 AUDIO
TITLE "We Are Family"
PERFORMER "Sister Sledge"
INDEX 01 00:00:00
FILE "20 Ain't No Stoppin' Us Now.wav" WAVE
TRACK 20 AUDIO
TITLE "Ain't No Stoppin' Us Now"
PERFORMER "McFadden & Whitehead"
INDEX 01 00:00:00
Приватный:
Нет (DHT включён)
Размер:
3.42 Гб (3,671,346,453 байт) » файлов: 176
Участники:
0 раздают, 0 качают (0 участников всего)
Внешние участники:
9 раздают, 3 качают (12 участников всего) [ Обновить ]
Никого нет на раздаче - пишите личное сообщение M0p94ok
No seeders - write personal message to M0p94ok
04:06
23
Нет комментариев. Ваш будет первым!