Поиск

(Funk, Soul) VA - The Motown Story 25 Years Of Great Original Hits [RDCD 231-236] - 1991, FLAC (tracks+.cue), lossless

Треклист:
Various Artists - The Motown Story 25 Years Of Great Original Hits

Жанр: Funk, Soul
Год выпуска диска: 1991
Производитель диска: UK \ Reader's Digest
Аудио кодек: FLAC
Тип рипа: tracks+.cue
Битрейт аудио: lossless
Продолжительность: 06:00:45
Источник: what.cd
 
CD 1
Продолжительность: 45 min 46 sec
01 Diana Ross And The Supremes - Where Did Our Love Go? [02:31]
02 The Marvelettes - Please Mr. Postman [02:28]
03 Mary Wells - My Guy [02:50]
04 Stevie Wonder - Yester-Me, Yester-You, Yester-Day [03:05]
05 Diana Ross And The Supremes - You Keep Me Hangin' On [02:43]
06 The Four Tops - Standing In The Shadows Of Love [02:36]
07 Martha Reeves And The Vandellas - Dancing In The Street [02:40]
08 Jr Walker And The All Stars - (I'm A) Road Runner [02:49]
09 Jimmy Ruffin - I'll Say Forever My Love [02:59]
10 Diana Ross And Marvin Gaye - Stop, Look, Listern (To Your Heart) [02:55]
11 Gladys Knight And The Pips - The Look Of Love [03:59]
12 Marvin Gaye - Abraham, Martin And John [04:18]
13 Diana Ross - All Of My LIfe [03:05]
14 Stevie Wonder - A Place In The Sun [02:49]
15 The Jackson Five - I'll Be There [03:52]
 
Log EAC
Exact Audio Copy V0.99 prebeta 4 from 23. January 2008
EAC extraction logfile from 15. March 2009, 21:55
Various 1961 - 1974 / The Motown Story - 25 Years Of Great Original Hits (CD01)
Used drive : PLEXTOR CD-R PREMIUM2 Adapter: 5 ID: 0
Read mode : Secure
Utilize accurate stream : Yes
Defeat audio cache : Yes
Make use of C2 pointers : No
Read offset correction : 30
Overread into Lead-In and Lead-Out : Yes
Fill up missing offset samples with silence : Yes
Delete leading and trailing silent blocks : No
Null samples used in CRC calculations : Yes
Used interface : Native Win32 interface for Win NT & 2000
Gap handling : Appended to previous track
Used output format : User Defined Encoder
Selected bitrate : 1024 kBit/s
Quality : High
Add ID3 tag : No
Command line compressor : C:\Program Files\Exact Audio Copy\FLAC\FLAC.EXE
Additional command line options : -V -8 -T "artist=%a" -T "title=%t" -T "album=%g" -T "date=%y" -T "tracknumber=%n" -T "genre=%m" %s
TOC of the extracted CD
Track | Start | Length | Start sector | End sector
---------------------------------------------------------
1 | 0:00.33 | 2:31.70 | 33 | 11427
2 | 2:32.28 | 2:28.32 | 11428 | 22559
3 | 5:00.60 | 2:50.45 | 22560 | 35354
4 | 7:51.30 | 3:05.70 | 35355 | 49299
5 | 10:57.25 | 2:43.03 | 49300 | 61527
6 | 13:40.28 | 2:36.65 | 61528 | 73292
7 | 16:17.18 | 2:40.10 | 73293 | 85302
8 | 18:57.28 | 2:49.10 | 85303 | 97987
9 | 21:46.38 | 2:59.47 | 97988 | 111459
10 | 24:46.10 | 2:55.45 | 111460 | 124629
11 | 27:41.55 | 3:59.15 | 124630 | 142569
12 | 31:40.70 | 4:18.28 | 142570 | 161947
13 | 35:59.23 | 3:05.30 | 161948 | 175852
14 | 39:04.53 | 2:49.15 | 175853 | 188542
15 | 41:53.68 | 3:52.57 | 188543 | 205999
Track 1
Filename C:\EAC Rips\VA - The Motown Story 25 Years Of Great Original Hits (1991) [FLAC]\CD01\01 - Diana Ross And The Supremes - Where Did Our Love Go .wav
Pre-gap length 0:00:02.33
Peak level 65.2 %
Track quality 100.0 %
Test CRC 4F6B47C5
Copy CRC 4F6B47C5
Track not present in AccurateRip database
Copy OK
Track 2
Filename C:\EAC Rips\VA - The Motown Story 25 Years Of Great Original Hits (1991) [FLAC]\CD01\02 - The Marvelettes - Please Mr. Postman.wav
Pre-gap length 0:00:01.33
Peak level 88.5 %
Track quality 100.0 %
Test CRC B924D5AC
Copy CRC B924D5AC
Track not present in AccurateRip database
Copy OK
Track 3
Filename C:\EAC Rips\VA - The Motown Story 25 Years Of Great Original Hits (1991) [FLAC]\CD01\03 - Mary Wells - My Guy.wav
Pre-gap length 0:00:01.30
Peak level 80.8 %
Track quality 100.0 %
Test CRC FD997766
Copy CRC FD997766
Track not present in AccurateRip database
Copy OK
Track 4
Filename C:\EAC Rips\VA - The Motown Story 25 Years Of Great Original Hits (1991) [FLAC]\CD01\04 - Stevie Wonder - Yester-Me, Yester-You, Yester-Day.wav
Pre-gap length 0:00:02.40
Peak level 77.3 %
Track quality 100.0 %
Test CRC D665DCE9
Copy CRC D665DCE9
Track not present in AccurateRip database
Copy OK
Track 5
Filename C:\EAC Rips\VA - The Motown Story 25 Years Of Great Original Hits (1991) [FLAC]\CD01\05 - Diana Ross And The Supremes - You Keep Me Hangin' On.wav
Pre-gap length 0:00:02.25
Peak level 74.1 %
Track quality 100.0 %
Test CRC 6C798204
Copy CRC 6C798204
Track not present in AccurateRip database
Copy OK
Track 6
Filename C:\EAC Rips\VA - The Motown Story 25 Years Of Great Original Hits (1991) [FLAC]\CD01\06 - The Four Tops - Standing In The Shadows Of Love.wav
Pre-gap length 0:00:01.60
Peak level 79.4 %
Track quality 100.0 %
Test CRC FFF8277E
Copy CRC FFF8277E
Track not present in AccurateRip database
Copy OK
Track 7
Filename C:\EAC Rips\VA - The Motown Story 25 Years Of Great Original Hits (1991) [FLAC]\CD01\07 - Martha Reeves And The Vandellas - Dancing In The Street.wav
Pre-gap length 0:00:02.35
Peak level 78.4 %
Track quality 100.0 %
Test CRC 6553E6BD
Copy CRC 6553E6BD
Track not present in AccurateRip database
Copy OK
Track 8
Filename C:\EAC Rips\VA - The Motown Story 25 Years Of Great Original Hits (1991) [FLAC]\CD01\08 - Jr Walker And The All Stars - (I'm A) Road Runner.wav
Pre-gap length 0:00:02.10
Peak level 87.0 %
Track quality 100.0 %
Test CRC 8FF260AE
Copy CRC 8FF260AE
Track not present in AccurateRip database
Copy OK
Track 9
Filename C:\EAC Rips\VA - The Motown Story 25 Years Of Great Original Hits (1991) [FLAC]\CD01\09 - Jimmy Ruffin - I'll Say Forever My Love.wav
Pre-gap length 0:00:03.00
Peak level 91.6 %
Track quality 100.0 %
Test CRC 898BA474
Copy CRC 898BA474
Track not present in AccurateRip database
Copy OK
Track 10
Filename C:\EAC Rips\VA - The Motown Story 25 Years Of Great Original Hits (1991) [FLAC]\CD01\10 - Diana Ross And Marvin Gaye - Stop, Look, Listern (To Your Heart).wav
Pre-gap length 0:00:02.22
Peak level 81.6 %
Track quality 99.8 %
Test CRC EE09DA3A
Copy CRC EE09DA3A
Track not present in AccurateRip database
Copy OK
Track 11
Filename C:\EAC Rips\VA - The Motown Story 25 Years Of Great Original Hits (1991) [FLAC]\CD01\11 - Gladys Knight And The Pips - The Look Of Love.wav
Pre-gap length 0:00:02.50
Peak level 71.1 %
Track quality 100.0 %
Test CRC 6F4D30B6
Copy CRC 6F4D30B6
Track not present in AccurateRip database
Copy OK
Track 12
Filename C:\EAC Rips\VA - The Motown Story 25 Years Of Great Original Hits (1991) [FLAC]\CD01\12 - Marvin Gaye - Abraham, Martin And John.wav
Pre-gap length 0:00:02.00
Peak level 51.2 %
Track quality 100.0 %
Test CRC 35DC9998
Copy CRC 35DC9998
Track not present in AccurateRip database
Copy OK
Track 13
Filename C:\EAC Rips\VA - The Motown Story 25 Years Of Great Original Hits (1991) [FLAC]\CD01\13 - Diana Ross - All Of My LIfe.wav
Pre-gap length 0:00:02.40
Peak level 74.0 %
Track quality 100.0 %
Test CRC 376F27E8
Copy CRC 376F27E8
Track not present in AccurateRip database
Copy OK
Track 14
Filename C:\EAC Rips\VA - The Motown Story 25 Years Of Great Original Hits (1991) [FLAC]\CD01\14 - Stevie Wonder - A Place In The Sun.wav
Pre-gap length 0:00:02.15
Peak level 72.4 %
Track quality 100.0 %
Test CRC 5147A6A5
Copy CRC 5147A6A5
Track not present in AccurateRip database
Copy OK
Track 15
Filename C:\EAC Rips\VA - The Motown Story 25 Years Of Great Original Hits (1991) [FLAC]\CD01\15 - The Jackson Five - I'll Be There.wav
Pre-gap length 0:00:02.00
Peak level 60.6 %
Track quality 100.0 %
Test CRC ECCB1E8F
Copy CRC ECCB1E8F
Track not present in AccurateRip database
Copy OK
None of the tracks are present in the AccurateRip database
No errors occurred
End of status report
 
CUE
REM GENRE Soul
REM DATE 1991
REM DISCID C90ABA0F
REM COMMENT "ExactAudioCopy v0.99pb4"
PERFORMER "Various 1961 - 1974"
TITLE "The Motown Story - 25 Years Of Great Original Hits (CD01)"
FILE "01 - Diana Ross And The Supremes - Where Did Our Love Go .wav" WAVE
TRACK 01 AUDIO
TITLE "Where Did Our Love Go?"
PERFORMER "Diana Ross And The Supremes"
PREGAP 00:00:33
INDEX 01 00:00:00
TRACK 02 AUDIO
TITLE "Please Mr. Postman"
PERFORMER "The Marvelettes"
INDEX 00 02:30:37
FILE "02 - The Marvelettes - Please Mr. Postman.wav" WAVE
INDEX 01 00:00:00
TRACK 03 AUDIO
TITLE "My Guy"
PERFORMER "Mary Wells"
INDEX 00 02:27:02
FILE "03 - Mary Wells - My Guy.wav" WAVE
INDEX 01 00:00:00
TRACK 04 AUDIO
TITLE "Yester-Me, Yester-You, Yester-Day"
PERFORMER "Stevie Wonder"
INDEX 00 02:48:05
FILE "04 - Stevie Wonder - Yester-Me, Yester-You, Yester-Day.wav" WAVE
INDEX 01 00:00:00
TRACK 05 AUDIO
TITLE "You Keep Me Hangin' On"
PERFORMER "Diana Ross And The Supremes"
INDEX 00 03:03:45
FILE "05 - Diana Ross And The Supremes - You Keep Me Hangin' On.wav" WAVE
INDEX 01 00:00:00
TRACK 06 AUDIO
TITLE "Standing In The Shadows Of Love"
PERFORMER "The Four Tops"
INDEX 00 02:41:18
FILE "06 - The Four Tops - Standing In The Shadows Of Love.wav" WAVE
INDEX 01 00:00:00
TRACK 07 AUDIO
TITLE "Dancing In The Street"
PERFORMER "Martha Reeves And The Vandellas"
INDEX 00 02:34:30
FILE "07 - Martha Reeves And The Vandellas - Dancing In The Street.wav" WAVE
INDEX 01 00:00:00
TRACK 08 AUDIO
TITLE "(I'm A) Road Runner"
PERFORMER "Jr Walker And The All Stars"
INDEX 00 02:38:00
FILE "08 - Jr Walker And The All Stars - (I'm A) Road Runner.wav" WAVE
INDEX 01 00:00:00
TRACK 09 AUDIO
TITLE "I'll Say Forever My Love"
PERFORMER "Jimmy Ruffin"
INDEX 00 02:46:10
FILE "09 - Jimmy Ruffin - I'll Say Forever My Love.wav" WAVE
INDEX 01 00:00:00
TRACK 10 AUDIO
TITLE "Stop, Look, Listern (To Your Heart)"
PERFORMER "Diana Ross And Marvin Gaye"
INDEX 00 02:57:25
FILE "10 - Diana Ross And Marvin Gaye - Stop, Look, Listern (To Your Heart).wav" WAVE
INDEX 01 00:00:00
TRACK 11 AUDIO
TITLE "The Look Of Love"
PERFORMER "Gladys Knight And The Pips"
INDEX 00 02:52:70
FILE "11 - Gladys Knight And The Pips - The Look Of Love.wav" WAVE
INDEX 01 00:00:00
TRACK 12 AUDIO
TITLE "Abraham, Martin And John"
PERFORMER "Marvin Gaye"
INDEX 00 03:57:15
FILE "12 - Marvin Gaye - Abraham, Martin And John.wav" WAVE
INDEX 01 00:00:00
TRACK 13 AUDIO
TITLE "All Of My LIfe"
PERFORMER "Diana Ross"
INDEX 00 04:15:63
FILE "13 - Diana Ross - All Of My LIfe.wav" WAVE
INDEX 01 00:00:00
TRACK 14 AUDIO
TITLE "A Place In The Sun"
PERFORMER "Stevie Wonder"
INDEX 00 03:03:15
FILE "14 - Stevie Wonder - A Place In The Sun.wav" WAVE
INDEX 01 00:00:00
TRACK 15 AUDIO
TITLE "I'll Be There"
PERFORMER "The Jackson Five"
INDEX 00 02:47:15
FILE "15 - The Jackson Five - I'll Be There.wav" WAVE
INDEX 01 00:00:00
 
CD 2
Продолжительность: 46 min 51 sec
01 Diana Ross - Upside Down [03:39]
02 The Miracles - Love Machine (Part 1) [02:55]
03 Jermaine Jackson - Let's Get Serious [03:33]
04 Billy Preston And Syreeta - With You I'm Born Again [03:40]
05 The Commodores - Easy [04:10]
06 The Temptations - Treat Her Like A Lady [04:03]
07 Diana Ross - My Old Piano [03:55]
08 Syreeta - Your Kiss Is Sweet [03:54]
09 Diana Ross And Lionel Richie - Endless Love [04:28]
10 The Commodores - Nightshift [04:20]
11 Marvin Gaye - Got To Give It Up (Part 1) [04:11]
12 Teena Marie - Behind The Groove [03:59]
 
Log EAC
Exact Audio Copy V0.99 prebeta 4 from 23. January 2008
EAC extraction logfile from 15. March 2009, 22:23
Various / The Motown Story - 25 Years Of Great Orignial Hits (CD02)
Used drive : PLEXTOR CD-R PREMIUM2 Adapter: 5 ID: 0
Read mode : Secure
Utilize accurate stream : Yes
Defeat audio cache : Yes
Make use of C2 pointers : No
Read offset correction : 30
Overread into Lead-In and Lead-Out : Yes
Fill up missing offset samples with silence : Yes
Delete leading and trailing silent blocks : No
Null samples used in CRC calculations : Yes
Used interface : Native Win32 interface for Win NT & 2000
Gap handling : Appended to previous track
Used output format : User Defined Encoder
Selected bitrate : 1024 kBit/s
Quality : High
Add ID3 tag : No
Command line compressor : C:\Program Files\Exact Audio Copy\FLAC\FLAC.EXE
Additional command line options : -V -8 -T "artist=%a" -T "title=%t" -T "album=%g" -T "date=%y" -T "tracknumber=%n" -T "genre=%m" %s
TOC of the extracted CD
Track | Start | Length | Start sector | End sector
---------------------------------------------------------
1 | 0:00.32 | 3:39.38 | 32 | 16494
2 | 3:39.70 | 2:55.62 | 16495 | 29681
3 | 6:35.57 | 3:33.10 | 29682 | 45666
4 | 10:08.67 | 3:40.00 | 45667 | 62166
5 | 13:48.67 | 4:10.68 | 62167 | 80984
6 | 17:59.60 | 4:03.02 | 80985 | 99211
7 | 22:02.62 | 3:55.00 | 99212 | 116836
8 | 25:57.62 | 3:54.35 | 116837 | 134421
9 | 29:52.22 | 4:28.23 | 134422 | 154544
10 | 34:20.45 | 4:20.50 | 154545 | 174094
11 | 38:41.20 | 4:11.10 | 174095 | 192929
12 | 42:52.30 | 3:59.32 | 192930 | 210886
Track 1
Filename C:\EAC Rips\VA - The Motown Story 25 Years Of Great Original Hits (1991) [FLAC]\CD02\01 - Diana Ross - Upside Down.wav
Pre-gap length 0:00:02.32
Peak level 81.4 %
Track quality 100.0 %
Test CRC 8F5860D5
Copy CRC 8F5860D5
Track not present in AccurateRip database
Copy OK
Track 2
Filename C:\EAC Rips\VA - The Motown Story 25 Years Of Great Original Hits (1991) [FLAC]\CD02\02 - The Miracles - Love Machine (Part 1).wav
Pre-gap length 0:00:01.65
Peak level 95.1 %
Track quality 100.0 %
Test CRC D70EEBF5
Copy CRC D70EEBF5
Track not present in AccurateRip database
Copy OK
Track 3
Filename C:\EAC Rips\VA - The Motown Story 25 Years Of Great Original Hits (1991) [FLAC]\CD02\03 - Jermaine Jackson - Let's Get Serious.wav
Pre-gap length 0:00:02.02
Peak level 92.7 %
Track quality 100.0 %
Test CRC F987438C
Copy CRC F987438C
Track not present in AccurateRip database
Copy OK
Track 4
Filename C:\EAC Rips\VA - The Motown Story 25 Years Of Great Original Hits (1991) [FLAC]\CD02\04 - Billy Preston And Syreeta - With You I'm Born Again.wav
Pre-gap length 0:00:01.50
Peak level 76.1 %
Track quality 100.0 %
Test CRC 27CA75F3
Copy CRC 27CA75F3
Track not present in AccurateRip database
Copy OK
Track 5
Filename C:\EAC Rips\VA - The Motown Story 25 Years Of Great Original Hits (1991) [FLAC]\CD02\05 - The Commodores - Easy.wav
Pre-gap length 0:00:02.02
Peak level 70.0 %
Track quality 100.0 %
Test CRC F633C784
Copy CRC F633C784
Track not present in AccurateRip database
Copy OK
Track 6
Filename C:\EAC Rips\VA - The Motown Story 25 Years Of Great Original Hits (1991) [FLAC]\CD02\06 - The Temptations - Treat Her Like A Lady.wav
Pre-gap length 0:00:02.30
Peak level 76.5 %
Track quality 100.0 %
Test CRC 91462566
Copy CRC 91462566
Track not present in AccurateRip database
Copy OK
Track 7
Filename C:\EAC Rips\VA - The Motown Story 25 Years Of Great Original Hits (1991) [FLAC]\CD02\07 - Diana Ross - My Old Piano.wav
Pre-gap length 0:00:02.37
Peak level 89.3 %
Track quality 100.0 %
Test CRC 909826AE
Copy CRC 909826AE
Track not present in AccurateRip database
Copy OK
Track 8
Filename C:\EAC Rips\VA - The Motown Story 25 Years Of Great Original Hits (1991) [FLAC]\CD02\08 - Syreeta - Your Kiss Is Sweet.wav
Pre-gap length 0:00:02.27
Peak level 71.4 %
Track quality 100.0 %
Test CRC 338D63C7
Copy CRC 338D63C7
Track not present in AccurateRip database
Copy OK
Track 9
Filename C:\EAC Rips\VA - The Motown Story 25 Years Of Great Original Hits (1991) [FLAC]\CD02\09 - Diana Ross And Lionel Richie - Endless Love.wav
Pre-gap length 0:00:02.25
Peak level 65.6 %
Track quality 100.0 %
Test CRC AE2170E8
Copy CRC AE2170E8
Track not present in AccurateRip database
Copy OK
Track 10
Filename C:\EAC Rips\VA - The Motown Story 25 Years Of Great Original Hits (1991) [FLAC]\CD02\10 - The Commodores - Nightshift.wav
Pre-gap length 0:00:01.55
Peak level 89.7 %
Track quality 100.0 %
Test CRC 0B136E48
Copy CRC 0B136E48
Track not present in AccurateRip database
Copy OK
Track 11
Filename C:\EAC Rips\VA - The Motown Story 25 Years Of Great Original Hits (1991) [FLAC]\CD02\11 - Marvin Gaye - Got To Give It Up (Part 1).wav
Pre-gap length 0:00:03.03
Peak level 94.4 %
Track quality 100.0 %
Test CRC B9F9A2ED
Copy CRC B9F9A2ED
Track not present in AccurateRip database
Copy OK
Track 12
Filename C:\EAC Rips\VA - The Motown Story 25 Years Of Great Original Hits (1991) [FLAC]\CD02\12 - Teena Marie - Behind The Groove.wav
Pre-gap length 0:00:01.43
Peak level 79.0 %
Track quality 100.0 %
Test CRC 0D08E1FA
Copy CRC 0D08E1FA
Track not present in AccurateRip database
Copy OK
None of the tracks are present in the AccurateRip database
No errors occurred
End of status report
 
CUE
REM GENRE Soul
REM DATE 1991
REM DISCID 8F0AFB0C
REM COMMENT "ExactAudioCopy v0.99pb4"
PERFORMER "Various"
TITLE "The Motown Story - 25 Years Of Great Orignial Hits (CD02)"
FILE "01 - Diana Ross - Upside Down.wav" WAVE
TRACK 01 AUDIO
TITLE "Upside Down"
PERFORMER "Diana Ross"
PREGAP 00:00:32
INDEX 01 00:00:00
TRACK 02 AUDIO
TITLE "Love Machine (Part 1)"
PERFORMER "The Miracles"
INDEX 00 03:37:48
FILE "02 - The Miracles - Love Machine (Part 1).wav" WAVE
INDEX 01 00:00:00
TRACK 03 AUDIO
TITLE "Let's Get Serious"
PERFORMER "Jermaine Jackson"
INDEX 00 02:53:60
FILE "03 - Jermaine Jackson - Let's Get Serious.wav" WAVE
INDEX 01 00:00:00
TRACK 04 AUDIO
TITLE "With You I'm Born Again"
PERFORMER "Billy Preston And Syreeta"
INDEX 00 03:31:35
FILE "04 - Billy Preston And Syreeta - With You I'm Born Again.wav" WAVE
INDEX 01 00:00:00
TRACK 05 AUDIO
TITLE "Easy"
PERFORMER "The Commodores"
INDEX 00 03:37:73
FILE "05 - The Commodores - Easy.wav" WAVE
INDEX 01 00:00:00
TRACK 06 AUDIO
TITLE "Treat Her Like A Lady"
PERFORMER "The Temptations"
INDEX 00 04:08:38
FILE "06 - The Temptations - Treat Her Like A Lady.wav" WAVE
INDEX 01 00:00:00
TRACK 07 AUDIO
TITLE "My Old Piano"
PERFORMER "Diana Ross"
INDEX 00 04:00:40
FILE "07 - Diana Ross - My Old Piano.wav" WAVE
INDEX 01 00:00:00
TRACK 08 AUDIO
TITLE "Your Kiss Is Sweet"
PERFORMER "Syreeta"
INDEX 00 03:52:48
FILE "08 - Syreeta - Your Kiss Is Sweet.wav" WAVE
INDEX 01 00:00:00
TRACK 09 AUDIO
TITLE "Endless Love"
PERFORMER "Diana Ross And Lionel Richie"
INDEX 00 03:52:10
FILE "09 - Diana Ross And Lionel Richie - Endless Love.wav" WAVE
INDEX 01 00:00:00
TRACK 10 AUDIO
TITLE "Nightshift"
PERFORMER "The Commodores"
INDEX 00 04:26:43
FILE "10 - The Commodores - Nightshift.wav" WAVE
INDEX 01 00:00:00
TRACK 11 AUDIO
TITLE "Got To Give It Up (Part 1)"
PERFORMER "Marvin Gaye"
INDEX 00 04:17:47
FILE "11 - Marvin Gaye - Got To Give It Up (Part 1).wav" WAVE
INDEX 01 00:00:00
TRACK 12 AUDIO
TITLE "Behind The Groove"
PERFORMER "Teena Marie"
INDEX 00 04:09:42
FILE "12 - Teena Marie - Behind The Groove.wav" WAVE
INDEX 01 00:00:00
 
CD 3
Продолжительность: 68 min 28 sec
01 The Four Tops - Reach Out, I'll Be There [02:59]
02 Diana Ross And The Supremes - Baby Love [02:37]
03 The Temptations - My Girl [02:44]
04 Diana Ross And The Supremes - You Can't Hurry Love [02:45]
05 The Jackson Five - ABC [02:56]
06 Diana Ross - Ain't No Mountain High Enough [03:34]
07 The Temptations - Papa Was A Rolling Stone [06:56]
08 Marvin Gaye - What's Going On [04:00]
09 Diana Ross - Theme From 'Mahogany' ('Do You Know Where You're Going To') [03:24]
10 Smokey Robinson - Being With You [04:01]
11 The Commodores - Three Times A Lady [03:38]
12 Charlene - I've Never Been To Me [03:55]
13 Michael Jackson - One Day In Your Life [04:14]
14 Marvin Gaye - I Heard It Through The Grapevine [03:13]
15 The Four Tops - Bernadette [03:02]
16 Smokey Robinson And The Miracles - You've Really Got A Hold On Me [03:00]
17 The Temptations - Get Ready [02:36]
18 Stevie Wonder - Uptight (Everything's Alright) [02:55]
19 Martha Reeves And The Vandellas - Jimmy Mack [02:53]
20 Marvin Gaye And Kim Weston - It Takes Two [02:57]
 
Log EAC
Exact Audio Copy V0.99 prebeta 4 from 23. January 2008
EAC extraction logfile from 15. March 2009, 23:49
Various / The Motown Story - 25 Years Of Great Original Hits (CD03)
Used drive : PLEXTOR CD-R PREMIUM2 Adapter: 5 ID: 0
Read mode : Secure
Utilize accurate stream : Yes
Defeat audio cache : Yes
Make use of C2 pointers : No
Read offset correction : 30
Overread into Lead-In and Lead-Out : Yes
Fill up missing offset samples with silence : Yes
Delete leading and trailing silent blocks : No
Null samples used in CRC calculations : Yes
Used interface : Native Win32 interface for Win NT & 2000
Gap handling : Appended to previous track
Used output format : User Defined Encoder
Selected bitrate : 1024 kBit/s
Quality : High
Add ID3 tag : No
Command line compressor : C:\Program Files\Exact Audio Copy\FLAC\FLAC.EXE
Additional command line options : -V -8 -T "artist=%a" -T "title=%t" -T "album=%g" -T "date=%y" -T "tracknumber=%n" -T "genre=%m" %s
TOC of the extracted CD
Track | Start | Length | Start sector | End sector
---------------------------------------------------------
1 | 0:00.33 | 2:59.35 | 33 | 13492
2 | 2:59.68 | 2:37.07 | 13493 | 25274
3 | 5:37.00 | 2:44.30 | 25275 | 37604
4 | 8:21.30 | 2:45.73 | 37605 | 50052
5 | 11:07.28 | 2:56.25 | 50053 | 63277
6 | 14:03.53 | 3:34.57 | 63278 | 79384
7 | 17:38.35 | 6:56.65 | 79385 | 110649
8 | 24:35.25 | 4:00.05 | 110650 | 128654
9 | 28:35.30 | 3:24.63 | 128655 | 144017
10 | 32:00.18 | 4:01.02 | 144018 | 162094
11 | 36:01.20 | 3:38.70 | 162095 | 178514
12 | 39:40.15 | 3:55.08 | 178515 | 196147
13 | 43:35.23 | 4:14.07 | 196148 | 215204
14 | 47:49.30 | 3:13.43 | 215205 | 229722
15 | 51:02.73 | 3:02.20 | 229723 | 243392
16 | 54:05.18 | 3:00.20 | 243393 | 256912
17 | 57:05.38 | 2:36.02 | 256913 | 268614
18 | 59:41.40 | 2:55.53 | 268615 | 281792
19 | 62:37.18 | 2:53.60 | 281793 | 294827
20 | 65:31.03 | 2:57.57 | 294828 | 308159
Track 1
Filename C:\EAC Rips\VA - The Motown Story 25 Years Of Great Original Hits (1991) [FLAC]\CD03\01 - The Four Tops - Reach Out, I'll Be There.wav
Pre-gap length 0:00:02.33
Peak level 81.2 %
Track quality 99.8 %
Test CRC 9BD00D23
Copy CRC 9BD00D23
Track not present in AccurateRip database
Copy OK
Track 2
Filename C:\EAC Rips\VA - The Motown Story 25 Years Of Great Original Hits (1991) [FLAC]\CD03\02 - Diana Ross And The Supremes - Baby Love.wav
Pre-gap length 0:00:00.68
Peak level 77.3 %
Track quality 100.0 %
Test CRC 37E9634A
Copy CRC 37E9634A
Track not present in AccurateRip database
Copy OK
Track 3
Filename C:\EAC Rips\VA - The Motown Story 25 Years Of Great Original Hits (1991) [FLAC]\CD03\03 - The Temptations - My Girl.wav
Pre-gap length 0:00:01.42
Peak level 99.9 %
Track quality 100.0 %
Test CRC 8FFD2123
Copy CRC 8FFD2123
Track not present in AccurateRip database
Copy OK
Track 4
Filename C:\EAC Rips\VA - The Motown Story 25 Years Of Great Original Hits (1991) [FLAC]\CD03\04 - Diana Ross And The Supremes - You Can't Hurry Love.wav
Pre-gap length 0:00:02.12
Peak level 62.1 %
Track quality 100.0 %
Test CRC 74C59456
Copy CRC 74C59456
Track not present in AccurateRip database
Copy OK
Track 5
Filename C:\EAC Rips\VA - The Motown Story 25 Years Of Great Original Hits (1991) [FLAC]\CD03\05 - The Jackson Five - ABC.wav
Pre-gap length 0:00:01.60
Peak level 67.2 %
Track quality 100.0 %
Test CRC AD4B7823
Copy CRC AD4B7823
Track not present in AccurateRip database
Copy OK
Track 6
Filename C:\EAC Rips\VA - The Motown Story 25 Years Of Great Original Hits (1991) [FLAC]\CD03\06 - Diana Ross - Ain't No Mountain High Enough.wav
Pre-gap length 0:00:03.20
Peak level 60.4 %
Track quality 100.0 %
Test CRC CFC2580B
Copy CRC CFC2580B
Track not present in AccurateRip database
Copy OK
Track 7
Filename C:\EAC Rips\VA - The Motown Story 25 Years Of Great Original Hits (1991) [FLAC]\CD03\07 - The Temptations - Papa Was A Rolling Stone.wav
Pre-gap length 0:00:02.05
Peak level 71.1 %
Track quality 100.0 %
Test CRC E449DDF7
Copy CRC E449DDF7
Track not present in AccurateRip database
Copy OK
Track 8
Filename C:\EAC Rips\VA - The Motown Story 25 Years Of Great Original Hits (1991) [FLAC]\CD03\08 - Marvin Gaye - What's Going On.wav
Pre-gap length 0:00:02.72
Peak level 76.4 %
Track quality 100.0 %
Test CRC AC27AD2F
Copy CRC AC27AD2F
Track not present in AccurateRip database
Copy OK
Track 9
Filename C:\EAC Rips\VA - The Motown Story 25 Years Of Great Original Hits (1991) [FLAC]\CD03\09 - Diana Ross - Theme From 'Mahogany' ('Do You Know Where You're Going To').wav
Pre-gap length 0:00:02.00
Peak level 66.8 %
Track quality 100.0 %
Test CRC C70148F4
Copy CRC C70148F4
Track not present in AccurateRip database
Copy OK
Track 10
Filename C:\EAC Rips\VA - The Motown Story 25 Years Of Great Original Hits (1991) [FLAC]\CD03\10 - Smokey Robinson - Being With You.wav
Pre-gap length 0:00:02.43
Peak level 80.4 %
Track quality 100.0 %
Test CRC 8EF1C18B
Copy CRC 8EF1C18B
Track not present in AccurateRip database
Copy OK
Track 11
Filename C:\EAC Rips\VA - The Motown Story 25 Years Of Great Original Hits (1991) [FLAC]\CD03\11 - The Commodores - Three Times A Lady.wav
Pre-gap length 0:00:00.22
Peak level 65.6 %
Track quality 100.0 %
Test CRC A3DBE794
Copy CRC A3DBE794
Track not present in AccurateRip database
Copy OK
Track 12
Filename C:\EAC Rips\VA - The Motown Story 25 Years Of Great Original Hits (1991) [FLAC]\CD03\12 - Charlene - I've Never Been To Me.wav
Pre-gap length 0:00:02.57
Peak level 60.2 %
Track quality 100.0 %
Test CRC 7949AC6A
Copy CRC 7949AC6A
Track not present in AccurateRip database
Copy OK
Track 13
Filename C:\EAC Rips\VA - The Motown Story 25 Years Of Great Original Hits (1991) [FLAC]\CD03\13 - Michael Jackson - One Day In Your Life.wav
Pre-gap length 0:00:03.08
Peak level 69.7 %
Track quality 100.0 %
Test CRC FBA84231
Copy CRC FBA84231
Track not present in AccurateRip database
Copy OK
Track 14
Filename C:\EAC Rips\VA - The Motown Story 25 Years Of Great Original Hits (1991) [FLAC]\CD03\14 - Marvin Gaye - I Heard It Through The Grapevine.wav
Pre-gap length 0:00:02.12
Peak level 71.0 %
Track quality 100.0 %
Test CRC 21B9545A
Copy CRC 21B9545A
Track not present in AccurateRip database
Copy OK
Track 15
Filename C:\EAC Rips\VA - The Motown Story 25 Years Of Great Original Hits (1991) [FLAC]\CD03\15 - The Four Tops - Bernadette.wav
Pre-gap length 0:00:02.28
Peak level 64.5 %
Track quality 100.0 %
Test CRC 171454F0
Copy CRC 171454F0
Track not present in AccurateRip database
Copy OK
Track 16
Filename C:\EAC Rips\VA - The Motown Story 25 Years Of Great Original Hits (1991) [FLAC]\CD03\16 - Smokey Robinson And The Miracles - You've Really Got A Hold On Me.wav
Pre-gap length 0:00:02.58
Peak level 49.1 %
Track quality 100.0 %
Test CRC D8DE4F5C
Copy CRC D8DE4F5C
Track not present in AccurateRip database
Copy OK
Track 17
Filename C:\EAC Rips\VA - The Motown Story 25 Years Of Great Original Hits (1991) [FLAC]\CD03\17 - The Temptations - Get Ready.wav
Pre-gap length 0:00:02.58
Peak level 61.5 %
Track quality 100.0 %
Test CRC 085D7574
Copy CRC 085D7574
Track not present in AccurateRip database
Copy OK
Track 18
Filename C:\EAC Rips\VA - The Motown Story 25 Years Of Great Original Hits (1991) [FLAC]\CD03\18 - Stevie Wonder - Uptight (Everything's Alright).wav
Pre-gap length 0:00:02.32
Peak level 74.1 %
Track quality 100.0 %
Test CRC 217BEC0D
Copy CRC 217BEC0D
Track not present in AccurateRip database
Copy OK
Track 19
Filename C:\EAC Rips\VA - The Motown Story 25 Years Of Great Original Hits (1991) [FLAC]\CD03\19 - Martha Reeves And The Vandellas - Jimmy Mack.wav
Pre-gap length 0:00:02.25
Peak level 78.0 %
Track quality 100.0 %
Test CRC 3C2245EB
Copy CRC 3C2245EB
Track not present in AccurateRip database
Copy OK
Track 20
Filename C:\EAC Rips\VA - The Motown Story 25 Years Of Great Original Hits (1991) [FLAC]\CD03\20 - Marvin Gaye And Kim Weston - It Takes Two.wav
Pre-gap length 0:00:02.20
Peak level 58.1 %
Track quality 100.0 %
Test CRC B43028DC
Copy CRC B43028DC
Track not present in AccurateRip database
Copy OK
None of the tracks are present in the AccurateRip database
No errors occurred
End of status report
 
CUE
REM GENRE Soul
REM DATE 1991
REM DISCID 29100C14
REM COMMENT "ExactAudioCopy v0.99pb4"
PERFORMER "Various"
TITLE "The Motown Story - 25 Years Of Great Original Hits (CD03)"
FILE "01 - The Four Tops - Reach Out, I'll Be There.wav" WAVE
TRACK 01 AUDIO
TITLE "Reach Out, I'll Be There"
PERFORMER "The Four Tops"
PREGAP 00:00:33
INDEX 01 00:00:00
TRACK 02 AUDIO
TITLE "Baby Love"
PERFORMER "Diana Ross And The Supremes"
INDEX 00 02:58:42
FILE "02 - Diana Ross And The Supremes - Baby Love.wav" WAVE
INDEX 01 00:00:00
TRACK 03 AUDIO
TITLE "My Girl"
PERFORMER "The Temptations"
INDEX 00 02:35:40
FILE "03 - The Temptations - My Girl.wav" WAVE
INDEX 01 00:00:00
TRACK 04 AUDIO
TITLE "You Can't Hurry Love"
PERFORMER "Diana Ross And The Supremes"
INDEX 00 02:42:18
FILE "04 - Diana Ross And The Supremes - You Can't Hurry Love.wav" WAVE
INDEX 01 00:00:00
TRACK 05 AUDIO
TITLE "ABC"
PERFORMER "The Jackson Five"
INDEX 00 02:44:13
FILE "05 - The Jackson Five - ABC.wav" WAVE
INDEX 01 00:00:00
TRACK 06 AUDIO
TITLE "Ain't No Mountain High Enough"
PERFORMER "Diana Ross"
INDEX 00 02:53:05
FILE "06 - Diana Ross - Ain't No Mountain High Enough.wav" WAVE
INDEX 01 00:00:00
TRACK 07 AUDIO
TITLE "Papa Was A Rolling Stone"
PERFORMER "The Temptations"
INDEX 00 03:32:52
FILE "07 - The Temptations - Papa Was A Rolling Stone.wav" WAVE
INDEX 01 00:00:00
TRACK 08 AUDIO
TITLE "What's Going On"
PERFORMER "Marvin Gaye"
INDEX 00 06:53:68
FILE "08 - Marvin Gaye - What's Going On.wav" WAVE
INDEX 01 00:00:00
TRACK 09 AUDIO
TITLE "Theme From 'Mahogany' ('Do You Know Where You're Going To')"
PERFORMER "Diana Ross"
INDEX 00 03:58:05
FILE "09 - Diana Ross - Theme From 'Mahogany' ('Do You Know Where You're Going To').wav" WAVE
INDEX 01 00:00:00
TRACK 10 AUDIO
TITLE "Being With You"
PERFORMER "Smokey Robinson"
INDEX 00 03:22:20
FILE "10 - Smokey Robinson - Being With You.wav" WAVE
INDEX 01 00:00:00
TRACK 11 AUDIO
TITLE "Three Times A Lady"
PERFORMER "The Commodores"
INDEX 00 04:00:55
FILE "11 - The Commodores - Three Times A Lady.wav" WAVE
INDEX 01 00:00:00
TRACK 12 AUDIO
TITLE "I've Never Been To Me"
PERFORMER "Charlene"
INDEX 00 03:36:13
FILE "12 - Charlene - I've Never Been To Me.wav" WAVE
INDEX 01 00:00:00
TRACK 13 AUDIO
TITLE "One Day In Your Life"
PERFORMER "Michael Jackson"
INDEX 00 03:52:00
FILE "13 - Michael Jackson - One Day In Your Life.wav" WAVE
INDEX 01 00:00:00
TRACK 14 AUDIO
TITLE "I Heard It Through The Grapevine"
PERFORMER "Marvin Gaye"
INDEX 00 04:11:70
FILE "14 - Marvin Gaye - I Heard It Through The Grapevine.wav" WAVE
INDEX 01 00:00:00
TRACK 15 AUDIO
TITLE "Bernadette"
PERFORMER "The Four Tops"
INDEX 00 03:11:15
FILE "15 - The Four Tops - Bernadette.wav" WAVE
INDEX 01 00:00:00
TRACK 16 AUDIO
TITLE "You've Really Got A Hold On Me"
PERFORMER "Smokey Robinson And The Miracles"
INDEX 00 02:59:37
FILE "16 - Smokey Robinson And The Miracles - You've Really Got A Hold On Me.wav" WAVE
INDEX 01 00:00:00
TRACK 17 AUDIO
TITLE "Get Ready"
PERFORMER "The Temptations"
INDEX 00 02:57:37
FILE "17 - The Temptations - Get Ready.wav" WAVE
INDEX 01 00:00:00
TRACK 18 AUDIO
TITLE "Uptight (Everything's Alright)"
PERFORMER "Stevie Wonder"
INDEX 00 02:33:45
FILE "18 - Stevie Wonder - Uptight (Everything's Alright).wav" WAVE
INDEX 01 00:00:00
TRACK 19 AUDIO
TITLE "Jimmy Mack"
PERFORMER "Martha Reeves And The Vandellas"
INDEX 00 02:53:28
FILE "19 - Martha Reeves And The Vandellas - Jimmy Mack.wav" WAVE
INDEX 01 00:00:00
TRACK 20 AUDIO
TITLE "It Takes Two"
PERFORMER "Marvin Gaye And Kim Weston"
INDEX 00 02:51:40
FILE "20 - Marvin Gaye And Kim Weston - It Takes Two.wav" WAVE
INDEX 01 00:00:00
 
CD 4
Продолжительность: 65 min 39 sec
01 Diana Ross And The Supremes - Stop In The Name Of Love [02:55]
02 The Isley Brothers - Put Yourself In My Place [02:42]
03 Gladys Knight And The Pips - Take Me In Your Arms And Love Me [02:55]
04 Marvin Gaye And Tammi Terrell - The Onion Song [03:00]
05 Stevie Wonder - For Once In My Life [02:47]
06 Edwin Starr - Stop Her On Sight (SOS) [02:17]
07 Diana Ross And The Supremes - The Happening [02:48]
08 Martha Reeves And The Vandellas - (Love Is Like A) Heatwave [02:46]
09 Stevie Wonder - My Cherie Amour [02:53]
10 The Four Tops - If I Were A Carpenter [02:49]
11 Marvin Gaye And Tammi Terrell - You're All I Need To Get By [02:47]
12 The Isley Brothers - This Old Heart Of Mine (Is Weak For You) [02:52]
13 Diana Ross And The Supremes With The Temptations - I'm Gonna Make You Love Me [03:08]
14 Michael Jackson - Got To Be There [03:24]
15 The Temptations - I Can't Get Next To You [02:55]
16 Diana Ross And The Supremes - Someday We'll Be Together [03:28]
17 Stevie Wonder - I Was Made To Love Her [02:37]
18 Marvin Gaye - How Sweet It Is (To Be Loved By You) [02:56]
19 The Four Tops - It's All In The Game [02:46]
20 Diana Ross - Touch Me In The Morning [03:26]
21 Gladys Knight And The Pips - Help Me Make It Through The Night [04:23]
22 Diana Ross And Marvin Gaye - You Are Everything [02:54]
 
Log EAC
Exact Audio Copy V0.99 prebeta 4 from 23. January 2008
EAC extraction logfile from 15. March 2009, 23:59
Various / The Motown Story - 25 Years Of Great Original Hits (CD04)
Used drive : PLEXTOR CD-R PREMIUM2 Adapter: 5 ID: 0
Read mode : Secure
Utilize accurate stream : Yes
Defeat audio cache : Yes
Make use of C2 pointers : No
Read offset correction : 30
Overread into Lead-In and Lead-Out : Yes
Fill up missing offset samples with silence : Yes
Delete leading and trailing silent blocks : No
Null samples used in CRC calculations : Yes
Used interface : Native Win32 interface for Win NT & 2000
Gap handling : Appended to previous track
Used output format : User Defined Encoder
Selected bitrate : 1024 kBit/s
Quality : High
Add ID3 tag : No
Command line compressor : C:\Program Files\Exact Audio Copy\FLAC\FLAC.EXE
Additional command line options : -V -8 -T "artist=%a" -T "title=%t" -T "album=%g" -T "date=%y" -T "tracknumber=%n" -T "genre=%m" %s
TOC of the extracted CD
Track | Start | Length | Start sector | End sector
---------------------------------------------------------
1 | 0:00.32 | 2:55.65 | 32 | 13221
2 | 2:56.22 | 2:42.55 | 13222 | 25426
3 | 5:39.02 | 2:55.15 | 25427 | 38566
4 | 8:34.17 | 3:00.25 | 38567 | 52091
5 | 11:34.42 | 2:47.60 | 52092 | 64676
6 | 14:22.27 | 2:17.63 | 64677 | 75014
7 | 16:40.15 | 2:48.30 | 75015 | 87644
8 | 19:28.45 | 2:46.62 | 87645 | 100156
9 | 22:15.32 | 2:53.18 | 100157 | 113149
10 | 25:08.50 | 2:49.62 | 113150 | 125886
11 | 27:58.37 | 2:47.48 | 125887 | 138459
12 | 30:46.10 | 2:52.12 | 138460 | 151371
13 | 33:38.22 | 3:08.03 | 151372 | 165474
14 | 36:46.25 | 3:24.57 | 165475 | 180831
15 | 40:11.07 | 2:55.18 | 180832 | 193974
16 | 43:06.25 | 3:28.45 | 193975 | 209619
17 | 46:34.70 | 2:37.27 | 209620 | 221421
18 | 49:12.22 | 2:56.63 | 221422 | 234684
19 | 52:09.10 | 2:46.42 | 234685 | 247176
20 | 54:55.52 | 3:26.38 | 247177 | 262664
21 | 58:22.15 | 4:23.07 | 262665 | 282396
22 | 62:45.22 | 2:54.43 | 282397 | 295489
Track 1
Filename C:\EAC Rips\VA - The Motown Story 25 Years Of Great Original Hits (1991) [FLAC]\CD04\01 - Diana Ross And The Supremes - Stop In The Name Of Love.wav
Pre-gap length 0:00:02.32
Peak level 62.8 %
Track quality 100.0 %
Test CRC 277F12A1
Copy CRC 277F12A1
Track not present in AccurateRip database
Copy OK
Track 2
Filename C:\EAC Rips\VA - The Motown Story 25 Years Of Great Original Hits (1991) [FLAC]\CD04\02 - The Isley Brothers - Put Yourself In My Place.wav
Pre-gap length 0:00:03.12
Peak level 80.9 %
Track quality 100.0 %
Test CRC 2052BDD9
Copy CRC 2052BDD9
Track not present in AccurateRip database
Copy OK
Track 3
Filename C:\EAC Rips\VA - The Motown Story 25 Years Of Great Original Hits (1991) [FLAC]\CD04\03 - Gladys Knight And The Pips - Take Me In Your Arms And Love Me.wav
Pre-gap length 0:00:02.35
Peak level 69.7 %
Track quality 100.0 %
Test CRC A310C102
Copy CRC A310C102
Track not present in AccurateRip database
Copy OK
Track 4
Filename C:\EAC Rips\VA - The Motown Story 25 Years Of Great Original Hits (1991) [FLAC]\CD04\04 - Marvin Gaye And Tammi Terrell - The Onion Song.wav
Pre-gap length 0:00:02.17
Peak level 67.2 %
Track quality 100.0 %
Test CRC F766B082
Copy CRC F766B082
Track not present in AccurateRip database
Copy OK
Track 5
Filename C:\EAC Rips\VA - The Motown Story 25 Years Of Great Original Hits (1991) [FLAC]\CD04\05 - Stevie Wonder - For Once In My Life.wav
Pre-gap length 0:00:02.72
Peak level 57.7 %
Track quality 100.0 %
Test CRC D55115CF
Copy CRC D55115CF
Track not present in AccurateRip database
Copy OK
Track 6
Filename C:\EAC Rips\VA - The Motown Story 25 Years Of Great Original Hits (1991) [FLAC]\CD04\06 - Edwin Starr - Stop Her On Sight (SOS).wav
Pre-gap length 0:00:01.42
Peak level 66.4 %
Track quality 100.0 %
Test CRC 500EF15A
Copy CRC 500EF15A
Track not present in AccurateRip database
Copy OK
Track 7
Filename C:\EAC Rips\VA - The Motown Story 25 Years Of Great Original Hits (1991) [FLAC]\CD04\07 - Diana Ross And The Supremes - The Happening.wav
Pre-gap length 0:00:02.08
Peak level 71.4 %
Track quality 100.0 %
Test CRC A8B1054E
Copy CRC A8B1054E
Track not present in AccurateRip database
Copy OK
Track 8
Filename C:\EAC Rips\VA - The Motown Story 25 Years Of Great Original Hits (1991) [FLAC]\CD04\08 - Martha Reeves And The Vandellas - (Love Is Like A) Heatwave.wav
Pre-gap length 0:00:01.40
Peak level 87.2 %
Track quality 100.0 %
Test CRC C22BFA66
Copy CRC C22BFA66
Track not present in AccurateRip database
Copy OK
Track 9
Filename C:\EAC Rips\VA - The Motown Story 25 Years Of Great Original Hits (1991) [FLAC]\CD04\09 - Stevie Wonder - My Cherie Amour.wav
Pre-gap length 0:00:02.07
Peak level 84.0 %
Track quality 100.0 %
Test CRC BE9AA18D
Copy CRC BE9AA18D
Track not present in AccurateRip database
Copy OK
Track 10
Filename C:\EAC Rips\VA - The Motown Story 25 Years Of Great Original Hits (1991) [FLAC]\CD04\10 - The Four Tops - If I Were A Carpenter.wav
Pre-gap length 0:00:02.35
Peak level 88.9 %
Track quality 100.0 %
Test CRC FC70F068
Copy CRC FC70F068
Track not present in AccurateRip database
Copy OK
Track 11
Filename C:\EAC Rips\VA - The Motown Story 25 Years Of Great Original Hits (1991) [FLAC]\CD04\11 - Marvin Gaye And Tammi Terrell - You're All I Need To Get By.wav
Pre-gap length 0:00:02.67
Peak level 60.1 %
Track quality 100.0 %
Test CRC 59057E40
Copy CRC 59057E40
Track not present in AccurateRip database
Copy OK
Track 12
Filename C:\EAC Rips\VA - The Motown Story 25 Years Of Great Original Hits (1991) [FLAC]\CD04\12 - The Isley Brothers - This Old Heart Of Mine (Is Weak For You).wav
Pre-gap length 0:00:02.15
Peak level 69.8 %
Track quality 100.0 %
Test CRC 7D7BF176
Copy CRC 7D7BF176
Track not present in AccurateRip database
Copy OK
Track 13
Filename C:\EAC Rips\VA - The Motown Story 25 Years Of Great Original Hits (1991) [FLAC]\CD04\13 - Diana Ross And The Supremes With The Temptations - I'm Gonna Make You Love Me.wav
Pre-gap length 0:00:02.07
Peak level 81.9 %
Track quality 99.8 %
Test CRC A8F9B52D
Copy CRC A8F9B52D
Track not present in AccurateRip database
Copy OK
Track 14
Filename C:\EAC Rips\VA - The Motown Story 25 Years Of Great Original Hits (1991) [FLAC]\CD04\14 - Michael Jackson - Got To Be There.wav
Pre-gap length 0:00:03.00
Peak level 75.3 %
Track quality 100.0 %
Test CRC 5D907B95
Copy CRC 5D907B95
Track not present in AccurateRip database
Copy OK
Track 15
Filename C:\EAC Rips\VA - The Motown Story 25 Years Of Great Original Hits (1991) [FLAC]\CD04\15 - The Temptations - I Can't Get Next To You.wav
Pre-gap length 0:00:02.60
Peak level 70.2 %
Track quality 100.0 %
Test CRC 31288569
Copy CRC 31288569
Track not present in AccurateRip database
Copy OK
Track 16
Filename C:\EAC Rips\VA - The Motown Story 25 Years Of Great Original Hits (1991) [FLAC]\CD04\16 - Diana Ross And The Supremes - Someday We'll Be Together.wav
Pre-gap length 0:00:02.00
Peak level 70.0 %
Track quality 100.0 %
Test CRC 8FEA49D4
Copy CRC 8FEA49D4
Track not present in AccurateRip database
Copy OK
Track 17
Filename C:\EAC Rips\VA - The Motown Story 25 Years Of Great Original Hits (1991) [FLAC]\CD04\17 - Stevie Wonder - I Was Made To Love Her.wav
Pre-gap length 0:00:02.65
Peak level 79.9 %
Track quality 100.0 %
Test CRC 9668778B
Copy CRC 9668778B
Track not present in AccurateRip database
Copy OK
Track 18
Filename C:\EAC Rips\VA - The Motown Story 25 Years Of Great Original Hits (1991) [FLAC]\CD04\18 - Marvin Gaye - How Sweet It Is (To Be Loved By You).wav
Pre-gap length 0:00:02.47
Peak level 87.1 %
Track quality 100.0 %
Test CRC 3A8D126E
Copy CRC 3A8D126E
Track not present in AccurateRip database
Copy OK
Track 19
Filename C:\EAC Rips\VA - The Motown Story 25 Years Of Great Original Hits (1991) [FLAC]\CD04\19 - The Four Tops - It's All In The Game.wav
Pre-gap length 0:00:02.23
Peak level 61.6 %
Track quality 100.0 %
Test CRC 4CC5651D
Copy CRC 4CC5651D
Track not present in AccurateRip database
Copy OK
Track 20
Filename C:\EAC Rips\VA - The Motown Story 25 Years Of Great Original Hits (1991) [FLAC]\CD04\20 - Diana Ross - Touch Me In The Morning.wav
Pre-gap length 0:00:02.25
Peak level 77.1 %
Track quality 100.0 %
Test CRC A7EC12D3
Copy CRC A7EC12D3
Track not present in AccurateRip database
Copy OK
Track 21
Filename C:\EAC Rips\VA - The Motown Story 25 Years Of Great Original Hits (1991) [FLAC]\CD04\21 - Gladys Knight And The Pips - Help Me Make It Through The Night.wav
Pre-gap length 0:00:01.68
Peak level 61.0 %
Track quality 100.0 %
Test CRC 4E8A9DF7
Copy CRC 4E8A9DF7
Track not present in AccurateRip database
Copy OK
Track 22
Filename C:\EAC Rips\VA - The Motown Story 25 Years Of Great Original Hits (1991) [FLAC]\CD04\22 - Diana Ross And Marvin Gaye - You Are Everything.wav
Pre-gap length 0:00:02.50
Peak level 85.1 %
Track quality 100.0 %
Test CRC A01E246B
Copy CRC A01E246B
Track not present in AccurateRip database
Copy OK
None of the tracks are present in the AccurateRip database
No errors occurred
End of status report
 
CUE
REM GENRE Soul
REM DATE 1991
REM DISCID 300F6316
REM COMMENT "ExactAudioCopy v0.99pb4"
PERFORMER "Various"
TITLE "The Motown Story - 25 Years Of Great Original Hits (CD04)"
FILE "01 - Diana Ross And The Supremes - Stop In The Name Of Love.wav" WAVE
TRACK 01 AUDIO
TITLE "Stop In The Name Of Love"
PERFORMER "Diana Ross And The Supremes"
PREGAP 00:00:32
INDEX 01 00:00:00
TRACK 02 AUDIO
TITLE "Put Yourself In My Place"
PERFORMER "The Isley Brothers"
INDEX 00 02:52:53
FILE "02 - The Isley Brothers - Put Yourself In My Place.wav" WAVE
INDEX 01 00:00:00
TRACK 03 AUDIO
TITLE "Take Me In Your Arms And Love Me"
PERFORMER "Gladys Knight And The Pips"
INDEX 00 02:40:20
FILE "03 - Gladys Knight And The Pips - Take Me In Your Arms And Love Me.wav" WAVE
INDEX 01 00:00:00
TRACK 04 AUDIO
TITLE "The Onion Song"
PERFORMER "Marvin Gaye And Tammi Terrell"
INDEX 00 02:52:73
FILE "04 - Marvin Gaye And Tammi Terrell - The Onion Song.wav" WAVE
INDEX 01 00:00:00
TRACK 05 AUDIO
TITLE "For Once In My Life"
PERFORMER "Stevie Wonder"
INDEX 00 02:57:28
FILE "05 - Stevie Wonder - For Once In My Life.wav" WAVE
INDEX 01 00:00:00
TRACK 06 AUDIO
TITLE "Stop Her On Sight (SOS)"
PERFORMER "Edwin Starr"
INDEX 00 02:46:18
FILE "06 - Edwin Starr - Stop Her On Sight (SOS).wav" WAVE
INDEX 01 00:00:00
TRACK 07 AUDIO
TITLE "The Happening"
PERFORMER "Diana Ross And The Supremes"
INDEX 00 02:15:55
FILE "07 - Diana Ross And The Supremes - The Happening.wav" WAVE
INDEX 01 00:00:00
TRACK 08 AUDIO
TITLE "(Love Is Like A) Heatwave"
PERFORMER "Martha Reeves And The Vandellas"
INDEX 00 02:46:65
FILE "08 - Martha Reeves And The Vandellas - (Love Is Like A) Heatwave.wav" WAVE
INDEX 01 00:00:00
TRACK 09 AUDIO
TITLE "My Cherie Amour"
PERFORMER "Stevie Wonder"
INDEX 00 02:44:55
FILE "09 - Stevie Wonder - My Cherie Amour.wav" WAVE
INDEX 01 00:00:00
TRACK 10 AUDIO
TITLE "If I Were A Carpenter"
PERFORMER "The Four Tops"
INDEX 00 02:50:58
FILE "10 - The Four Tops - If I Were A Carpenter.wav" WAVE
INDEX 01 00:00:00
TRACK 11 AUDIO
TITLE "You're All I Need To Get By"
PERFORMER "Marvin Gaye And Tammi Terrell"
INDEX 00 02:46:70
FILE "11 - Marvin Gaye And Tammi Terrell - You're All I Need To Get By.wav" WAVE
INDEX 01 00:00:00
TRACK 12 AUDIO
TITLE "This Old Heart Of Mine (Is Weak For You)"
PERFORMER "The Isley Brothers"
INDEX 00 02:45:33
FILE "12 - The Isley Brothers - This Old Heart Of Mine (Is Weak For You).wav" WAVE
INDEX 01 00:00:00
TRACK 13 AUDIO
TITLE "I'm Gonna Make You Love Me"
PERFORMER "Diana Ross And The Supremes With The Temptations"
INDEX 00 02:50:05
FILE "13 - Diana Ross And The Supremes With The Temptations - I'm Gonna Make You Love Me.wav" WAVE
INDEX 01 00:00:00
TRACK 14 AUDIO
TITLE "Got To Be There"
PERFORMER "Michael Jackson"
INDEX 00 03:05:03
FILE "14 - Michael Jackson - Got To Be There.wav" WAVE
INDEX 01 00:00:00
TRACK 15 AUDIO
TITLE "I Can't Get Next To You"
PERFORMER "The Temptations"
INDEX 00 03:21:72
FILE "15 - The Temptations - I Can't Get Next To You.wav" WAVE
INDEX 01 00:00:00
TRACK 16 AUDIO
TITLE "Someday We'll Be Together"
PERFORMER "Diana Ross And The Supremes"
INDEX 00 02:53:18
FILE "16 - Diana Ross And The Supremes - Someday We'll Be Together.wav" WAVE
INDEX 01 00:00:00
TRACK 17 AUDIO
TITLE "I Was Made To Love Her"
PERFORMER "Stevie Wonder"
INDEX 00 03:25:55
FILE "17 - Stevie Wonder - I Was Made To Love Her.wav" WAVE
INDEX 01 00:00:00
TRACK 18 AUDIO
TITLE "How Sweet It Is (To Be Loved By You)"
PERFORMER "Marvin Gaye"
INDEX 00 02:34:55
FILE "18 - Marvin Gaye - How Sweet It Is (To Be Loved By You).wav" WAVE
INDEX 01 00:00:00
TRACK 19 AUDIO
TITLE "It's All In The Game"
PERFORMER "The Four Tops"
INDEX 00 02:54:40
FILE "19 - The Four Tops - It's All In The Game.wav" WAVE
INDEX 01 00:00:00
TRACK 20 AUDIO
TITLE "Touch Me In The Morning"
PERFORMER "Diana Ross"
INDEX 00 02:44:17
FILE "20 - Diana Ross - Touch Me In The Morning.wav" WAVE
INDEX 01 00:00:00
TRACK 21 AUDIO
TITLE "Help Me Make It Through The Night"
PERFORMER "Gladys Knight And The Pips"
INDEX 00 03:24:45
FILE "21 - Gladys Knight And The Pips - Help Me Make It Through The Night.wav" WAVE
INDEX 01 00:00:00
TRACK 22 AUDIO
TITLE "You Are Everything"
PERFORMER "Diana Ross And Marvin Gaye"
INDEX 00 04:20:32
FILE "22 - Diana Ross And Marvin Gaye - You Are Everything.wav" WAVE
INDEX 01 00:00:00
 
CD 5
Продолжительность: 65 min 25 sec
01 Michael Jackson - Rockin' Robin [02:34]
02 R. Dean Taylor - Indiana Wants Me [03:54]
03 Stevie Wonder - Never Had A Dream Come True [03:08]
04 The Supremes - Stoned Love [02:57]
05 The Elgins - Heaven Must Have Sent You [02:33]
06 Edwin Starr - War [03:22]
07 The Jackson Five - The Love You Save [03:03]
08 Diana Ross - Remember Me [03:22]
09 The Commodores - Still [03:45]
10 Gladys Knight And The Pips - Neither One Of Us (Wants To Be The First To Say Goodbye) [04:24]
11 Stevie Wonder - Signed Sealed Delivered I'm Yours [02:37]
12 The Temptations - Just My Imagination (Running Away With Me) [03:49]
13 Smokey Robinson And The Miracles - I Don't Blame You At All [03:11]
14 The Supremes And The Four Tops - River Deep Mountain High [03:08]
15 Smokey Robinson And The Miracles - The Tears Of A Clown [03:00]
16 Diana Ross And The Supremes - My World Is Empty Without You [02:34]
17 Jimmy Ruffin - What Becomes Of The Brokenhearted [02:58]
18 The Four Tops - Walk Away Renee [02:46]
19 The Isley Brothers - Behind A Painted Smile [02:47]
20 Diana Ross And The Supremes - Love Is Here And Now You're Gone [02:49]
21 The Four Tops - Seven Rooms Of Gloom [02:33]
 
Log EAC
Exact Audio Copy V0.99 prebeta 4 from 23. January 2008
EAC extraction logfile from 16. March 2009, 0:21
Various / The Mowtown Story - 25 Years Of Great Original Hits (CD05)
Used drive : PLEXTOR CD-R PREMIUM2 Adapter: 5 ID: 0
Read mode : Secure
Utilize accurate stream : Yes
Defeat audio cache : Yes
Make use of C2 pointers : No
Read offset correction : 30
Overread into Lead-In and Lead-Out : Yes
Fill up missing offset samples with silence : Yes
Delete leading and trailing silent blocks : No
Null samples used in CRC calculations : Yes
Used interface : Native Win32 interface for Win NT & 2000
Gap handling : Appended to previous track
Used output format : User Defined Encoder
Selected bitrate : 1024 kBit/s
Quality : High
Add ID3 tag : No
Command line compressor : C:\Program Files\Exact Audio Copy\FLAC\FLAC.EXE
Additional command line options : -V -8 -T "artist=%a" -T "title=%t" -T "album=%g" -T "date=%y" -T "tracknumber=%n" -T "genre=%m" %s
TOC of the extracted CD
Track | Start | Length | Start sector | End sector
---------------------------------------------------------
1 | 0:00.32 | 2:34.53 | 32 | 11634
2 | 2:35.10 | 3:54.07 | 11635 | 29191
3 | 6:29.17 | 3:08.60 | 29192 | 43351
4 | 9:38.02 | 2:57.68 | 43352 | 56694
5 | 12:35.70 | 2:33.35 | 56695 | 68204
6 | 15:09.30 | 3:22.25 | 68205 | 83379
7 | 18:31.55 | 3:03.47 | 83380 | 97151
8 | 21:35.27 | 3:22.30 | 97152 | 112331
9 | 24:57.57 | 3:45.30 | 112332 | 129236
10 | 28:43.12 | 4:24.45 | 129237 | 149081
11 | 33:07.57 | 2:37.35 | 149082 | 160891
12 | 35:45.17 | 3:49.65 | 160892 | 178131
13 | 39:35.07 | 3:11.63 | 178132 | 192519
14 | 42:46.70 | 3:08.20 | 192520 | 206639
15 | 45:55.15 | 3:00.20 | 206640 | 220159
16 | 48:55.35 | 2:34.57 | 220160 | 231766
17 | 51:30.17 | 2:58.68 | 231767 | 245184
18 | 54:29.10 | 2:46.67 | 245185 | 257701
19 | 57:16.02 | 2:47.63 | 257702 | 270289
20 | 60:03.65 | 2:49.32 | 270290 | 282996
21 | 62:53.22 | 2:33.00 | 282997 | 294471
Track 1
Filename C:\EAC Rips\VA - The Motown Story 25 Years Of Great Original Hits (1991) [FLAC]\CD05\01 - Michael Jackson - Rockin' Robin.wav
Pre-gap length 0:00:02.32
Peak level 78.7 %
Track quality 100.0 %
Test CRC 31296112
Copy CRC 31296112
Track not present in AccurateRip database
Copy OK
Track 2
Filename C:\EAC Rips\VA - The Motown Story 25 Years Of Great Original Hits (1991) [FLAC]\CD05\02 - R. Dean Taylor - Indiana Wants Me.wav
Pre-gap length 0:00:02.10
Peak level 87.4 %
Track quality 100.0 %
Test CRC F8CFB6C1
Copy CRC F8CFB6C1
Track not present in AccurateRip database
Copy OK
Track 3
Filename C:\EAC Rips\VA - The Motown Story 25 Years Of Great Original Hits (1991) [FLAC]\CD05\03 - Stevie Wonder - Never Had A Dream Come True.wav
Pre-gap length 0:00:02.15
Peak level 80.0 %
Track quality 100.0 %
Test CRC 26303D69
Copy CRC 26303D69
Track not present in AccurateRip database
Copy OK
Track 4
Filename C:\EAC Rips\VA - The Motown Story 25 Years Of Great Original Hits (1991) [FLAC]\CD05\04 - The Supremes - Stoned Love.wav
Pre-gap length 0:00:01.57
Peak level 57.7 %
Track quality 100.0 %
Test CRC 1A3F7CD6
Copy CRC 1A3F7CD6
Track not present in AccurateRip database
Copy OK
Track 5
Filename C:\EAC Rips\VA - The Motown Story 25 Years Of Great Original Hits (1991) [FLAC]\CD05\05 - The Elgins - Heaven Must Have Sent You.wav
Pre-gap length 0:00:01.50
Peak level 76.9 %
Track quality 100.0 %
Test CRC 0E9602D5
Copy CRC 0E9602D5
Track not present in AccurateRip database
Copy OK
Track 6
Filename C:\EAC Rips\VA - The Motown Story 25 Years Of Great Original Hits (1991) [FLAC]\CD05\06 - Edwin Starr - War.wav
Pre-gap length 0:00:02.25
Peak level 56.7 %
Track quality 100.0 %
Test CRC F4828354
Copy CRC F4828354
Track not present in AccurateRip database
Copy OK
Track 7
Filename C:\EAC Rips\VA - The Motown Story 25 Years Of Great Original Hits (1991) [FLAC]\CD05\07 - The Jackson Five - The Love You Save.wav
Pre-gap length 0:00:02.00
Peak level 80.8 %
Track quality 100.0 %
Test CRC 16770CB0
Copy CRC 16770CB0
Track not present in AccurateRip database
Copy OK
Track 8
Filename C:\EAC Rips\VA - The Motown Story 25 Years Of Great Original Hits (1991) [FLAC]\CD05\08 - Diana Ross - Remember Me.wav
Pre-gap length 0:00:02.70
Peak level 95.1 %
Track quality 99.8 %
Test CRC 4CE57870
Copy CRC 4CE57870
Track not present in AccurateRip database
Copy OK
Track 9
Filename C:\EAC Rips\VA - The Motown Story 25 Years Of Great Original Hits (1991) [FLAC]\CD05\09 - The Commodores - Still.wav
Pre-gap length 0:00:02.40
Peak level 73.5 %
Track quality 100.0 %
Test CRC 6E2AAEBE
Copy CRC 6E2AAEBE
Track not present in AccurateRip database
Copy OK
Track 10
Filename C:\EAC Rips\VA - The Motown Story 25 Years Of Great Original Hits (1991) [FLAC]\CD05\10 - Gladys Knight And The Pips - Neither One Of Us (Wants To Be The First To Say Goodbye).wav
Pre-gap length 0:00:02.22
Peak level 66.8 %
Track quality 100.0 %
Test CRC 0D0F0647
Copy CRC 0D0F0647
Track not present in AccurateRip database
Copy OK
Track 11
Filename C:\EAC Rips\VA - The Motown Story 25 Years Of Great Original Hits (1991) [FLAC]\CD05\11 - Stevie Wonder - Signed Sealed Delivered I'm Yours.wav
Pre-gap length 0:00:02.22
Peak level 72.6 %
Track quality 99.8 %
Test CRC FEA8A406
Copy CRC FEA8A406
Track not present in AccurateRip database
Copy OK
Track 12
Filename C:\EAC Rips\VA - The Motown Story 25 Years Of Great Original Hits (1991) [FLAC]\CD05\12 - The Temptations - Just My Imagination (Running Away With Me).wav
Pre-gap length 0:00:01.57
Peak level 64.1 %
Track quality 100.0 %
Test CRC 424F60FD
Copy CRC 424F60FD
Track not present in AccurateRip database
Copy OK
Track 13
Filename C:\EAC Rips\VA - The Motown Story 25 Years Of Great Original Hits (1991) [FLAC]\CD05\13 - Smokey Robinson And The Miracles - I Don't Blame You At All.wav
Pre-gap length 0:00:02.15
Peak level 89.4 %
Track quality 100.0 %
Test CRC 7BF0B354
Copy CRC 7BF0B354
Track not present in AccurateRip database
Copy OK
Track 14
Filename C:\EAC Rips\VA - The Motown Story 25 Years Of Great Original Hits (1991) [FLAC]\CD05\14 - The Supremes And The Four Tops - River Deep Mountain High.wav
Pre-gap length 0:00:02.30
Peak level 74.7 %
Track quality 100.0 %
Test CRC E298A9E3
Copy CRC E298A9E3
Track not present in AccurateRip database
Copy OK
Track 15
Filename C:\EAC Rips\VA - The Motown Story 25 Years Of Great Original Hits (1991) [FLAC]\CD05\15 - Smokey Robinson And The Miracles - The Tears Of A Clown.wav
Pre-gap length 0:00:01.25
Peak level 75.4 %
Track quality 100.0 %
Test CRC 91E6723E
Copy CRC 91E6723E
Track not present in AccurateRip database
Copy OK
Track 16
Filename C:\EAC Rips\VA - The Motown Story 25 Years Of Great Original Hits (1991) [FLAC]\CD05\16 - Diana Ross And The Supremes - My World Is Empty Without You.wav
Pre-gap length 0:00:03.08
Peak level 98.0 %
Track quality 100.0 %
Test CRC 36F188FD
Copy CRC 36F188FD
Track not present in AccurateRip database
Copy OK
Track 17
Filename C:\EAC Rips\VA - The Motown Story 25 Years Of Great Original Hits (1991) [FLAC]\CD05\17 - Jimmy Ruffin - What Becomes Of The Brokenhearted.wav
Pre-gap length 0:00:01.70
Peak level 69.1 %
Track quality 100.0 %
Test CRC B475CABE
Copy CRC B475CABE
Track not present in AccurateRip database
Copy OK
Track 18
Filename C:\EAC Rips\VA - The Motown Story 25 Years Of Great Original Hits (1991) [FLAC]\CD05\18 - The Four Tops - Walk Away Renee.wav
Pre-gap length 0:00:03.43
Peak level 67.2 %
Track quality 100.0 %
Test CRC 94A4AFDC
Copy CRC 94A4AFDC
Track not present in AccurateRip database
Copy OK
Track 19
Filename C:\EAC Rips\VA - The Motown Story 25 Years Of Great Original Hits (1991) [FLAC]\CD05\19 - The Isley Brothers - Behind A Painted Smile.wav
Pre-gap length 0:00:02.37
Peak level 65.9 %
Track quality 100.0 %
Test CRC B8A76235
Copy CRC B8A76235
Track not present in AccurateRip database
Copy OK
Track 20
Filename C:\EAC Rips\VA - The Motown Story 25 Years Of Great Original Hits (1991) [FLAC]\CD05\20 - Diana Ross And The Supremes - Love Is Here And Now You're Gone.wav
Pre-gap length 0:00:02.20
Peak level 73.4 %
Track quality 100.0 %
Test CRC 32C62EFE
Copy CRC 32C62EFE
Track not present in AccurateRip database
Copy OK
Track 21
Filename C:\EAC Rips\VA - The Motown Story 25 Years Of Great Original Hits (1991) [FLAC]\CD05\21 - The Four Tops - Seven Rooms Of Gloom.wav
Pre-gap length 0:00:02.25
Peak level 64.9 %
Track quality 99.8 %
Test CRC DACF5728
Copy CRC DACF5728
Track not present in AccurateRip database
Copy OK
None of the tracks are present in the AccurateRip database
No errors occurred
End of status report
 
CUE
REM GENRE Soul
REM DATE 1991
REM DISCID 530F5615
REM COMMENT "ExactAudioCopy v0.99pb4"
PERFORMER "Various"
TITLE "The Mowtown Story - 25 Years Of Great Original Hits (CD05)"
FILE "01 - Michael Jackson - Rockin' Robin.wav" WAVE
TRACK 01 AUDIO
TITLE "Rockin' Robin"
PERFORMER "Michael Jackson"
PREGAP 00:00:32
INDEX 01 00:00:00
TRACK 02 AUDIO
TITLE "Indiana Wants Me"
PERFORMER "R. Dean Taylor"
INDEX 00 02:32:43
FILE "02 - R. Dean Taylor - Indiana Wants Me.wav" WAVE
INDEX 01 00:00:00
TRACK 03 AUDIO
TITLE "Never Had A Dream Come True"
PERFORMER "Stevie Wonder"
INDEX 00 03:51:67
FILE "03 - Stevie Wonder - Never Had A Dream Come True.wav" WAVE
INDEX 01 00:00:00
TRACK 04 AUDIO
TITLE "Stoned Love"
PERFORMER "The Supremes"
INDEX 00 03:07:03
FILE "04 - The Supremes - Stoned Love.wav" WAVE
INDEX 01 00:00:00
TRACK 05 AUDIO
TITLE "Heaven Must Have Sent You"
PERFORMER "The Elgins"
INDEX 00 02:56:18
FILE "05 - The Elgins - Heaven Must Have Sent You.wav" WAVE
INDEX 01 00:00:00
TRACK 06 AUDIO
TITLE "War"
PERFORMER "Edwin Starr"
INDEX 00 02:31:10
FILE "06 - Edwin Starr - War.wav" WAVE
INDEX 01 00:00:00
TRACK 07 AUDIO
TITLE "The Love You Save"
PERFORMER "The Jackson Five"
INDEX 00 03:20:25
FILE "07 - The Jackson Five - The Love You Save.wav" WAVE
INDEX 01 00:00:00
TRACK 08 AUDIO
TITLE "Remember Me"
PERFORMER "Diana Ross"
INDEX 00 03:00:52
FILE "08 - Diana Ross - Remember Me.wav" WAVE
INDEX 01 00:00:00
TRACK 09 AUDIO
TITLE "Still"
PERFORMER "The Commodores"
INDEX 00 03:19:65
FILE "09 - The Commodores - Still.wav" WAVE
INDEX 01 00:00:00
TRACK 10 AUDIO
TITLE "Neither One Of Us (Wants To Be The First To Say Goodbye)"
PERFORMER "Gladys Knight And The Pips"
INDEX 00 03:43:08
FILE "10 - Gladys Knight And The Pips - Neither One Of Us (Wants To Be The First To Say Goodbye).wav" WAVE
INDEX 01 00:00:00
TRACK 11 AUDIO
TITLE "Signed Sealed Delivered I'm Yours"
PERFORMER "Stevie Wonder"
INDEX 00 04:22:23
FILE "11 - Stevie Wonder - Signed Sealed Delivered I'm Yours.wav" WAVE
INDEX 01 00:00:00
TRACK 12 AUDIO
TITLE "Just My Imagination (Running Away With Me)"
PERFORMER "The Temptations"
INDEX 00 02:35:53
FILE "12 - The Temptations - Just My Imagination (Running Away With Me).wav" WAVE
INDEX 01 00:00:00
TRACK 13 AUDIO
TITLE "I Don't Blame You At All"
PERFORMER "Smokey Robinson And The Miracles"
INDEX 00 03:47:50
FILE "13 - Smokey Robinson And The Miracles - I Don't Blame You At All.wav" WAVE
INDEX 01 00:00:00
TRACK 14 AUDIO
TITLE "River Deep Mountain High"
PERFORMER "The Supremes And The Four Tops"
INDEX 00 03:09:33
FILE "14 - The Supremes And The Four Tops - River Deep Mountain High.wav" WAVE
INDEX 01 00:00:00
TRACK 15 AUDIO
TITLE "The Tears Of A Clown"
PERFORMER "Smokey Robinson And The Miracles"
INDEX 00 03:06:70
FILE "15 - Smokey Robinson And The Miracles - The Tears Of A Clown.wav" WAVE
INDEX 01 00:00:00
TRACK 16 AUDIO
TITLE "My World Is Empty Without You"
PERFORMER "Diana Ross And The Supremes"
INDEX 00 02:57:12
FILE "16 - Diana Ross And The Supremes - My World Is Empty Without You.wav" WAVE
INDEX 01 00:00:00
TRACK 17 AUDIO
TITLE "What Becomes Of The Brokenhearted"
PERFORMER "Jimmy Ruffin"
INDEX 00 02:32:62
FILE "17 - Jimmy Ruffin - What Becomes Of The Brokenhearted.wav" WAVE
INDEX 01 00:00:00
TRACK 18 AUDIO
TITLE "Walk Away Renee"
PERFORMER "The Four Tops"
INDEX 00 02:55:25
FILE "18 - The Four Tops - Walk Away Renee.wav" WAVE
INDEX 01 00:00:00
TRACK 19 AUDIO
TITLE "Behind A Painted Smile"
PERFORMER "The Isley Brothers"
INDEX 00 02:44:30
FILE "19 - The Isley Brothers - Behind A Painted Smile.wav" WAVE
INDEX 01 00:00:00
TRACK 20 AUDIO
TITLE "Love Is Here And Now You're Gone"
PERFORMER "Diana Ross And The Supremes"
INDEX 00 02:45:43
FILE "20 - Diana Ross And The Supremes - Love Is Here And Now You're Gone.wav" WAVE
INDEX 01 00:00:00
TRACK 21 AUDIO
TITLE "Seven Rooms Of Gloom"
PERFORMER "The Four Tops"
INDEX 00 02:47:07
FILE "21 - The Four Tops - Seven Rooms Of Gloom.wav" WAVE
INDEX 01 00:00:00
 
CD 6
Продолжительность:
01 Thelma Houston - Don't Leave Me This Way [03:40]
02 Diana Ross And The Supremes - I'm Livin' In Shame [03:00]
03 The Jackson Five - Never Can Say Goodbye [02:58]
04 Diana Ross - I'm Still Waiting [03:45]
05 Jimmy Ruffin - Farewell Is A Lonley Sound [03:00]
06 Michel Jackson - Ain't No Sunshine [04:12]
07 Smokey Robinson And The Miracles - The Tracks Of My Tears [02:52]
08 Michael Jackson - Ben [02:46]
09 Diana Ross And The Supremes - Reflections [02:52]
10 Marvin Gaye - Too Busy Thinking About My Baby [02:55]
11 Smokey Robinson And The Miracles - I Second That Emotion [02:44]
12 The Marvelettes - When You're Young And In Love [02:36]
13 Martha Reeves And The Vandellas - Nowhere To Run [02:47]
14 The Isley Brothers - I Guess I'll Always Love You [02:39]
15 The Jackson Five - Doctor My Eyes [03:13]
16 Stevie Wonder - Heaven Help Us All [03:15]
17 The Temptations - Cloud Nine [03:31]
18 Jr. Walker And The All Stars - What Does It Take (To Win Your Love) [02:28]
19 The Four Tops - I Can't Help Myself [02:42]
20 Michael Jackson - Farewell My Summer Love [03:43]
21 The Commodores - Sail On [03:59]
22 Diana Ross - Gettin' Ready For Love [02:47]
 
Log EAC
Exact Audio Copy V0.99 prebeta 4 from 23. January 2008
EAC extraction logfile from 16. March 2009, 0:29
Various / The Motown Story - 25 Years Of Great Original Hits (CD06)
Used drive : PLEXTOR CD-R PREMIUM2 Adapter: 5 ID: 0
Read mode : Secure
Utilize accurate stream : Yes
Defeat audio cache : Yes
Make use of C2 pointers : No
Read offset correction : 30
Overread into Lead-In and Lead-Out : Yes
Fill up missing offset samples with silence : Yes
Delete leading and trailing silent blocks : No
Null samples used in CRC calculations : Yes
Used interface : Native Win32 interface for Win NT & 2000
Gap handling : Appended to previous track
Used output format : User Defined Encoder
Selected bitrate : 1024 kBit/s
Quality : High
Add ID3 tag : No
Command line compressor : C:\Program Files\Exact Audio Copy\FLAC\FLAC.EXE
Additional command line options : -V -8 -T "artist=%a" -T "title=%t" -T "album=%g" -T "date=%y" -T "tracknumber=%n" -T "genre=%m" %s
TOC of the extracted CD
Track | Start | Length | Start sector | End sector
---------------------------------------------------------
1 | 0:00.33 | 3:40.00 | 33 | 16532
2 | 3:40.33 | 3:00.40 | 16533 | 30072
3 | 6:40.73 | 2:58.57 | 30073 | 43479
4 | 9:39.55 | 3:45.23 | 43480 | 60377
5 | 13:25.03 | 3:00.22 | 60378 | 73899
6 | 16:25.25 | 4:12.55 | 73900 | 92854
7 | 20:38.05 | 2:52.40 | 92855 | 105794
8 | 23:30.45 | 2:46.43 | 105795 | 118287
9 | 26:17.13 | 2:52.55 | 118288 | 131242
10 | 29:09.68 | 2:55.47 | 131243 | 144414
11 | 32:05.40 | 2:44.73 | 144415 | 156787
12 | 34:50.38 | 2:36.50 | 156788 | 168537
13 | 37:27.13 | 2:47.42 | 168538 | 181104
14 | 40:14.55 | 2:39.45 | 181105 | 193074
15 | 42:54.25 | 3:13.28 | 193075 | 207577
16 | 46:07.53 | 3:15.02 | 207578 | 222204
17 | 49:22.55 | 3:31.10 | 222205 | 238039
18 | 52:53.65 | 2:28.68 | 238040 | 249207
19 | 55:22.58 | 2:42.17 | 249208 | 261374
20 | 58:05.00 | 3:43.53 | 261375 | 278152
21 | 61:48.53 | 3:59.10 | 278153 | 296087
22 | 65:47.63 | 2:47.12 | 296088 | 308624
Track 1
Filename C:\EAC Rips\VA - The Motown Story 25 Years Of Great Original Hits (1991) [FLAC]\CD06\01 - Thelma Houston - Don't Leave Me This Way.wav
Pre-gap length 0:00:02.33
Peak level 90.1 %
Track quality 100.0 %
Test CRC 66BB63D5
Copy CRC 66BB63D5
Track not present in AccurateRip database
Copy OK
Track 2
Filename C:\EAC Rips\VA - The Motown Story 25 Years Of Great Original Hits (1991) [FLAC]\CD06\02 - Diana Ross And The Supremes - I'm Livin' In Shame.wav
Pre-gap length 0:00:01.40
Peak level 89.2 %
Track quality 100.0 %
Test CRC 13895679
Copy CRC 13895679
Track not present in AccurateRip database
Copy OK
Track 3
Filename C:\EAC Rips\VA - The Motown Story 25 Years Of Great Original Hits (1991) [FLAC]\CD06\03 - The Jackson Five - Never Can Say Goodbye.wav
Pre-gap length 0:00:02.48
Peak level 82.7 %
Track quality 100.0 %
Test CRC 7A0CB8BC
Copy CRC 7A0CB8BC
Track not present in AccurateRip database
Copy OK
Track 4
Filename C:\EAC Rips\VA - The Motown Story 25 Years Of Great Original Hits (1991) [FLAC]\CD06\04 - Diana Ross - I'm Still Waiting.wav
Pre-gap length 0:00:03.07
Peak level 74.9 %
Track quality 100.0 %
Test CRC F7CB9E5C
Copy CRC F7CB9E5C
Track not present in AccurateRip database
Copy OK
Track 5
Filename C:\EAC Rips\VA - The Motown Story 25 Years Of Great Original Hits (1991) [FLAC]\CD06\05 - Jimmy Ruffin - Farewell Is A Lonley Sound.wav
Pre-gap length 0:00:02.68
Peak level 68.3 %
Track quality 100.0 %
Test CRC CF5BF018
Copy CRC CF5BF018
Track not present in AccurateRip database
Copy OK
Track 6
Filename C:\EAC Rips\VA - The Motown Story 25 Years Of Great Original Hits (1991) [FLAC]\CD06\06 - Michel Jackson - Ain't No Sunshine.wav
Pre-gap length 0:00:02.07
Peak level 73.3 %
Track quality 100.0 %
Test CRC B5A1C30D
Copy CRC B5A1C30D
Track not present in AccurateRip database
Copy OK
Track 7
Filename C:\EAC Rips\VA - The Motown Story 25 Years Of Great Original Hits (1991) [FLAC]\CD06\07 - Smokey Robinson And The Miracles - The Tracks Of My Tears.wav
Pre-gap length 0:00:02.40
Peak level 63.5 %
Track quality 100.0 %
Test CRC 001AF066
Copy CRC 001AF066
Track not present in AccurateRip database
Copy OK
Track 8
Filename C:\EAC Rips\VA - The Motown Story 25 Years Of Great Original Hits (1991) [FLAC]\CD06\08 - Michael Jackson - Ben.wav
Pre-gap length 0:00:02.07
Peak level 46.6 %
Track quality 100.0 %
Test CRC 4CF9EE72
Copy CRC 4CF9EE72
Track not present in AccurateRip database
Copy OK
Track 9
Filename C:\EAC Rips\VA - The Motown Story 25 Years Of Great Original Hits (1991) [FLAC]\CD06\09 - Diana Ross And The Supremes - Reflections.wav
Pre-gap length 0:00:02.10
Peak level 67.0 %
Track quality 100.0 %
Test CRC EF771CBA
Copy CRC EF771CBA
Track not present in AccurateRip database
Copy OK
Track 10
Filename C:\EAC Rips\VA - The Motown Story 25 Years Of Great Original Hits (1991) [FLAC]\CD06\10 - Marvin Gaye - Too Busy Thinking About My Baby.wav
Pre-gap length 0:00:02.28
Peak level 78.9 %
Track quality 99.8 %
Test CRC 41B5B7DF
Copy CRC 41B5B7DF
Track not present in AccurateRip database
Copy OK
Track 11
Filename C:\EAC Rips\VA - The Motown Story 25 Years Of Great Original Hits (1991) [FLAC]\CD06\11 - Smokey Robinson And The Miracles - I Second That Emotion.wav
Pre-gap length 0:00:01.25
Peak level 78.4 %
Track quality 100.0 %
Test CRC AE2602A2
Copy CRC AE2602A2
Track not present in AccurateRip database
Copy OK
Track 12
Filename C:\EAC Rips\VA - The Motown Story 25 Years Of Great Original Hits (1991) [FLAC]\CD06\12 - The Marvelettes - When You're Young And In Love.wav
Pre-gap length 0:00:02.10
Peak level 58.9 %
Track quality 100.0 %
Test CRC 7364715A
Copy CRC 7364715A
Track not present in AccurateRip database
Copy OK
Track 13
Filename C:\EAC Rips\VA - The Motown Story 25 Years Of Great Original Hits (1991) [FLAC]\CD06\13 - Martha Reeves And The Vandellas - Nowhere To Run.wav
Pre-gap length 0:00:01.73
Peak level 62.1 %
Track quality 100.0 %
Test CRC 33D3B6EB
Copy CRC 33D3B6EB
Track not present in AccurateRip database
Copy OK
Track 14
Filename C:\EAC Rips\VA - The Motown Story 25 Years Of Great Original Hits (1991) [FLAC]\CD06\14 - The Isley Brothers - I Guess I'll Always Love You.wav
Pre-gap length 0:00:02.32
Peak level 58.1 %
Track quality 100.0 %
Test CRC 8DEA5775
Copy CRC 8DEA5775
Track not present in AccurateRip database
Copy OK
Track 15
Filename C:\EAC Rips\VA - The Motown Story 25 Years Of Great Original Hits (1991) [FLAC]\CD06\15 - The Jackson Five - Doctor My Eyes.wav
Pre-gap length 0:00:01.47
Peak level 83.1 %
Track quality 100.0 %
Test CRC 66517C1C
Copy CRC 66517C1C
Track not present in AccurateRip database
Copy OK
Track 16
Filename C:\EAC Rips\VA - The Motown Story 25 Years Of Great Original Hits (1991) [FLAC]\CD06\16 - Stevie Wonder - Heaven Help Us All.wav
Pre-gap length 0:00:01.68
Peak level 88.2 %
Track quality 100.0 %
Test CRC E6F27324
Copy CRC E6F27324
Track not present in AccurateRip database
Copy OK
Track 17
Filename C:\EAC Rips\VA - The Motown Story 25 Years Of Great Original Hits (1991) [FLAC]\CD06\17 - The Temptations - Cloud Nine.wav
Pre-gap length 0:00:02.22
Peak level 65.4 %
Track quality 100.0 %
Test CRC AD2F7BBF
Copy CRC AD2F7BBF
Track not present in AccurateRip database
Copy OK
Track 18
Filename C:\EAC Rips\VA - The Motown Story 25 Years Of Great Original Hits (1991) [FLAC]\CD06\18 - Jr. Walker And The All Stars - What Does It Take (To Win Your Love).wav
Pre-gap length 0:00:02.40
Peak level 61.8 %
Track quality 100.0 %
Test CRC 1F5815C8
Copy CRC 1F5815C8
Track not present in AccurateRip database
Copy OK
Track 19
Filename C:\EAC Rips\VA - The Motown Story 25 Years Of Great Original Hits (1991) [FLAC]\CD06\19 - The Four Tops - I Can't Help Myself.wav
Pre-gap length 0:00:02.23
Peak level 60.2 %
Track quality 99.8 %
Test CRC 3682E5FC
Copy CRC 3682E5FC
Track not present in AccurateRip database
Copy OK
Track 20
Filename C:\EAC Rips\VA - The Motown Story 25 Years Of Great Original Hits (1991) [FLAC]\CD06\20 - Michael Jackson - Farewell My Summer Love.wav
Pre-gap length 0:00:01.30
Peak level 68.5 %
Track quality 100.0 %
Test CRC 9873FCE9
Copy CRC 9873FCE9
Track not present in AccurateRip database
Copy OK
Track 21
Filename C:\EAC Rips\VA - The Motown Story 25 Years Of Great Original Hits (1991) [FLAC]\CD06\21 - The Commodores - Sail On.wav
Pre-gap length 0:00:02.15
Peak level 65.4 %
Track quality 100.0 %
Test CRC 2ED80490
Copy CRC 2ED80490
Track not present in AccurateRip database
Copy OK
Track 22
Filename C:\EAC Rips\VA - The Motown Story 25 Years Of Great Original Hits (1991) [FLAC]\CD06\22 - Diana Ross - Gettin' Ready For Love.wav
Pre-gap length 0:00:01.63
Peak level 65.9 %
Track quality 100.0 %
Test CRC D4504A67
Copy CRC D4504A67
Track not present in AccurateRip database
Copy OK
None of the tracks are present in the AccurateRip database
No errors occurred
End of status report
 
CUE
REM GENRE Soul
REM DATE 1991
REM DISCID 4C101316
REM COMMENT "ExactAudioCopy v0.99pb4"
PERFORMER "Various"
TITLE "The Motown Story - 25 Years Of Great Original Hits (CD06)"
FILE "01 - Thelma Houston - Don't Leave Me This Way.wav" WAVE
TRACK 01 AUDIO
TITLE "Don't Leave Me This Way"
PERFORMER "Thelma Houston"
PREGAP 00:00:33
INDEX 01 00:00:00
TRACK 02 AUDIO
TITLE "I'm Livin' In Shame"
PERFORMER "Diana Ross And The Supremes"
INDEX 00 03:38:35
FILE "02 - Diana Ross And The Supremes - I'm Livin' In Shame.wav" WAVE
INDEX 01 00:00:00
TRACK 03 AUDIO
TITLE "Never Can Say Goodbye"
PERFORMER "The Jackson Five"
INDEX 00 02:57:67
FILE "03 - The Jackson Five - Never Can Say Goodbye.wav" WAVE
INDEX 01 00:00:00
TRACK 04 AUDIO
TITLE "I'm Still Waiting"
PERFORMER "Diana Ross"
INDEX 00 02:55:50
FILE "04 - Diana Ross - I'm Still Waiting.wav" WAVE
INDEX 01 00:00:00
TRACK 05 AUDIO
TITLE "Farewell Is A Lonley Sound"
PERFORMER "Jimmy Ruffin"
INDEX 00 03:42:30
FILE "05 - Jimmy Ruffin - Farewell Is A Lonley Sound.wav" WAVE
INDEX 01 00:00:00
TRACK 06 AUDIO
TITLE "Ain't No Sunshine"
PERFORMER "Michel Jackson"
INDEX 00 02:58:15
FILE "06 - Michel Jackson - Ain't No Sunshine.wav" WAVE
INDEX 01 00:00:00
TRACK 07 AUDIO
TITLE "The Tracks Of My Tears"
PERFORMER "Smokey Robinson And The Miracles"
INDEX 00 04:10:15
FILE "07 - Smokey Robinson And The Miracles - The Tracks Of My Tears.wav" WAVE
INDEX 01 00:00:00
TRACK 08 AUDIO
TITLE "Ben"
PERFORMER "Michael Jackson"
INDEX 00 02:50:33
FILE "08 - Michael Jackson - Ben.wav" WAVE
INDEX 01 00:00:00
TRACK 09 AUDIO
TITLE "Reflections"
PERFORMER "Diana Ross And The Supremes"
INDEX 00 02:44:33
FILE "09 - Diana Ross And The Supremes - Reflections.wav" WAVE
INDEX 01 00:00:00
TRACK 10 AUDIO
TITLE "Too Busy Thinking About My Baby"
PERFORMER "Marvin Gaye"
INDEX 00 02:50:27
FILE "10 - Marvin Gaye - Too Busy Thinking About My Baby.wav" WAVE
INDEX 01 00:00:00
TRACK 11 AUDIO
TITLE "I Second That Emotion"
PERFORMER "Smokey Robinson And The Miracles"
INDEX 00 02:54:22
FILE "11 - Smokey Robinson And The Miracles - I Second That Emotion.wav" WAVE
INDEX 01 00:00:00
TRACK 12 AUDIO
TITLE "When You're Young And In Love"
PERFORMER "The Marvelettes"
INDEX 00 02:42:63
FILE "12 - The Marvelettes - When You're Young And In Love.wav" WAVE
INDEX 01 00:00:00
TRACK 13 AUDIO
TITLE "Nowhere To Run"
PERFORMER "Martha Reeves And The Vandellas"
INDEX 00 02:34:52
FILE "13 - Martha Reeves And The Vandellas - Nowhere To Run.wav" WAVE
INDEX 01 00:00:00
TRACK 14 AUDIO
TITLE "I Guess I'll Always Love You"
PERFORMER "The Isley Brothers"
INDEX 00 02:45:10
FILE "14 - The Isley Brothers - I Guess I'll Always Love You.wav" WAVE
INDEX 01 00:00:00
TRACK 15 AUDIO
TITLE "Doctor My Eyes"
PERFORMER "The Jackson Five"
INDEX 00 02:37:73
FILE "15 - The Jackson Five - Doctor My Eyes.wav" WAVE
INDEX 01 00:00:00
TRACK 16 AUDIO
TITLE "Heaven Help Us All"
PERFORMER "Stevie Wonder"
INDEX 00 03:11:35
FILE "16 - Stevie Wonder - Heaven Help Us All.wav" WAVE
INDEX 01 00:00:00
TRACK 17 AUDIO
TITLE "Cloud Nine"
PERFORMER "The Temptations"
INDEX 00 03:12:55
FILE "17 - The Temptations - Cloud Nine.wav" WAVE
INDEX 01 00:00:00
TRACK 18 AUDIO
TITLE "What Does It Take (To Win Your Love)"
PERFORMER "Jr. Walker And The All Stars"
INDEX 00 03:28:45
FILE "18 - Jr. Walker And The All Stars - What Does It Take (To Win Your Love).wav" WAVE
INDEX 01 00:00:00
TRACK 19 AUDIO
TITLE "I Can't Help Myself"
PERFORMER "The Four Tops"
INDEX 00 02:26:45
FILE "19 - The Four Tops - I Can't Help Myself.wav" WAVE
INDEX 01 00:00:00
TRACK 20 AUDIO
TITLE "Farewell My Summer Love"
PERFORMER "Michael Jackson"
INDEX 00 02:40:62
FILE "20 - Michael Jackson - Farewell My Summer Love.wav" WAVE
INDEX 01 00:00:00
TRACK 21 AUDIO
TITLE "Sail On"
PERFORMER "The Commodores"
INDEX 00 03:41:38
FILE "21 - The Commodores - Sail On.wav" WAVE
INDEX 01 00:00:00
TRACK 22 AUDIO
TITLE "Gettin' Ready For Love"
PERFORMER "Diana Ross"
INDEX 00 03:57:22
FILE "22 - Diana Ross - Gettin' Ready For Love.wav" WAVE
INDEX 01 00:00:00
Приватный:
Нет (DHT включён)
Размер:
2.10 Гб (2,250,566,116 байт) » файлов: 177
Участники:
0 раздают, 0 качают (0 участников всего)
Внешние участники:
1 раздают, 0 качают (1 участников всего) [ Обновить ]
Никого нет на раздаче - пишите личное сообщение M0p94ok
No seeders - write personal message to M0p94ok
04:06
37
Нет комментариев. Ваш будет первым!