Поиск

(RnB, Swing, Disco, Soul, Funk) VA - Motown: The Complete No. 1's (B0012208-02) 10 CD's - 2008, FLAC (tracks+.cue), lossless

Треклист:
Various Artists - Motown: The Complete No. 1's

Жанр: RnB, Swing, Disco, Soul, Funk
Год выпуска диска: 2008
Производитель диска: Motown
Аудио кодек: FLAC
Тип рипа: tracks+.cue
Битрейт аудио: lossless
Продолжительность: 12:25:59

from what.cd
 
Tracklist

CD ONE
01 The Miracles - Shop Around [02:49]
02 The Marvelettes - Please Mr. Postman [02:29]
03 The Contours - Do You Love Me [02:52]
04 Mary Wells - You Beat Me To The Punch [02:44]
05 Mary Wells - Two Lovers [02:46]
06 The Miracles - You've Really Got A Hold On Me [03:11]
07 Little Stevie Wonder - Fingertips (Part 2) [03:11]
08 Martha & The Vandellas - Heat Wave [03:03]
09 The Temptations - The Way You Do The Things You Do [02:40]
10 Mary Wells - My Guy [02:51]
11 The Supremes - Where Did Our Love Go [02:31]
12 The Supremes - Baby Love [02:36]
13 The Supremes - Come See About Me [02:42]
14 The Temptations - My Girl [02:58]
15 Jr.Walker & The All-Stars - Shotgun [03:19]
16 The Supremes - Stop! In The Name Of Love [02:52]
17 Marvin Gaye - I'll Be Doggone [02:46]
18 The Supremes - Back In My Arms Again [02:53]
19 Four Tops - I Can't Help Myself [02:44]
20 The Supremes - I Hear A Symphony [02:43]
21 Marvin Gaye - Ain't That Peculiar [02:59]
22 Stevie Wonder - Uptight (Everything's Alright) [02:52]
23 The Temptations - Get Ready [02:38]
24 Martha & The Vandellas - Dancing In The Street [02:38]
25 Marvin Gaye - How Sweet It Is (To Be Loved By You) [02:56]
26 The Isley Brothers - This Old Heart Of Mine (Is Weak For You) [02:52]
27 Marvin Gaye - Wherever I Lay My Hat (That's My Home) [02:20]
CD TWO
01 The Tempations - Ain't Too Proud To Beg [02:31]
02 Stevie Wonder - Blowin' In The Wind [03:04]
03 The Supremes - You Can't Hurry Love [02:45]
04 The Temptations - Beauty Is Only Skin Deep [02:22]
05 Four Tops - Reach Out, I'll Be There [03:00]
06 The Supremes - You Keep Me Hangin' On [02:41]
07 The Temptations - (I Know) I'm Losing You [02:27]
08 The Marvelettes - The Hunter Gets Captured By Game [02:50]
09 The Supremes - Love Is Here And Now You're Gone [02:47]
10 Martha & The Vandellas - Jimmy Mack [02:53]
11 The Supremes - The Happening [02:50]
12 Stevie Wonder - I Was Made To Love Her [02:35]
13 Gladys Knight & The Pips - I Heard It Through The Grapevine [02:46]
14 Smokey Robinson & The Miracles - I Second That Emotion [02:46]
15 The Temptations - I Wish It Would Rain [02:45]
16 Stevie Wonder - Shoo-be-doo-be-doo-da-day [02:45]
17 Marvin Gaye & Tammy Terrell - Ain't Nothing Like The Real Thing [02:13]
18 The Temptations - I Could Never Love Another (After Loving You) [03:31]
19 Marvin Gaye & Tammi Terrell - You're All I Need To Get By [02:49]
20 Diana Ross & The Supremes - Love Child [02:55]
21 Marvin Gaye - I Heard It Through The Grapevine [03:13]
22 Stevie Wonder - For Once In My Life [02:48]
23 Diana Ross & The Supremes - I'm Gonna Make You Love Me [03:07]
24 Jimmy Ruffin - What Becomes Of The Brokenhearted [Bonus Track] [02:59]
25 Brenda Holloway - You've Made Me So Very Happy [02:51]
CD THREE
01 The Temptations - Runaway Child, Running Wild [04:46]
02 Marvin Gaye - Too Busy Thinking About My Baby [02:54]
03 Jr. Walker & All Stars - What Does It Take (To Win Your Love) [02:27]
04 The Temptations - I Can't Get Next To You [02:51]
05 The Originals - Baby, I'm For Real [03:21]
06 Diana Ross & The Supremes - Someday We'll Be Together [03:31]
07 The Jackson 5 - I Want You Back [02:58]
08 Stevie Wonder - Yester-Me, Yester-You, Yesterday [03:03]
09 The Jackson 5 - ABC [02:56]
10 Diana Ross - Reach Out And Touch (Somebody's Hand) [03:03]
11 Four Tops - It's All The Game [02:45]
12 The Jackson 5 - The Love You Save [03:03]
13 Rare Earth - Get Ready [02:51]
14 The Temptations - Ball Of Confusion (That's What The World Is Today) [04:04]
15 Stevie Wonder - Signed, Sealed, Delivered (I'm Yours) [02:38]
16 Edwin Starr - War [03:23]
17 Smokey Robinson & The Miracles - The Tears Of A Clown [U.K Version] [02:59]
18 Diana Ross - Ain't No Mountain High Enough [03:35]
19 The Jackson 5 - I'll Be There [03:56]
20 Stevie Wonder - Heaven Helo Us All [03:12]
21 Smokey Robinson & The Miracles - The Tears Of A Clown [U.S. Version] [03:04]
22 The Supremes - Stoned Love [04:06]
23 Gladys Knight & The Pips - If Were Your Woman [03:16]
CD FOUR
01 The Jackson 5 - Mama's Pearl [03:11]
02 The Temptations - Just My Imagination (Running Away With Me) [03:47]
03 Marvin Gaye - What's Going On [03:54]
04 The Jackson 5 - Never Can Say Goodbye [03:00]
05 Marvin Gaye - Mercy Mercy Me (The Ecology) [03:13]
06 Diana Ross - I'm Still Waiting [03:44]
07 The Undisputed Truth - Smiling Faces Sometimes [03:15]
08 Marvin Gaye - Inner City Blues (Make Me Wanna Holler) [05:26]
09 Michael Jackson - Got To Be There [03:23]
10 Michael Jackson - Rockin' Robin [02:33]
11 Michael Jackson - I Wanna Be Where You Are [02:58]
12 Michael Jackson - Ben [02:46]
13 The Temptations - Papa Was A Rollin' Stone [06:57]
14 Stevie Wonder - Superstition [04:27]
15 Gladys Knight & The Pips - Neither One Of Us (Wants To Be The First To Say Goodbye) [04:22]
16 The Temptations - Masterpiece [04:23]
17 Stevie Wonder - You Are The Sunshine Of My Life [02:51]
18 Diana Ross - Touch Me In The Morning [03:48]
19 Marvin Gaye - Let's Get It On [04:51]
CD FIVE
01 Stevie Wonder - Higher Ground [03:44]
02 Eddie Kendricks - Keep On Truckin' (Part 1) [03:33]
03 Stevie Wonder - Living For The City [07:24]
04 The Temptations - Let Your Hair Down [02:40]
05 Eddie Kendricks - Boogie Down [03:50]
06 Diana Ross - Last Time I Saw Him [02:48]
07 The Jackson 5 - Dancing Machine [02:36]
08 The Miracles - Do It Baby [03:03]
09 Stevie Wonder - You Haven't Done Nothin' [03:24]
10 Stevie Wonder - Boogie On Reggae Woman [04:11]
11 The Temptations - Happy People [03:37]
12 Eddie Kendricks - Shoeshine Boy [03:16]
13 The Temptations - Shakey Ground [04:02]
14 Smokey Robinson - Baby That's Backatcha [03:47]
15 The Commodores - Slippery When Wet [03:20]
16 The Jackson 5 - Forever Came Today [06:22]
17 David Ruffin - Walk Away From Love [05:30]
18 Diana Ross - Theme From Mahogamy (Do You Know Where You're Going To) [03:23]
19 T.G. Sheppard - Devil In The Bottle [02:47]
20 T.G. Sheppard - Tryin' To Beat The Morning Home [02:41]
CD SIX
01 The Miracles - Love Machine (Part 1) [02:59]
02 Diana Ross - Love Hangover [03:45]
03 Marvin Gaye - I Want You [03:54]
04 The Commodores - Just To Be Close To You [03:27]
05 The Originals - Down To Love Town [05:54]
06 Thelma Houston - Don't Leave Me This Way [05:42]
07 Stevie Wonder - I Wish [04:14]
08 Marvin Gaye - Got To Give It Up [04:11]
09 Stevie Wonder - Sir Duke [03:55]
10 The Commodores - Easy [04:19]
11 High Inergy - You Can't Turn Me Off (In Middle Of Turning Me On) [03:31]
12 The Commodores - Too Hot Ta Trot [03:30]
13 Rick James - You And I [03:10]
14 The Commodores - Three Times A Lady [03:38]
15 Diana Ross - The Boss [03:50]
16 The Commodores - Sail On [03:53]
17 The Commodores - Still [03:44]
18 Stevie Wonder - Send One Your Love [04:03]
19 Stevie Wonder - Pastime Paradise [Bonus Track] [03:27]
CD SEVEN
01 Smokey Robinson - Cruisin' [04:28]
02 Jermaine Jackson - Let's Get Serious [03:35]
03 Diana Ross - I'm Coming Home [05:20]
04 Diana Ross - Upside Down [04:04]
05 Stevie Wonder - Master Blaster (Jammin') [05:09]
06 Smokey Robinson - Being With You [04:00]
07 Rick James - Give It To Me Baby [04:08]
08 Rick James - Super Freak [03:26]
09 Michael Jackson - One Day In Your Life [04:12]
10 Diana Ross & Lionel Richie - Endless Love [04:28]
11 The Commodores - Lady (You Bring Me Up) [04:01]
12 Stevie Wonder - That Girl [05:13]
13 Dazz Band - Let It Whip [04:07]
14 Charlene - I've Never Been To Me [03:53]
15 Stevie Wonder - Do I Do [10:30]
16 Stevie Wonder - Lately [Bonus Track] [04:06]
CD EIGHT
01 Lionel Richie - Truly [03:19]
02 Lionel Richie - You Are [04:06]
03 Lionel Richie - My Love [04:05]
04 Debarge - All This Love [04:10]
05 Debarge - Cold Blooded [04:29]
06 Lionel Richie - All Night Long (All Night) [04:19]
07 Debarge - Time Will Reveal [04:14]
08 Rockwell - Somebody's Watching Me [03:57]
09 Lionel Richie - Hello [04:08]
10 Lionel Richie - Stuck On You [03:11]
11 Stevie Wonder - I Just Called To Say I Love You [04:23]
12 Lionel Richie - Penny Lover [03:46]
13 The Commodores - Nightshift [04:21]
14 Mary Jane Girls - In My House [03:56]
15 Debarge - Rhythm Of The Night [03:54]
16 Rick James - Glow [04:29]
17 El Debarge With Debarge - You Wear It Well [03:55]
18 Dennis Edwards featuring Seidah Garrett - Don't Look Any Further [04:03]
CD NINE
01 Stevie Wonder - Part-Time Lover [04:13]
02 Lionel Richie - Say You, Say Me [04:02]
03 Stevie Wonder - Go Home [04:10]
04 Val Young - If You Should Ever Be Lonely [04:15]
05 Stevie Wonder - Overjoyed [03:42]
06 El Debarge - Who's Johnny [04:09]
07 Lionel Richie - Dancing On The Ceiling [04:34]
08 Lionel Richie - Love Will Conquer All [04:17]
09 Lionel Richie - Ballerina Girl [03:38]
10 Smokey Robinson - Just To See Her [04:02]
11 Georgio - Tina Cherry [05:07]
12 Stevie Wonder - Skeletons [05:26]
13 Stevie Wonder - You Will Know [05:02]
14 The Boys - Dial My Heart [04:22]
15 The Boys - Lucky Charm [03:56]
16 Today - Girl I Got My Eyes On You [04:59]
17 Stacey Lattisaw With Special Guest Johnny Gill - Where Do We Go From Here [04:15]
18 The Guinn Family - Dreamin' [03:32]
CD TEN
01 Johnny Gill - Rub You The Right Way [04:15]
02 Johnny Gill - My My My [04:05]
03 The Boys - Crazy [04:04]
04 Johnny Gill - Wrap My Body Tight [03:44]
05 Boyz II Men - It's So Hard To Say Goodbye To Yesterday [03:09]
06 Shanice - I Love Your Smile [04:25]
07 Boyz II Men - Uhh Ahh [03:49]
08 Lionel Richie - Do It To Me [04:31]
09 Boyz II Men - End Of The Road [05:50]
10 Boyz II Men - I'll Make Love To You [03:55]
11 Boyz II Men - On Bended Knee [05:32]
12 Diana Ross - Take Me Higher [04:19]
13 Boyz II Men - 4 Seasons Of Loneliness [04:54]
14 Boyz II Men - A Song For Mama [05:04]
15 The Temptations - Stay [04:46]
16 Profyle - Liar [03:59]
17 Erykah Badu - Bag Lady [04:05]
 
Logs & CUE's
 
Log EAC CD 1
Exact Audio Copy V0.99 prebeta 4 from 23. January 2008
EAC extraction logfile from 17. January 2009, 20:15
Various / MOTOWN THE COMPLETE NO.1'S - Disc1
Used drive : HL-DT-STDVD+-RW GSA-H73N Adapter: 2 ID: 3
Read mode : Secure
Utilize accurate stream : Yes
Defeat audio cache : Yes
Make use of C2 pointers : No
Read offset correction : 102
Overread into Lead-In and Lead-Out : No
Fill up missing offset samples with silence : Yes
Delete leading and trailing silent blocks : No
Null samples used in CRC calculations : Yes
Used interface : Native Win32 interface for Win NT & 2000
Gap handling : Appended to previous track
Used output format : User Defined Encoder
Selected bitrate : 384 kBit/s
Quality : High
Add ID3 tag : No
Command line compressor : C:\Program Files\FLAC\flac.exe
Additional command line options : -V -8 -T "artist=%a" -T "title=%t" -T "album=%g" -T "date=%y" -T "tracknumber=%n" -T "genre=%m" %s
TOC of the extracted CD
Track | Start | Length | Start sector | End sector
---------------------------------------------------------
1 | 0:00.00 | 2:49.21 | 0 | 12695
2 | 2:49.21 | 2:29.07 | 12696 | 23877
3 | 5:18.28 | 2:52.60 | 23878 | 36837
4 | 8:11.13 | 2:44.64 | 36838 | 49201
5 | 10:56.02 | 2:46.11 | 49202 | 61662
6 | 13:42.13 | 3:11.65 | 61663 | 76052
7 | 16:54.03 | 3:11.20 | 76053 | 90397
8 | 20:05.23 | 3:03.63 | 90398 | 104185
9 | 23:09.11 | 2:40.37 | 104186 | 116222
10 | 25:49.48 | 2:51.39 | 116223 | 129086
11 | 28:41.12 | 2:31.64 | 129087 | 140475
12 | 31:13.01 | 2:36.43 | 140476 | 152218
13 | 33:49.44 | 2:42.57 | 152219 | 164425
14 | 36:32.26 | 2:58.09 | 164426 | 177784
15 | 39:30.35 | 3:19.31 | 177785 | 192740
16 | 42:49.66 | 2:52.03 | 192741 | 205643
17 | 45:41.69 | 2:46.55 | 205644 | 218148
18 | 48:28.49 | 2:53.63 | 218149 | 231186
19 | 51:22.37 | 2:44.44 | 231187 | 243530
20 | 54:07.06 | 2:43.43 | 243531 | 255798
21 | 56:50.49 | 2:59.12 | 255799 | 269235
22 | 59:49.61 | 2:52.66 | 269236 | 282201
23 | 62:42.52 | 2:38.25 | 282202 | 294076
24 | 65:21.02 | 2:38.58 | 294077 | 305984
25 | 67:59.60 | 2:56.31 | 305985 | 319215
26 | 70:56.16 | 2:52.61 | 319216 | 332176
27 | 73:49.02 | 2:20.68 | 332177 | 342744
Track 1
Filename D:\Various\MOTOWN THE COMPLETE NO.1'S - Disc1\01 - THE MIRACLES-Shop Around.wav
Pre-gap length 0:00:02.00
Peak level 98.8 %
Track quality 100.0 %
Test CRC 11679EB5
Copy CRC 11679EB5
Track not present in AccurateRip database
Copy OK
Track 2
Filename D:\Various\MOTOWN THE COMPLETE NO.1'S - Disc1\02 - THE MARVELETTES-Please Mr. Postman.wav
Peak level 94.3 %
Track quality 99.9 %
Test CRC C139C248
Copy CRC C139C248
Track not present in AccurateRip database
Copy OK
Track 3
Filename D:\Various\MOTOWN THE COMPLETE NO.1'S - Disc1\03 - THE CONTOURS-Do You Love Me.wav
Peak level 79.4 %
Track quality 100.0 %
Test CRC 7AA0352B
Copy CRC 7AA0352B
Track not present in AccurateRip database
Copy OK
Track 4
Filename D:\Various\MOTOWN THE COMPLETE NO.1'S - Disc1\04 - MARY WELLS-You Beat Me To The Punch.wav
Peak level 98.8 %
Track quality 100.0 %
Test CRC 77C4175A
Copy CRC 77C4175A
Track not present in AccurateRip database
Copy OK
Track 5
Filename D:\Various\MOTOWN THE COMPLETE NO.1'S - Disc1\05 - MARY WELLS-Two Lovers.wav
Peak level 88.0 %
Track quality 100.0 %
Test CRC 8E1D662E
Copy CRC 8E1D662E
Track not present in AccurateRip database
Copy OK
Track 6
Filename D:\Various\MOTOWN THE COMPLETE NO.1'S - Disc1\06 - THE MIRACLES-You've Really Got A Hold On Me.wav
Peak level 98.8 %
Track quality 100.0 %
Test CRC 80CBA668
Copy CRC 80CBA668
Track not present in AccurateRip database
Copy OK
Track 7
Filename D:\Various\MOTOWN THE COMPLETE NO.1'S - Disc1\07 - LITTLE STEVIE WONDER-Fingertips-Part2.wav
Peak level 92.2 %
Track quality 99.9 %
Test CRC 334F2847
Copy CRC 334F2847
Track not present in AccurateRip database
Copy OK
Track 8
Filename D:\Various\MOTOWN THE COMPLETE NO.1'S - Disc1\08 - MARTHA & THE VANDELLAS-Heat Wave.wav
Peak level 90.1 %
Track quality 100.0 %
Test CRC 93B44133
Copy CRC 93B44133
Track not present in AccurateRip database
Copy OK
Track 9
Filename D:\Various\MOTOWN THE COMPLETE NO.1'S - Disc1\09 - THE TEMPTATIONS-The Way You Do The Things You Do.wav
Peak level 71.2 %
Track quality 100.0 %
Test CRC CF33C804
Copy CRC CF33C804
Track not present in AccurateRip database
Copy OK
Track 10
Filename D:\Various\MOTOWN THE COMPLETE NO.1'S - Disc1\10 - MARY WELLS-My Guy.wav
Peak level 100.0 %
Track quality 100.0 %
Test CRC 405E3BE9
Copy CRC 405E3BE9
Track not present in AccurateRip database
Copy OK
Track 11
Filename D:\Various\MOTOWN THE COMPLETE NO.1'S - Disc1\11 - THE SUPREMES-Where Did Our Love Go.wav
Peak level 96.1 %
Track quality 100.0 %
Test CRC 4FA5111A
Copy CRC 4FA5111A
Track not present in AccurateRip database
Copy OK
Track 12
Filename D:\Various\MOTOWN THE COMPLETE NO.1'S - Disc1\12 - THE SUPREMES-Baby Love.wav
Peak level 96.7 %
Track quality 100.0 %
Test CRC 5D51A30E
Copy CRC 5D51A30E
Track not present in AccurateRip database
Copy OK
Track 13
Filename D:\Various\MOTOWN THE COMPLETE NO.1'S - Disc1\13 - THE SUPREMES-Come See About Me.wav
Peak level 97.2 %
Track quality 100.0 %
Test CRC 197A2C7B
Copy CRC 197A2C7B
Track not present in AccurateRip database
Copy OK
Track 14
Filename D:\Various\MOTOWN THE COMPLETE NO.1'S - Disc1\14 - THE TEMPTATIONS-My Girl.wav
Peak level 97.7 %
Track quality 100.0 %
Test CRC 89EC5D83
Copy CRC 89EC5D83
Track not present in AccurateRip database
Copy OK
Track 15
Filename D:\Various\MOTOWN THE COMPLETE NO.1'S - Disc1\15 - JR.WALKER & THE ALL-STARS-Shotgun.wav
Peak level 69.9 %
Track quality 100.0 %
Test CRC BE9BE9CC
Copy CRC BE9BE9CC
Track not present in AccurateRip database
Copy OK
Track 16
Filename D:\Various\MOTOWN THE COMPLETE NO.1'S - Disc1\16 - THE SUPREMES-Stop!In The Name Of Love.wav
Peak level 100.0 %
Track quality 100.0 %
Test CRC 59B76A2B
Copy CRC 59B76A2B
Track not present in AccurateRip database
Copy OK
Track 17
Filename D:\Various\MOTOWN THE COMPLETE NO.1'S - Disc1\17 - MARVIN GAYE-I'll Be Doggone.wav
Peak level 97.9 %
Track quality 100.0 %
Test CRC 6EF61F98
Copy CRC 6EF61F98
Track not present in AccurateRip database
Copy OK
Track 18
Filename D:\Various\MOTOWN THE COMPLETE NO.1'S - Disc1\18 - THE SUPREMES-Back In My Arms Again.wav
Peak level 97.3 %
Track quality 100.0 %
Test CRC 27D723F0
Copy CRC 27D723F0
Track not present in AccurateRip database
Copy OK
Track 19
Filename D:\Various\MOTOWN THE COMPLETE NO.1'S - Disc1\19 - FOUR TOPS-I Can't Help Myself.wav
Peak level 100.0 %
Track quality 100.0 %
Test CRC 8558A63E
Copy CRC 8558A63E
Track not present in AccurateRip database
Copy OK
Track 20
Filename D:\Various\MOTOWN THE COMPLETE NO.1'S - Disc1\20 - THE SUPREMES-I Hear A Simphony.wav
Peak level 100.0 %
Track quality 100.0 %
Test CRC 4143DA79
Copy CRC 4143DA79
Track not present in AccurateRip database
Copy OK
Track 21
Filename D:\Various\MOTOWN THE COMPLETE NO.1'S - Disc1\21 - MARVIN GAYE-Ain't That Peculiar.wav
Peak level 87.5 %
Track quality 100.0 %
Test CRC F3FC46BF
Copy CRC F3FC46BF
Track not present in AccurateRip database
Copy OK
Track 22
Filename D:\Various\MOTOWN THE COMPLETE NO.1'S - Disc1\22 - STEVIE WONDER-Uptight(Everything's Alright).wav
Peak level 92.2 %
Track quality 100.0 %
Test CRC 571BD7E3
Copy CRC 571BD7E3
Track not present in AccurateRip database
Copy OK
Track 23
Filename D:\Various\MOTOWN THE COMPLETE NO.1'S - Disc1\23 - THE TEMPTATIONS-Get Ready.wav
Peak level 69.5 %
Track quality 100.0 %
Test CRC 158FFF1F
Copy CRC 158FFF1F
Track not present in AccurateRip database
Copy OK
Track 24
Filename D:\Various\MOTOWN THE COMPLETE NO.1'S - Disc1\24 - MARTHA & THE VANDELLAS-Dancing In The Street.wav
Peak level 80.7 %
Track quality 100.0 %
Test CRC AC505D55
Copy CRC AC505D55
Track not present in AccurateRip database
Copy OK
Track 25
Filename D:\Various\MOTOWN THE COMPLETE NO.1'S - Disc1\25 - MARVIN GAYE-How Sweet It Is(To Be Loved By You).wav
Peak level 93.2 %
Track quality 100.0 %
Test CRC 4612F99D
Copy CRC 4612F99D
Track not present in AccurateRip database
Copy OK
Track 26
Filename D:\Various\MOTOWN THE COMPLETE NO.1'S - Disc1\26 - THE ISLEY BROTHERS-This Old Heart Of Mine(Is Weak For You).wav
Peak level 100.0 %
Track quality 100.0 %
Test CRC A830D7C4
Copy CRC A830D7C4
Track not present in AccurateRip database
Copy OK
Track 27
Filename D:\Various\MOTOWN THE COMPLETE NO.1'S - Disc1\27 - MARVIN GAYE-Wherever I Lay My Hat(That's My Home).wav
Peak level 100.0 %
Track quality 100.0 %
Test CRC ECB470FB
Copy CRC ECB470FB
Track not present in AccurateRip database
Copy OK
None of the tracks are present in the AccurateRip database
No errors occurred
End of status report
 
CUE
REM GENRE Soul
REM DATE 2008
REM DISCID 6D11D91B
REM COMMENT "ExactAudioCopy v0.99pb4"
PERFORMER "Various Artists"
TITLE "The Complete Motown #1s Box - Disc 01"
FILE "01 - The Miracles - Shop Around.flac" WAVE
TRACK 01 AUDIO
TITLE "Shop Around"
PERFORMER "The Miracles"
INDEX 01 00:00:00
FILE "02 - The Marvelettes - Please Mr. Postman.flac" WAVE
TRACK 02 AUDIO
TITLE "Please Mr. Postman"
PERFORMER "The Marvelettes"
INDEX 01 00:00:00
FILE "03 - The Contours - Do You Love Me.flac" WAVE
TRACK 03 AUDIO
TITLE "Do You Love Me"
PERFORMER "The Contours"
INDEX 01 00:00:00
FILE "04 - Mary Wells - You Beat Me To The Punch.flac" WAVE
TRACK 04 AUDIO
TITLE "You Beat Me To The Punch"
PERFORMER "Mary Wells"
INDEX 01 00:00:00
FILE "05 - Mary Wells - Two Lovers.flac" WAVE
TRACK 05 AUDIO
TITLE "Two Lovers"
PERFORMER "Mary Wells"
INDEX 01 00:00:00
FILE "06 - The Miracles - You've Really Got A Hold On Me.flac" WAVE
TRACK 06 AUDIO
TITLE "You've Really Got A Hold On Me"
PERFORMER "The Miracles"
INDEX 01 00:00:00
FILE "07 - Little Stevie Wonder - Fingertips (Part 2).flac" WAVE
TRACK 07 AUDIO
TITLE "Fingertips (Part 2)"
PERFORMER "Little Stevie Wonder"
INDEX 01 00:00:00
FILE "08 - Martha & The Vandellas - Heat Wave.flac" WAVE
TRACK 08 AUDIO
TITLE "Heat Wave"
PERFORMER "Martha & The Vandellas"
INDEX 01 00:00:00
FILE "09 - The Temptations - The Way You Do The Things You Do.flac" WAVE
TRACK 09 AUDIO
TITLE "The Way You Do The Things You Do"
PERFORMER "The Temptations"
INDEX 01 00:00:00
FILE "10 - Mary Wells - My Guy.flac" WAVE
TRACK 10 AUDIO
TITLE "My Guy"
PERFORMER "Mary Wells"
INDEX 01 00:00:00
FILE "11 - The Supremes - Where Did Our Love Go.flac" WAVE
TRACK 11 AUDIO
TITLE "Where Did Our Love Go"
PERFORMER "The Supremes"
INDEX 01 00:00:00
FILE "12 - The Supremes - Baby Love.flac" WAVE
TRACK 12 AUDIO
TITLE "Baby Love"
PERFORMER "The Supremes"
INDEX 01 00:00:00
FILE "13 - The Supremes - Come See About Me.flac" WAVE
TRACK 13 AUDIO
TITLE "Come See About Me"
PERFORMER "The Supremes"
INDEX 01 00:00:00
FILE "14 - The Temptations - My Girl.flac" WAVE
TRACK 14 AUDIO
TITLE "My Girl"
PERFORMER "The Temptations"
INDEX 01 00:00:00
FILE "15 - Jr.Walker & The All-Stars - Shotgun.flac" WAVE
TRACK 15 AUDIO
TITLE "Shotgun"
PERFORMER "Jr.Walker & The All-Stars"
INDEX 01 00:00:00
FILE "16 - The Supremes - Stop! In The Name Of Love.flac" WAVE
TRACK 16 AUDIO
TITLE "Stop! In The Name Of Love"
PERFORMER "The Supremes"
INDEX 01 00:00:00
FILE "17 - Marvin Gaye - I'll Be Doggone.flac" WAVE
TRACK 17 AUDIO
TITLE "I'll Be Doggone"
PERFORMER "Marvin Gaye"
INDEX 01 00:00:00
FILE "18 - The Supremes - Back In My Arms Again.flac" WAVE
TRACK 18 AUDIO
TITLE "Back In My Arms Again"
PERFORMER "The Supremes"
INDEX 01 00:00:00
FILE "19 - Four Tops - I Can't Help Myself.flac" WAVE
TRACK 19 AUDIO
TITLE "I Can't Help Myself"
PERFORMER "Four Tops"
INDEX 01 00:00:00
FILE "20 - The Supremes - I Hear A Symphony.flac" WAVE
TRACK 20 AUDIO
TITLE "I Hear A Symphony"
PERFORMER "The Supremes"
INDEX 01 00:00:00
FILE "21 - Marvin Gaye - Ain't That Peculiar.flac" WAVE
TRACK 21 AUDIO
TITLE "Ain't That Peculiar"
PERFORMER "Marvin Gaye"
INDEX 01 00:00:00
FILE "22 - Stevie Wonder - Uptight (Everything's Alright).flac" WAVE
TRACK 22 AUDIO
TITLE "Uptight (Everything's Alright)"
PERFORMER "Stevie Wonder"
INDEX 01 00:00:00
FILE "23 - The Temptations - Get Ready.flac" WAVE
TRACK 23 AUDIO
TITLE "Get Ready"
PERFORMER "The Temptations"
INDEX 01 00:00:00
FILE "24 - Martha & The Vandellas - Dancing In The Street.flac" WAVE
TRACK 24 AUDIO
TITLE "Dancing In The Street"
PERFORMER "Martha & The Vandellas"
INDEX 01 00:00:00
FILE "25 - Marvin Gaye - How Sweet It Is (To Be Loved By You).flac" WAVE
TRACK 25 AUDIO
TITLE "How Sweet It Is(To Be Loved By You)"
PERFORMER "Marvin Gaye"
INDEX 01 00:00:00
FILE "26 - The Isley Brothers - This Old Heart Of Mine (Is Weak For You).flac" WAVE
TRACK 26 AUDIO
TITLE "This Old Heart Of Mine (Is Weak For You)"
PERFORMER "The Isley Brothers"
INDEX 01 00:00:00
FILE "27 - Marvin Gaye - Wherever I Lay My Hat (That's My Home).flac" WAVE
TRACK 27 AUDIO
TITLE "Wherever I Lay My Hat(That's My Home)"
PERFORMER "Marvin Gaye"
INDEX 01 00:00:00
 
Log EAC CD 2
Exact Audio Copy V0.99 prebeta 4 from 23. January 2008
EAC extraction logfile from 17. January 2009, 21:26
Various / MOTOWN - The Complete No. 1's Disc2
Used drive : HL-DT-STDVD+-RW GSA-H73N Adapter: 2 ID: 3
Read mode : Secure
Utilize accurate stream : Yes
Defeat audio cache : Yes
Make use of C2 pointers : No
Read offset correction : 102
Overread into Lead-In and Lead-Out : No
Fill up missing offset samples with silence : Yes
Delete leading and trailing silent blocks : No
Null samples used in CRC calculations : Yes
Used interface : Native Win32 interface for Win NT & 2000
Gap handling : Appended to previous track
Used output format : User Defined Encoder
Selected bitrate : 384 kBit/s
Quality : High
Add ID3 tag : No
Command line compressor : C:\Program Files\FLAC\flac.exe
Additional command line options : -V -8 -T "artist=%a" -T "title=%t" -T "album=%g" -T "date=%y" -T "tracknumber=%n" -T "genre=%m" %s
TOC of the extracted CD
Track | Start | Length | Start sector | End sector
---------------------------------------------------------
1 | 0:00.00 | 2:31.65 | 0 | 11389
2 | 2:31.65 | 3:04.26 | 11390 | 25215
3 | 5:36.16 | 2:45.55 | 25216 | 37645
4 | 8:21.71 | 2:22.50 | 37646 | 48345
5 | 10:44.46 | 3:00.45 | 48346 | 61890
6 | 13:45.16 | 2:41.38 | 61891 | 74003
7 | 16:26.54 | 2:27.65 | 74004 | 85093
8 | 18:54.44 | 2:50.69 | 85094 | 97912
9 | 21:45.38 | 2:47.19 | 97913 | 110456
10 | 24:32.57 | 2:53.09 | 110457 | 123440
11 | 27:25.66 | 2:50.50 | 123441 | 136240
12 | 30:16.41 | 2:35.57 | 136241 | 147922
13 | 32:52.23 | 2:46.53 | 147923 | 160425
14 | 35:39.01 | 2:46.34 | 160426 | 172909
15 | 38:25.35 | 2:45.55 | 172910 | 185339
16 | 41:11.15 | 2:45.33 | 185340 | 197747
17 | 43:56.48 | 2:13.50 | 197748 | 207772
18 | 46:10.23 | 3:31.68 | 207773 | 223665
19 | 49:42.16 | 2:49.21 | 223666 | 236361
20 | 52:31.37 | 2:55.37 | 236362 | 249523
21 | 55:26.74 | 3:13.41 | 249524 | 264039
22 | 58:40.40 | 2:48.24 | 264040 | 276663
23 | 61:28.64 | 3:07.08 | 276664 | 290696
24 | 64:35.72 | 2:59.57 | 290697 | 304178
25 | 67:35.54 | 2:51.56 | 304179 | 317059
Track 1
Filename D:\Various\MOTOWN - The Complete No. 1's Disc2\01 - Ain't Too Proud To Beg.wav
Pre-gap length 0:00:02.00
Peak level 82.0 %
Track quality 100.0 %
Test CRC 2307429A
Copy CRC 2307429A
Track not present in AccurateRip database
Copy OK
Track 2
Filename D:\Various\MOTOWN - The Complete No. 1's Disc2\02 - Blowin' In The Wind.wav
Peak level 83.3 %
Track quality 100.0 %
Test CRC 0F591FA6
Copy CRC 0F591FA6
Track not present in AccurateRip database
Copy OK
Track 3
Filename D:\Various\MOTOWN - The Complete No. 1's Disc2\03 - You Can't Hurry Love.wav
Peak level 72.7 %
Track quality 100.0 %
Test CRC 97783FC9
Copy CRC 97783FC9
Track not present in AccurateRip database
Copy OK
Track 4
Filename D:\Various\MOTOWN - The Complete No. 1's Disc2\04 - Beauty Is Only Skin Deep.wav
Peak level 66.0 %
Track quality 100.0 %
Test CRC 5C6B5FE1
Copy CRC 5C6B5FE1
Track not present in AccurateRip database
Copy OK
Track 5
Filename D:\Various\MOTOWN - The Complete No. 1's Disc2\05 - Reach Out, I'll Be There.wav
Peak level 86.5 %
Track quality 100.0 %
Test CRC 2337466F
Copy CRC 2337466F
Track not present in AccurateRip database
Copy OK
Track 6
Filename D:\Various\MOTOWN - The Complete No. 1's Disc2\06 - You Keep Me Hangin' On.wav
Peak level 100.0 %
Track quality 100.0 %
Test CRC E9CA380B
Copy CRC E9CA380B
Track not present in AccurateRip database
Copy OK
Track 7
Filename D:\Various\MOTOWN - The Complete No. 1's Disc2\07 - (I Know) I'm Losing You.wav
Peak level 75.7 %
Track quality 100.0 %
Test CRC A499D66A
Copy CRC A499D66A
Track not present in AccurateRip database
Copy OK
Track 8
Filename D:\Various\MOTOWN - The Complete No. 1's Disc2\08 - The Hunter Gets Captured By Game.wav
Peak level 100.0 %
Track quality 100.0 %
Test CRC 7DAE93A9
Copy CRC 7DAE93A9
Track not present in AccurateRip database
Copy OK
Track 9
Filename D:\Various\MOTOWN - The Complete No. 1's Disc2\09 - Love Is Here And Now You're Gone.wav
Peak level 93.3 %
Track quality 100.0 %
Test CRC 1BDAA888
Copy CRC 1BDAA888
Track not present in AccurateRip database
Copy OK
Track 10
Filename D:\Various\MOTOWN - The Complete No. 1's Disc2\10 - Jimmy Mack.wav
Peak level 88.8 %
Track quality 100.0 %
Test CRC EEF8440B
Copy CRC EEF8440B
Track not present in AccurateRip database
Copy OK
Track 11
Filename D:\Various\MOTOWN - The Complete No. 1's Disc2\11 - The Happening.wav
Peak level 87.1 %
Track quality 99.9 %
Test CRC 6363B321
Copy CRC 6363B321
Track not present in AccurateRip database
Copy OK
Track 12
Filename D:\Various\MOTOWN - The Complete No. 1's Disc2\12 - I Was Made To Love Her.wav
Peak level 100.0 %
Track quality 100.0 %
Test CRC E221583B
Copy CRC E221583B
Track not present in AccurateRip database
Copy OK
Track 13
Filename D:\Various\MOTOWN - The Complete No. 1's Disc2\13 - I Heard It Through The Grapevine.wav
Peak level 98.8 %
Track quality 99.9 %
Test CRC 7FCF6838
Copy CRC 7FCF6838
Track not present in AccurateRip database
Copy OK
Track 14
Filename D:\Various\MOTOWN - The Complete No. 1's Disc2\14 - I Second That Emotion.wav
Peak level 100.0 %
Track quality 100.0 %
Test CRC 73ACE3B3
Copy CRC 73ACE3B3
Track not present in AccurateRip database
Copy OK
Track 15
Filename D:\Various\MOTOWN - The Complete No. 1's Disc2\15 - I Wish It Would Rain.wav
Peak level 98.8 %
Track quality 100.0 %
Test CRC 6253DE0F
Copy CRC 6253DE0F
Track not present in AccurateRip database
Copy OK
Track 16
Filename D:\Various\MOTOWN - The Complete No. 1's Disc2\16 - Shoo-Be-Doo-Be-Doo-Da-Day.wav
Peak level 79.8 %
Track quality 100.0 %
Test CRC 8390E64E
Copy CRC 8390E64E
Track not present in AccurateRip database
Copy OK
Track 17
Filename D:\Various\MOTOWN - The Complete No. 1's Disc2\17 - Ain't Nothing Like The Real Thing.wav
Peak level 99.9 %
Track quality 100.0 %
Test CRC D15423F6
Copy CRC D15423F6
Track not present in AccurateRip database
Copy OK
Track 18
Filename D:\Various\MOTOWN - The Complete No. 1's Disc2\18 - I Could Never Love Another (After Loving You).wav
Peak level 72.3 %
Track quality 100.0 %
Test CRC 46885F4F
Copy CRC 46885F4F
Track not present in AccurateRip database
Copy OK
Track 19
Filename D:\Various\MOTOWN - The Complete No. 1's Disc2\19 - You're All I Need To Get By.wav
Peak level 95.5 %
Track quality 100.0 %
Test CRC E03D2085
Copy CRC E03D2085
Track not present in AccurateRip database
Copy OK
Track 20
Filename D:\Various\MOTOWN - The Complete No. 1's Disc2\20 - Love Child.wav
Peak level 86.7 %
Track quality 100.0 %
Test CRC ACAC6410
Copy CRC ACAC6410
Track not present in AccurateRip database
Copy OK
Track 21
Filename D:\Various\MOTOWN - The Complete No. 1's Disc2\21 - I Heard It Through The Grapevine.wav
Peak level 100.0 %
Track quality 100.0 %
Test CRC 78F6CE8E
Copy CRC 78F6CE8E
Track not present in AccurateRip database
Copy OK
Track 22
Filename D:\Various\MOTOWN - The Complete No. 1's Disc2\22 - For Once In My Life.wav
Peak level 95.3 %
Track quality 99.9 %
Test CRC C5047DE8
Copy CRC C5047DE8
Track not present in AccurateRip database
Copy OK
Track 23
Filename D:\Various\MOTOWN - The Complete No. 1's Disc2\23 - I'm Gonna Make You Love Me.wav
Peak level 81.7 %
Track quality 100.0 %
Test CRC 5E16712A
Copy CRC 5E16712A
Track not present in AccurateRip database
Copy OK
Track 24
Filename D:\Various\MOTOWN - The Complete No. 1's Disc2\24 - What Becomes Of The Brokenhearted [Bonus Track].wav
Peak level 100.0 %
Track quality 100.0 %
Test CRC 5CA3C832
Copy CRC 5CA3C832
Track not present in AccurateRip database
Copy OK
Track 25
Filename D:\Various\MOTOWN - The Complete No. 1's Disc2\25 - You've Made Me So Very Happy.wav
Peak level 100.0 %
Track quality 100.0 %
Test CRC 47D6EE08
Copy CRC 47D6EE08
Track not present in AccurateRip database
Copy OK
None of the tracks are present in the AccurateRip database
No errors occurred
End of status report
 
CUE
REM GENRE Soul
REM DATE 2008
REM DISCID 7E108319
REM COMMENT "ExactAudioCopy v0.99pb4"
PERFORMER "Various Artists"
TITLE "The Complete Motown #1s Box - Disc 02"
FILE "01 - The Tempations - Ain't Too Proud To Beg.flac" WAVE
TRACK 01 AUDIO
TITLE "Ain't Too Proud To Beg"
PERFORMER "The Tempations"
INDEX 01 00:00:00
FILE "02 - Stevie Wonder - Blowin' In The Wind.flac" WAVE
TRACK 02 AUDIO
TITLE "Blowin' In The Wind"
PERFORMER "Stevie Wonder"
INDEX 01 00:00:00
FILE "03 - The Supremes - You Can't Hurry Love.flac" WAVE
TRACK 03 AUDIO
TITLE "You Can't Hurry Love"
PERFORMER "The Supremes"
INDEX 01 00:00:00
FILE "04 - The Temptations - Beauty Is Only Skin Deep.flac" WAVE
TRACK 04 AUDIO
TITLE "Beauty Is Only Skin Deep"
PERFORMER "The Temptations"
INDEX 01 00:00:00
FILE "05 - Four Tops - Reach Out, I'll Be There.flac" WAVE
TRACK 05 AUDIO
TITLE "Reach Out, I'll Be There"
PERFORMER "Four Tops"
INDEX 01 00:00:00
FILE "06 - The Supremes - You Keep Me Hangin' On.flac" WAVE
TRACK 06 AUDIO
TITLE "You Keep Me Hangin' On"
PERFORMER "The Supremes"
INDEX 01 00:00:00
FILE "07 - The Temptations - (I Know) I'm Losing You.flac" WAVE
TRACK 07 AUDIO
TITLE "(I Know) I'm Losing You"
PERFORMER "The Temptations"
INDEX 01 00:00:00
FILE "08 - The Marvelettes - The Hunter Gets Captured By Game.flac" WAVE
TRACK 08 AUDIO
TITLE "The Hunter Gets Captured By Game"
PERFORMER "The Marvelettes"
INDEX 01 00:00:00
FILE "09 - The Supremes - Love Is Here And Now You're Gone.flac" WAVE
TRACK 09 AUDIO
TITLE "Love Is Here And Now You're Gone"
PERFORMER "The Supremes"
INDEX 01 00:00:00
FILE "10 - Martha & The Vandellas - Jimmy Mack.flac" WAVE
TRACK 10 AUDIO
TITLE "Jimmy Mack"
PERFORMER "Martha & The Vandellas"
INDEX 01 00:00:00
FILE "11 - The Supremes - The Happening.flac" WAVE
TRACK 11 AUDIO
TITLE "The Happening"
PERFORMER "The Supremes"
INDEX 01 00:00:00
FILE "12 - Stevie Wonder - I Was Made To Love Her.flac" WAVE
TRACK 12 AUDIO
TITLE "I Was Made To Love Her"
PERFORMER "Stevie Wonder"
INDEX 01 00:00:00
FILE "13 - Gladys Knight & The Pips - I Heard It Through The Grapevine.flac" WAVE
TRACK 13 AUDIO
TITLE "I Heard It Through The Grapevine"
PERFORMER "Gladys Knight & The Pips"
INDEX 01 00:00:00
FILE "14 - Smokey Robinson & The Miracles - I Second That Emotion.flac" WAVE
TRACK 14 AUDIO
TITLE "I Second That Emotion"
PERFORMER "Smokey Robinson & The Miracles"
INDEX 01 00:00:00
FILE "15 - The Temptations - I Wish It Would Rain.flac" WAVE
TRACK 15 AUDIO
TITLE "I Wish It Would Rain"
PERFORMER "The Temptations"
INDEX 01 00:00:00
FILE "16 - Stevie Wonder - Shoo-be-doo-be-doo-da-day.flac" WAVE
TRACK 16 AUDIO
TITLE "Shoo-Be-Doo-Be-Doo-Da-Day"
PERFORMER "Stevie Wonder"
INDEX 01 00:00:00
FILE "17 - Marvin Gaye & Tammy Terrell - Ain't Nothing Like The Real Thing.flac" WAVE
TRACK 17 AUDIO
TITLE "Ain't Nothing Like The Real Thing"
PERFORMER "Marvin Gaye & Tammy Terrell"
INDEX 01 00:00:00
FILE "18 - The Temptations - I Could Never Love Another (After Loving You).flac" WAVE
TRACK 18 AUDIO
TITLE "I Could Never Love Another (After Loving You)"
PERFORMER "The Temptations"
INDEX 01 00:00:00
FILE "19 - Marvin Gaye & Tammi Terrell - You're All I Need To Get By.flac" WAVE
TRACK 19 AUDIO
TITLE "You're All I Need To Get By"
PERFORMER "Marvin Gaye & Tammi Terrell"
INDEX 01 00:00:00
FILE "20 - Diana Ross & The Supremes - Love Child.flac" WAVE
TRACK 20 AUDIO
TITLE "Love Child"
PERFORMER "Diana Ross & The Supremes"
INDEX 01 00:00:00
FILE "21 - Marvin Gaye - I Heard It Through The Grapevine.flac" WAVE
TRACK 21 AUDIO
TITLE "I Heard It Through The Grapevine"
PERFORMER "Marvin Gaye"
INDEX 01 00:00:00
FILE "22 - Stevie Wonder - For Once In My Life.flac" WAVE
TRACK 22 AUDIO
TITLE "For Once In My Life"
PERFORMER "Stevie Wonder"
INDEX 01 00:00:00
FILE "23 - Diana Ross & The Supremes - I'm Gonna Make You Love Me.flac" WAVE
TRACK 23 AUDIO
TITLE "I'm Gonna Make You Love Me"
PERFORMER "Diana Ross & The Supremes"
INDEX 01 00:00:00
FILE "24 - Jimmy Ruffin - What Becomes Of The Brokenhearted [Bonus Track].flac" WAVE
TRACK 24 AUDIO
TITLE "What Becomes Of The Brokenhearted [Bonus Track]"
PERFORMER "Jimmy Ruffin"
INDEX 01 00:00:00
FILE "25 - Brenda Holloway - You've Made Me So Very Happy.flac" WAVE
TRACK 25 AUDIO
TITLE "You've Made Me So Very Happy"
PERFORMER "Brenda Holloway"
INDEX 01 00:00:00
 
Log EAC CD 3
Exact Audio Copy V0.99 prebeta 4 from 23. January 2008
EAC extraction logfile from 17. January 2009, 22:30
Various / MOTOWN - The Complete NO. 1's Disc3
Used drive : HL-DT-STDVD+-RW GSA-H73N Adapter: 2 ID: 3
Read mode : Secure
Utilize accurate stream : Yes
Defeat audio cache : Yes
Make use of C2 pointers : No
Read offset correction : 102
Overread into Lead-In and Lead-Out : No
Fill up missing offset samples with silence : Yes
Delete leading and trailing silent blocks : No
Null samples used in CRC calculations : Yes
Used interface : Native Win32 interface for Win NT & 2000
Gap handling : Appended to previous track
Used output format : User Defined Encoder
Selected bitrate : 384 kBit/s
Quality : High
Add ID3 tag : No
Command line compressor : C:\Program Files\FLAC\flac.exe
Additional command line options : -V -8 -T "artist=%a" -T "title=%t" -T "album=%g" -T "date=%y" -T "tracknumber=%n" -T "genre=%m" %s
TOC of the extracted CD
Track | Start | Length | Start sector | End sector
---------------------------------------------------------
1 | 0:00.00 | 4:46.37 | 0 | 21486
2 | 4:46.37 | 2:54.33 | 21487 | 34569
3 | 7:40.70 | 2:27.25 | 34570 | 45619
4 | 10:08.20 | 2:51.74 | 45620 | 58518
5 | 13:00.19 | 3:21.38 | 58519 | 73631
6 | 16:21.57 | 3:31.58 | 73632 | 89514
7 | 19:53.40 | 2:58.68 | 89515 | 102932
8 | 22:52.33 | 3:03.23 | 102933 | 116680
9 | 25:55.56 | 2:56.72 | 116681 | 129952
10 | 28:52.53 | 3:03.74 | 129953 | 143751
11 | 31:56.52 | 2:45.06 | 143752 | 156132
12 | 34:41.58 | 3:03.04 | 156133 | 169861
13 | 37:44.62 | 2:51.29 | 169862 | 182715
14 | 40:36.16 | 4:04.17 | 182716 | 201032
15 | 44:40.33 | 2:38.54 | 201033 | 212936
16 | 47:19.12 | 3:23.27 | 212937 | 228188
17 | 50:42.39 | 2:59.64 | 228189 | 241677
18 | 53:42.28 | 3:35.24 | 241678 | 257826
19 | 57:17.52 | 3:56.27 | 257827 | 275553
20 | 61:14.04 | 3:12.17 | 275554 | 289970
21 | 64:26.21 | 3:04.01 | 289971 | 303771
22 | 67:30.22 | 4:06.74 | 303772 | 322295
23 | 71:37.21 | 3:16.03 | 322296 | 336998
Track 1
Filename D:\Various\MOTOWN - The Complete NO. 1's Disc3\01 - Runaway Child, Running Wild.wav
Pre-gap length 0:00:02.00
Peak level 66.7 %
Track quality 100.0 %
Test CRC 2CFEF413
Copy CRC 2CFEF413
Track not present in AccurateRip database
Copy OK
Track 2
Filename D:\Various\MOTOWN - The Complete NO. 1's Disc3\02 - Too Busy Thinking About My Baby.wav
Peak level 94.4 %
Track quality 100.0 %
Test CRC 12D5A036
Copy CRC 12D5A036
Track not present in AccurateRip database
Copy OK
Track 3
Filename D:\Various\MOTOWN - The Complete NO. 1's Disc3\03 - What Does It Take (To Win Your Love).wav
Peak level 70.6 %
Track quality 100.0 %
Test CRC 959355FB
Copy CRC 959355FB
Track not present in AccurateRip database
Copy OK
Track 4
Filename D:\Various\MOTOWN - The Complete NO. 1's Disc3\04 - I Can't Get Next To You.wav
Peak level 86.0 %
Track quality 99.9 %
Test CRC 7527602E
Copy CRC 7527602E
Track not present in AccurateRip database
Copy OK
Track 5
Filename D:\Various\MOTOWN - The Complete NO. 1's Disc3\05 - Baby, I'm For Real.wav
Peak level 98.8 %
Track quality 100.0 %
Test CRC 9B4BC81F
Copy CRC 9B4BC81F
Track not present in AccurateRip database
Copy OK
Track 6
Filename D:\Various\MOTOWN - The Complete NO. 1's Disc3\06 - Someday We'll Be Together.wav
Peak level 91.6 %
Track quality 100.0 %
Test CRC 50450251
Copy CRC 50450251
Track not present in AccurateRip database
Copy OK
Track 7
Filename D:\Various\MOTOWN - The Complete NO. 1's Disc3\07 - I Want You Back.wav
Peak level 72.7 %
Track quality 100.0 %
Test CRC CF261812
Copy CRC CF261812
Track not present in AccurateRip database
Copy OK
Track 8
Filename D:\Various\MOTOWN - The Complete NO. 1's Disc3\08 - Yester-Me, Yester-You, Yesterday.wav
Peak level 80.8 %
Track quality 99.9 %
Test CRC 9C056FF7
Copy CRC 9C056FF7
Track not present in AccurateRip database
Copy OK
Track 9
Filename D:\Various\MOTOWN - The Complete NO. 1's Disc3\09 - ABC.wav
Peak level 86.0 %
Track quality 99.9 %
Test CRC AFC30606
Copy CRC AFC30606
Track not present in AccurateRip database
Copy OK
Track 10
Filename D:\Various\MOTOWN - The Complete NO. 1's Disc3\10 - Reach Out And Touch (Somebody's Hand).wav
Peak level 98.8 %
Track quality 100.0 %
Test CRC 5DE98F85
Copy CRC 5DE98F85
Track not present in AccurateRip database
Copy OK
Track 11
Filename D:\Various\MOTOWN - The Complete NO. 1's Disc3\11 - It's All The Game.wav
Peak level 98.8 %
Track quality 100.0 %
Test CRC 53124346
Copy CRC 53124346
Track not present in AccurateRip database
Copy OK
Track 12
Filename D:\Various\MOTOWN - The Complete NO. 1's Disc3\12 - The Love You Save.wav
Peak level 80.6 %
Track quality 100.0 %
Test CRC 5D874763
Copy CRC 5D874763
Track not present in AccurateRip database
Copy OK
Track 13
Filename D:\Various\MOTOWN - The Complete NO. 1's Disc3\13 - Get Ready.wav
Peak level 100.0 %
Track quality 100.0 %
Test CRC 4130F746
Copy CRC 4130F746
Track not present in AccurateRip database
Copy OK
Track 14
Filename D:\Various\MOTOWN - The Complete NO. 1's Disc3\14 - Ball Of Confusion ( That's What The World Is Today).wav
Peak level 93.3 %
Track quality 100.0 %
Test CRC 48A672F8
Copy CRC 48A672F8
Track not present in AccurateRip database
Copy OK
Track 15
Filename D:\Various\MOTOWN - The Complete NO. 1's Disc3\15 - Signed, Sealed, Delivered (I'm Yours).wav
Peak level 79.3 %
Track quality 99.9 %
Test CRC 6385359E
Copy CRC 6385359E
Track not present in AccurateRip database
Copy OK
Track 16
Filename D:\Various\MOTOWN - The Complete NO. 1's Disc3\16 - War.wav
Peak level 98.8 %
Track quality 100.0 %
Test CRC F0F4D247
Copy CRC F0F4D247
Track not present in AccurateRip database
Copy OK
Track 17
Filename D:\Various\MOTOWN - The Complete NO. 1's Disc3\17 - The Tears Of A Clown [U.K Version].wav
Peak level 76.5 %
Track quality 100.0 %
Test CRC 24A6DD66
Copy CRC 24A6DD66
Track not present in AccurateRip database
Copy OK
Track 18
Filename D:\Various\MOTOWN - The Complete NO. 1's Disc3\18 - Ain't No Mountain High Enough.wav
Peak level 87.2 %
Track quality 100.0 %
Test CRC 14CFA231
Copy CRC 14CFA231
Track not present in AccurateRip database
Copy OK
Track 19
Filename D:\Various\MOTOWN - The Complete NO. 1's Disc3\19 - I'll Be There.wav
Peak level 91.5 %
Track quality 100.0 %
Test CRC 8A372208
Copy CRC 8A372208
Track not present in AccurateRip database
Copy OK
Track 20
Filename D:\Various\MOTOWN - The Complete NO. 1's Disc3\20 - Heaven Helo Us All.wav
Peak level 85.4 %
Track quality 100.0 %
Test CRC 5EA1F37B
Copy CRC 5EA1F37B
Track not present in AccurateRip database
Copy OK
Track 21
Filename D:\Various\MOTOWN - The Complete NO. 1's Disc3\21 - The Tears Of A Clown [ U.S. Version].wav
Peak level 79.4 %
Track quality 100.0 %
Test CRC F4F6C704
Copy CRC F4F6C704
Track not present in AccurateRip database
Copy OK
Track 22
Filename D:\Various\MOTOWN - The Complete NO. 1's Disc3\22 - Stoned Love.wav
Peak level 99.7 %
Track quality 100.0 %
Test CRC 578CAEFC
Copy CRC 578CAEFC
Track not present in AccurateRip database
Copy OK
Track 23
Filename D:\Various\MOTOWN - The Complete NO. 1's Disc3\23 - If Were Your Woman.wav
Peak level 99.9 %
Track quality 100.0 %
Test CRC 2D65A12C
Copy CRC 2D65A12C
Track not present in AccurateRip database
Copy OK
None of the tracks are present in the AccurateRip database
No errors occurred
End of status report
 
CUE
REM GENRE Soul
REM DATE 2008
REM DISCID 6A118D17
REM COMMENT "ExactAudioCopy v0.99pb4"
PERFORMER "Various Artists"
TITLE "The Complete Motown #1s Box - Disc 03"
FILE "01 - The Temptations - Runaway Child, Running Wild.flac" WAVE
TRACK 01 AUDIO
TITLE "Runaway Child, Running Wild"
PERFORMER "The Temptations"
INDEX 01 00:00:00
FILE "02 - Marvin Gaye - Too Busy Thinking About My Baby.flac" WAVE
TRACK 02 AUDIO
TITLE "Too Busy Thinking About My Baby"
PERFORMER "Marvin Gaye"
INDEX 01 00:00:00
FILE "03 - Jr. Walker & All Stars - What Does It Take (To Win Your Love).flac" WAVE
TRACK 03 AUDIO
TITLE "What Does It Take (To Win Your Love)"
PERFORMER "Jr. Walker & All Stars"
INDEX 01 00:00:00
FILE "04 - The Temptations - I Can't Get Next To You.flac" WAVE
TRACK 04 AUDIO
TITLE "I Can't Get Next To You"
PERFORMER "The Temptations"
INDEX 01 00:00:00
FILE "05 - The Originals - Baby, I'm For Real.flac" WAVE
TRACK 05 AUDIO
TITLE "Baby, I'm For Real"
PERFORMER "The Originals"
INDEX 01 00:00:00
FILE "06 - Diana Ross & The Supremes - Someday We'll Be Together.flac" WAVE
TRACK 06 AUDIO
TITLE "Someday We'll Be Together"
PERFORMER "Diana Ross & The Supremes"
INDEX 01 00:00:00
FILE "07 - The Jackson 5 - I Want You Back.flac" WAVE
TRACK 07 AUDIO
TITLE "I Want You Back"
PERFORMER "The Jackson 5"
INDEX 01 00:00:00
FILE "08 - Stevie Wonder - Yester-Me, Yester-You, Yesterday.flac" WAVE
TRACK 08 AUDIO
TITLE "Yester-Me, Yester-You, Yesterday"
PERFORMER "Stevie Wonder"
INDEX 01 00:00:00
FILE "Various\MOTOWN - The Complete NO. 1's Disc3\09 - ABC.flac" WAVE
TRACK 09 AUDIO
TITLE "ABC"
PERFORMER "The Jackson 5"
INDEX 01 00:00:00
FILE "10 - Diana Ross - Reach Out And Touch (Somebody's Hand).flac" WAVE
TRACK 10 AUDIO
TITLE "Reach Out And Touch (Somebody's Hand)"
PERFORMER "Diana Ross"
INDEX 01 00:00:00
FILE "11 - Four Tops - It's All The Game.flac" WAVE
TRACK 11 AUDIO
TITLE "It's All The Game"
PERFORMER "Four Tops"
INDEX 01 00:00:00
FILE "12 - The Jackson 5 - The Love You Save.flac" WAVE
TRACK 12 AUDIO
TITLE "The Love You Save"
PERFORMER "The Jackson 5"
INDEX 01 00:00:00
FILE "13 - Rare Earth - Get Ready.flac" WAVE
TRACK 13 AUDIO
TITLE "Get Ready"
PERFORMER "Rare Earth"
INDEX 01 00:00:00
FILE "14 - The Temptations - Ball Of Confusion (That's What The World Is Today).flac" WAVE
TRACK 14 AUDIO
TITLE "Ball Of Confusion (That's What The World Is Today)"
PERFORMER "The Temptations"
INDEX 01 00:00:00
FILE "15 - Stevie Wonder - Signed, Sealed, Delivered (I'm Yours).flac" WAVE
TRACK 15 AUDIO
TITLE "Signed, Sealed, Delivered (I'm Yours)"
PERFORMER "Stevie Wonder"
INDEX 01 00:00:00
FILE "16 - Edwin Starr - War.flac" WAVE
TRACK 16 AUDIO
TITLE "War"
PERFORMER "Edwinn Starr"
INDEX 01 00:00:00
FILE "17 - Smokey Robinson & The Miracles - The Tears Of A Clown [U.K Version].flac" WAVE
TRACK 17 AUDIO
TITLE "The Tears Of A Clown [U.K Version]"
PERFORMER "Smokey Robinson & The Miracles"
INDEX 01 00:00:00
FILE "Various\MOTOWN - The Complete NO. 1's Disc3\18 - Ain't No Mountain High Enough.flac" WAVE
TRACK 18 AUDIO
TITLE "Ain't No Mountain High Enough"
PERFORMER "Diana Ross"
INDEX 01 00:00:00
FILE "Various\MOTOWN - The Complete NO. 1's Disc3\19 - I'll Be There.flac" WAVE
TRACK 19 AUDIO
TITLE "I'll Be There"
PERFORMER "The Jackson 5"
INDEX 01 00:00:00
FILE "Various\MOTOWN - The Complete NO. 1's Disc3\20 - Heaven Helo Us All.flac" WAVE
TRACK 20 AUDIO
TITLE "Heaven Helo Us All"
PERFORMER "Stevie Wonder"
INDEX 01 00:00:00
FILE "Various\MOTOWN - The Complete NO. 1's Disc3\21 - The Tears Of A Clown [U.S. Version].flac" WAVE
TRACK 21 AUDIO
TITLE "The Tears Of A Clown [U.S. Version]"
PERFORMER "Smokey Robinson & The Miracles"
INDEX 01 00:00:00
FILE "22 - The Supremes - Stoned Love.flac" WAVE
TRACK 22 AUDIO
TITLE "Stoned Love"
PERFORMER "The Supremes"
INDEX 01 00:00:00
FILE "23 - Gladys Knight & The Pips - If Were Your Woman.flac" WAVE
TRACK 23 AUDIO
TITLE "If Were Your Woman"
PERFORMER "Gladys Knight & The Pips"
INDEX 01 00:00:00
 
Log EAC CD 4
Exact Audio Copy V0.99 prebeta 4 from 23. January 2008
EAC extraction logfile from 17. January 2009, 23:31
Various / MOTOWN - The Complete NO. 1's Disc4
Used drive : HL-DT-STDVD+-RW GSA-H73N Adapter: 2 ID: 3
Read mode : Secure
Utilize accurate stream : Yes
Defeat audio cache : Yes
Make use of C2 pointers : No
Read offset correction : 102
Overread into Lead-In and Lead-Out : No
Fill up missing offset samples with silence : Yes
Delete leading and trailing silent blocks : No
Null samples used in CRC calculations : Yes
Used interface : Native Win32 interface for Win NT & 2000
Gap handling : Appended to previous track
Used output format : User Defined Encoder
Selected bitrate : 384 kBit/s
Quality : High
Add ID3 tag : No
Command line compressor : C:\Program Files\FLAC\flac.exe
Additional command line options : -V -8 -T "artist=%a" -T "title=%t" -T "album=%g" -T "date=%y" -T "tracknumber=%n" -T "genre=%m" %s
TOC of the extracted CD
Track | Start | Length | Start sector | End sector
---------------------------------------------------------
1 | 0:00.00 | 3:11.54 | 0 | 14378
2 | 3:11.54 | 3:47.59 | 14379 | 31462
3 | 6:59.38 | 3:54.03 | 31463 | 49015
4 | 10:53.41 | 3:00.00 | 49016 | 62515
5 | 13:53.41 | 3:13.52 | 62516 | 77042
6 | 17:07.18 | 3:44.22 | 77043 | 93864
7 | 20:51.40 | 3:15.58 | 93865 | 108547
8 | 24:07.23 | 5:26.70 | 108548 | 133067
9 | 29:34.18 | 3:23.46 | 133068 | 148338
10 | 32:57.64 | 2:33.53 | 148339 | 159866
11 | 35:31.42 | 2:58.57 | 159867 | 173273
12 | 38:30.24 | 2:46.09 | 173274 | 185732
13 | 41:16.33 | 6:57.47 | 185733 | 217054
14 | 48:14.05 | 4:27.53 | 217055 | 237132
15 | 52:41.58 | 4:22.08 | 237133 | 256790
16 | 57:03.66 | 4:23.23 | 256791 | 276538
17 | 61:27.14 | 2:51.48 | 276539 | 289411
18 | 64:18.62 | 3:48.74 | 289412 | 306585
19 | 68:07.61 | 4:51.09 | 306586 | 328419
Track 1
Filename D:\Various\MOTOWN - The Complete NO. 1's Disc4\01 - Mama's Pearl.wav
Pre-gap length 0:00:02.00
Peak level 92.7 %
Track quality 100.0 %
Test CRC 5C3DEFF8
Copy CRC 5C3DEFF8
Track not present in AccurateRip database
Copy OK
Track 2
Filename D:\Various\MOTOWN - The Complete NO. 1's Disc4\02 - Just My Imagination ( Running Away With Me).wav
Peak level 92.9 %
Track quality 99.9 %
Test CRC 977E688B
Copy CRC 977E688B
Track not present in AccurateRip database
Copy OK
Track 3
Filename D:\Various\MOTOWN - The Complete NO. 1's Disc4\03 - What's Going On.wav
Peak level 100.0 %
Track quality 100.0 %
Test CRC 7C384755
Copy CRC 7C384755
Track not present in AccurateRip database
Copy OK
Track 4
Filename D:\Various\MOTOWN - The Complete NO. 1's Disc4\04 - Never Can Say Goodbye.wav
Peak level 91.9 %
Track quality 99.9 %
Test CRC AC065AFA
Copy CRC AC065AFA
Track not present in AccurateRip database
Copy OK
Track 5
Filename D:\Various\MOTOWN - The Complete NO. 1's Disc4\05 - Mercy Mercy Me (The Ecology).wav
Peak level 100.0 %
Track quality 100.0 %
Test CRC D4A9B483
Copy CRC D4A9B483
Track not present in AccurateRip database
Copy OK
Track 6
Filename D:\Various\MOTOWN - The Complete NO. 1's Disc4\06 - I'm Still Waiting.wav
Peak level 100.0 %
Track quality 100.0 %
Test CRC 22D44982
Copy CRC 22D44982
Track not present in AccurateRip database
Copy OK
Track 7
Filename D:\Various\MOTOWN - The Complete NO. 1's Disc4\07 - Smiling Faces Sometimes.wav
Peak level 88.3 %
Track quality 100.0 %
Test CRC 2B01263B
Copy CRC 2B01263B
Track not present in AccurateRip database
Copy OK
Track 8
Filename D:\Various\MOTOWN - The Complete NO. 1's Disc4\08 - Inner City Blues ( Make Me Wanna Holler).wav
Peak level 98.8 %
Track quality 100.0 %
Test CRC 9DA2B342
Copy CRC 9DA2B342
Track not present in AccurateRip database
Copy OK
Track 9
Filename D:\Various\MOTOWN - The Complete NO. 1's Disc4\09 - Got To Be There.wav
Peak level 98.8 %
Track quality 100.0 %
Test CRC 57190506
Copy CRC 57190506
Track not present in AccurateRip database
Copy OK
Track 10
Filename D:\Various\MOTOWN - The Complete NO. 1's Disc4\10 - Rockin' Robin.wav
Peak level 98.8 %
Track quality 100.0 %
Test CRC C7AD5DD9
Copy CRC C7AD5DD9
Track not present in AccurateRip database
Copy OK
Track 11
Filename D:\Various\MOTOWN - The Complete NO. 1's Disc4\11 - I Wanna Be Where You Are.wav
Peak level 98.8 %
Track quality 100.0 %
Test CRC 8D8D639F
Copy CRC 8D8D639F
Track not present in AccurateRip database
Copy OK
Track 12
Filename D:\Various\MOTOWN - The Complete NO. 1's Disc4\12 - Ben.wav
Peak level 98.8 %
Track quality 100.0 %
Test CRC 4FB26B5A
Copy CRC 4FB26B5A
Track not present in AccurateRip database
Copy OK
Track 13
Filename D:\Various\MOTOWN - The Complete NO. 1's Disc4\13 - Papa Was A Rollin' Stone.wav
Peak level 98.8 %
Track quality 100.0 %
Test CRC 6AD12605
Copy CRC 6AD12605
Track not present in AccurateRip database
Copy OK
Track 14
Filename D:\Various\MOTOWN - The Complete NO. 1's Disc4\14 - Superstition.wav
Peak level 98.8 %
Track quality 100.0 %
Test CRC BD5DBA85
Copy CRC BD5DBA85
Track not present in AccurateRip database
Copy OK
Track 15
Filename D:\Various\MOTOWN - The Complete NO. 1's Disc4\15 - Neither One Of Us ( Wants To Be The First To Say Goodbye).wav
Peak level 98.8 %
Track quality 100.0 %
Test CRC 2B0B51B2
Copy CRC 2B0B51B2
Track not present in AccurateRip database
Copy OK
Track 16
Filename D:\Various\MOTOWN - The Complete NO. 1's Disc4\16 - Masterpiece.wav
Peak level 98.8 %
Track quality 99.9 %
Test CRC F55AB703
Copy CRC F55AB703
Track not present in AccurateRip database
Copy OK
Track 17
Filename D:\Various\MOTOWN - The Complete NO. 1's Disc4\17 - You Are The Sunshine Of My Life.wav
Peak level 98.8 %
Track quality 100.0 %
Test CRC 1A6EE81E
Copy CRC 1A6EE81E
Track not present in AccurateRip database
Copy OK
Track 18
Filename D:\Various\MOTOWN - The Complete NO. 1's Disc4\18 - Touch Me In The Morning.wav
Peak level 89.0 %
Track quality 100.0 %
Test CRC AA673C08
Copy CRC AA673C08
Track not present in AccurateRip database
Copy OK
Track 19
Filename D:\Various\MOTOWN - The Complete NO. 1's Disc4\19 - Let's Get It On.wav
Peak level 98.8 %
Track quality 100.0 %
Test CRC 19DEB08A
Copy CRC 19DEB08A
Track not present in AccurateRip database
Copy OK
None of the tracks are present in the AccurateRip database
No errors occurred
End of status report
 
CUE
REM GENRE Soul
REM DATE 2008
REM DISCID 29111A13
REM COMMENT "ExactAudioCopy v0.99pb4"
PERFORMER "Various Artists"
TITLE "The Complete Motown #1s Box - Disc 04"
FILE "01 - The Jackson 5 - Mama's Pearl.flac" WAVE
TRACK 01 AUDIO
TITLE "Mama's Pearl"
PERFORMER "The Jackson 5"
INDEX 01 00:00:00
FILE "02 - The Temptations - Just My Imagination (Running Away With Me).flac" WAVE
TRACK 02 AUDIO
TITLE "Just My Imagination (Running Away With Me)"
PERFORMER "The Temptations"
INDEX 01 00:00:00
FILE "03 - Marvin Gaye - What's Going On.flac" WAVE
TRACK 03 AUDIO
TITLE "What's Going On"
PERFORMER "Marvin Gaye"
INDEX 01 00:00:00
FILE "04 - The Jackson 5 - Never Can Say Goodbye.flac" WAVE
TRACK 04 AUDIO
TITLE "Never Can Say Goodbye"
PERFORMER "The Jackson 5"
INDEX 01 00:00:00
FILE "05 - Marvin Gaye - Mercy Mercy Me (The Ecology).flac" WAVE
TRACK 05 AUDIO
TITLE "Mercy Mercy Me (The Ecology)"
PERFORMER "Marvin Gaye"
INDEX 01 00:00:00
FILE "06 - Diana Ross - I'm Still Waiting.flac" WAVE
TRACK 06 AUDIO
TITLE "I'm Still Waiting"
PERFORMER "Diana Ross"
INDEX 01 00:00:00
FILE "07 - The Undisputed Truth - Smiling Faces Sometimes.flac" WAVE
TRACK 07 AUDIO
TITLE "Smiling Faces Sometimes"
PERFORMER "The Undisputed Truth"
INDEX 01 00:00:00
FILE "08 - Marvin Gaye - Inner City Blues (Make Me Wanna Holler).flac" WAVE
TRACK 08 AUDIO
TITLE "Inner City Blues (Make Me Wanna Holler)"
PERFORMER "Marvin Gaye"
INDEX 01 00:00:00
FILE "09 - Michael Jackson - Got To Be There.flac" WAVE
TRACK 09 AUDIO
TITLE "Got To Be There"
PERFORMER "Michael Jackson"
INDEX 01 00:00:00
FILE "10 - Michael Jackson - Rockin' Robin.flac" WAVE
TRACK 10 AUDIO
TITLE "Rockin' Robin"
PERFORMER "Michael Jackson"
INDEX 01 00:00:00
FILE "11 - Michael Jackson - I Wanna Be Where You Are.flac" WAVE
TRACK 11 AUDIO
TITLE "I Wanna Be Where You Are"
PERFORMER "Michael Jackson"
INDEX 01 00:00:00
FILE "12 - Michael Jackson - Ben.flac" WAVE
TRACK 12 AUDIO
TITLE "Ben"
PERFORMER "Michael Jackson"
INDEX 01 00:00:00
FILE "13 - The Temptations - Papa Was A Rollin' Stone.flac" WAVE
TRACK 13 AUDIO
TITLE "Papa Was A Rollin' Stone"
PERFORMER "The Temptations"
INDEX 01 00:00:00
FILE "14 - Stevie Wonder - Superstition.flac" WAVE
TRACK 14 AUDIO
TITLE "Superstition"
PERFORMER "Stevie Wonder"
INDEX 01 00:00:00
FILE "15 - Gladys Knight & The Pips - Neither One Of Us (Wants To Be The First To Say Goodbye).flac" WAVE
TRACK 15 AUDIO
TITLE "Neither One Of Us (Wants To Be The First To Say Goodbye)"
PERFORMER "Gladys Knight & The Pips"
INDEX 01 00:00:00
FILE "16 - The Temptations - Masterpiece.flac" WAVE
TRACK 16 AUDIO
TITLE "Masterpiece"
PERFORMER "The Temptations"
INDEX 01 00:00:00
FILE "17 - Stevie Wonder - You Are The Sunshine Of My Life.flac" WAVE
TRACK 17 AUDIO
TITLE "You Are The Sunshine Of My Life"
PERFORMER "Stevie Wonder"
INDEX 01 00:00:00
FILE "18 - Diana Ross - Touch Me In The Morning.flac" WAVE
TRACK 18 AUDIO
TITLE "Touch Me In The Morning"
PERFORMER "Diana Ross"
INDEX 01 00:00:00
FILE "19 - Marvin Gaye - Let's Get It On.flac" WAVE
TRACK 19 AUDIO
TITLE "Let's Get It On"
PERFORMER "Marvin Gaye"
INDEX 01 00:00:00
 
Log EAC CD 5
Exact Audio Copy V0.99 prebeta 4 from 23. January 2008
EAC extraction logfile from 18. January 2009, 0:35
Various / MOTOWN - The Complete NO. 1's Disc5
Used drive : HL-DT-STDVD+-RW GSA-H73N Adapter: 2 ID: 3
Read mode : Secure
Utilize accurate stream : Yes
Defeat audio cache : Yes
Make use of C2 pointers : No
Read offset correction : 102
Overread into Lead-In and Lead-Out : No
Fill up missing offset samples with silence : Yes
Delete leading and trailing silent blocks : No
Null samples used in CRC calculations : Yes
Used interface : Native Win32 interface for Win NT & 2000
Gap handling : Appended to previous track
Used output format : User Defined Encoder
Selected bitrate : 384 kBit/s
Quality : High
Add ID3 tag : No
Command line compressor : C:\Program Files\FLAC\flac.exe
Additional command line options : -V -8 -T "artist=%a" -T "title=%t" -T "album=%g" -T "date=%y" -T "tracknumber=%n" -T "genre=%m" %s
TOC of the extracted CD
Track | Start | Length | Start sector | End sector
---------------------------------------------------------
1 | 0:00.00 | 3:44.00 | 0 | 16799
2 | 3:44.00 | 3:33.13 | 16800 | 32787
3 | 7:17.13 | 7:24.55 | 32788 | 66142
4 | 14:41.68 | 2:40.29 | 66143 | 78171
5 | 17:22.22 | 3:50.23 | 78172 | 95444
6 | 21:12.45 | 2:48.22 | 95445 | 108066
7 | 24:00.67 | 2:36.66 | 108067 | 119832
8 | 26:37.58 | 3:03.15 | 119833 | 133572
9 | 29:40.73 | 3:24.03 | 133573 | 148875
10 | 33:05.01 | 4:11.61 | 148876 | 167761
11 | 37:16.62 | 3:37.53 | 167762 | 184089
12 | 40:54.40 | 3:16.69 | 184090 | 198858
13 | 44:11.34 | 4:02.54 | 198859 | 217062
14 | 48:14.13 | 3:47.04 | 217063 | 234091
15 | 52:01.17 | 3:20.17 | 234092 | 249108
16 | 55:21.34 | 6:22.32 | 249109 | 277790
17 | 61:43.66 | 5:30.28 | 277791 | 302568
18 | 67:14.19 | 3:23.60 | 302569 | 317853
19 | 70:38.04 | 2:47.41 | 317854 | 330419
20 | 73:25.45 | 2:41.59 | 330420 | 342553
Track 1
Filename D:\Various\MOTOWN - The Complete NO. 1's Disc5\01 - Higher Ground.wav
Pre-gap length 0:00:02.00
Peak level 98.8 %
Track quality 100.0 %
Test CRC 7BA0EFFF
Copy CRC 7BA0EFFF
Track not present in AccurateRip database
Copy OK
Track 2
Filename D:\Various\MOTOWN - The Complete NO. 1's Disc5\02 - Keep On Truckin' (Part 1).wav
Peak level 98.8 %
Track quality 99.9 %
Test CRC 459B6DFC
Copy CRC 459B6DFC
Track not present in AccurateRip database
Copy OK
Track 3
Filename D:\Various\MOTOWN - The Complete NO. 1's Disc5\03 - Living For The City.wav
Peak level 98.8 %
Track quality 100.0 %
Test CRC FF778BAA
Copy CRC FF778BAA
Track not present in AccurateRip database
Copy OK
Track 4
Filename D:\Various\MOTOWN - The Complete NO. 1's Disc5\04 - Let Your Hair Down.wav
Peak level 100.0 %
Track quality 99.9 %
Test CRC 05615EB4
Copy CRC 05615EB4
Track not present in AccurateRip database
Copy OK
Track 5
Filename D:\Various\MOTOWN - The Complete NO. 1's Disc5\05 - Boogie Down.wav
Peak level 83.4 %
Track quality 100.0 %
Test CRC 0BF334C1
Copy CRC 0BF334C1
Track not present in AccurateRip database
Copy OK
Track 6
Filename D:\Various\MOTOWN - The Complete NO. 1's Disc5\06 - Last Time I Saw Him.wav
Peak level 95.4 %
Track quality 100.0 %
Test CRC 02761FCF
Copy CRC 02761FCF
Track not present in AccurateRip database
Copy OK
Track 7
Filename D:\Various\MOTOWN - The Complete NO. 1's Disc5\07 - Dancing Machine.wav
Peak level 100.0 %
Track quality 100.0 %
Test CRC 226A1C6B
Copy CRC 226A1C6B
Track not present in AccurateRip database
Copy OK
Track 8
Filename D:\Various\MOTOWN - The Complete NO. 1's Disc5\08 - Do It Baby.wav
Peak level 99.0 %
Track quality 100.0 %
Test CRC B1750D48
Copy CRC B1750D48
Track not present in AccurateRip database
Copy OK
Track 9
Filename D:\Various\MOTOWN - The Complete NO. 1's Disc5\09 - You Haven't Done Nothin'.wav
Peak level 100.0 %
Track quality 100.0 %
Test CRC 2231E25E
Copy CRC 2231E25E
Track not present in AccurateRip database
Copy OK
Track 10
Filename D:\Various\MOTOWN - The Complete NO. 1's Disc5\10 - Boogie On Reggae Woman.wav
Peak level 91.1 %
Track quality 100.0 %
Test CRC 8A4B3EE0
Copy CRC 8A4B3EE0
Track not present in AccurateRip database
Copy OK
Track 11
Filename D:\Various\MOTOWN - The Complete NO. 1's Disc5\11 - Happy People.wav
Peak level 98.8 %
Track quality 100.0 %
Test CRC 9C0AC958
Copy CRC 9C0AC958
Track not present in AccurateRip database
Copy OK
Track 12
Filename D:\Various\MOTOWN - The Complete NO. 1's Disc5\12 - Shoeshine Boy.wav
Peak level 77.4 %
Track quality 99.9 %
Test CRC 3F5C20E4
Copy CRC 3F5C20E4
Track not present in AccurateRip database
Copy OK
Track 13
Filename D:\Various\MOTOWN - The Complete NO. 1's Disc5\13 - Shakey Ground.wav
Peak level 98.4 %
Track quality 99.9 %
Test CRC 2FB562AA
Copy CRC 2FB562AA
Track not present in AccurateRip database
Copy OK
Track 14
Filename D:\Various\MOTOWN - The Complete NO. 1's Disc5\14 - Baby That's Backatcha.wav
Peak level 88.8 %
Track quality 100.0 %
Test CRC F8F6F989
Copy CRC F8F6F989
Track not present in AccurateRip database
Copy OK
Track 15
Filename D:\Various\MOTOWN - The Complete NO. 1's Disc5\15 - Slippery When Wet.wav
Peak level 89.3 %
Track quality 99.9 %
Test CRC 0B92C67A
Copy CRC 0B92C67A
Track not present in AccurateRip database
Copy OK
Track 16
Filename D:\Various\MOTOWN - The Complete NO. 1's Disc5\16 - Forever Came Today.wav
Peak level 96.1 %
Track quality 100.0 %
Test CRC 1B53161E
Copy CRC 1B53161E
Track not present in AccurateRip database
Copy OK
Track 17
Filename D:\Various\MOTOWN - The Complete NO. 1's Disc5\17 - Walk Away From Love.wav
Peak level 94.2 %
Track quality 99.9 %
Test CRC 42A61439
Copy CRC 42A61439
Track not present in AccurateRip database
Copy OK
Track 18
Filename D:\Various\MOTOWN - The Complete NO. 1's Disc5\18 - Theme From Mahogamy (Do You Know Where You're Going To).wav
Peak level 68.4 %
Track quality 100.0 %
Test CRC 48044753
Copy CRC 48044753
Track not present in AccurateRip database
Copy OK
Track 19
Filename D:\Various\MOTOWN - The Complete NO. 1's Disc5\19 - Devil In The Bottle.wav
Peak level 98.8 %
Track quality 100.0 %
Test CRC FD883A1F
Copy CRC FD883A1F
Track not present in AccurateRip database
Copy OK
Track 20
Filename D:\Various\MOTOWN - The Complete NO. 1's Disc5\20 - Tryin' To Beat The Morning Home.wav
Peak level 98.8 %
Track quality 100.0 %
Test CRC BA43C7D0
Copy CRC BA43C7D0
Track not present in AccurateRip database
Copy OK
None of the tracks are present in the AccurateRip database
No errors occurred
End of status report
 
CUE
REM GENRE Soul
REM DATE 2008
REM DISCID 2711D714
REM COMMENT "ExactAudioCopy v0.99pb4"
PERFORMER "Various Artists"
TITLE "The Complete Motown #1s Box - Disc 05"
FILE "01 - Stevie Wonder - Higher Ground.flac" WAVE
TRACK 01 AUDIO
TITLE "Higher Ground"
PERFORMER "Stevie Wonder"
INDEX 01 00:00:00
FILE "02 - Eddie Kendricks - Keep On Truckin' (Part 1).flac" WAVE
TRACK 02 AUDIO
TITLE "Keep On Truckin' (Part 1)"
PERFORMER "Eddie Kendricks"
INDEX 01 00:00:00
FILE "03 - Stevie Wonder - Living For The City.flac" WAVE
TRACK 03 AUDIO
TITLE "Living For The City"
PERFORMER "Stevie Wonder"
INDEX 01 00:00:00
FILE "04 - The Temptations - Let Your Hair Down.flac" WAVE
TRACK 04 AUDIO
TITLE "Let Your Hair Down"
PERFORMER "The Temptations"
INDEX 01 00:00:00
FILE "05 - Eddie Kendricks - Boogie Down.flac" WAVE
TRACK 05 AUDIO
TITLE "Boogie Down"
PERFORMER "Eddie Kendricks"
INDEX 01 00:00:00
FILE "06 - Diana Ross - Last Time I Saw Him.flac" WAVE
TRACK 06 AUDIO
TITLE "Last Time I Saw Him"
PERFORMER "Diana Ross"
INDEX 01 00:00:00
FILE "07 - The Jackson 5 - Dancing Machine.flac" WAVE
TRACK 07 AUDIO
TITLE "Dancing Machine"
PERFORMER "The Jackson 5"
INDEX 01 00:00:00
FILE "08 - The Miracles - Do It Baby.flac" WAVE
TRACK 08 AUDIO
TITLE "Do It Baby"
PERFORMER "The Miracles"
INDEX 01 00:00:00
FILE "09 - Stevie Wonder - You Haven't Done Nothin'.flac" WAVE
TRACK 09 AUDIO
TITLE "You Haven't Done Nothin'"
PERFORMER "Stevie Wonder"
INDEX 01 00:00:00
FILE "10 - Stevie Wonder - Boogie On Reggae Woman.flac" WAVE
TRACK 10 AUDIO
TITLE "Boogie On Reggae Woman"
PERFORMER "Stevie Wonder"
INDEX 01 00:00:00
FILE "11 - The Temptations - Happy People.flac" WAVE
TRACK 11 AUDIO
TITLE "Happy People"
PERFORMER "The Temptations"
INDEX 01 00:00:00
FILE "12 - Eddie Kendricks - Shoeshine Boy.flac" WAVE
TRACK 12 AUDIO
TITLE "Shoeshine Boy"
PERFORMER "Eddie Kendricks"
INDEX 01 00:00:00
FILE "13 - The Temptations - Shakey Ground.flac" WAVE
TRACK 13 AUDIO
TITLE "Shakey Ground"
PERFORMER "The Temptations"
INDEX 01 00:00:00
FILE "14 - Smokey Robinson - Baby That's Backatcha.flac" WAVE
TRACK 14 AUDIO
TITLE "Baby That's Backatcha"
PERFORMER "Smokey Robinson"
INDEX 01 00:00:00
FILE "15 - The Commodores - Slippery When Wet.flac" WAVE
TRACK 15 AUDIO
TITLE "Slippery When Wet"
PERFORMER "The Commodores"
INDEX 01 00:00:00
FILE "16 - The Jackson 5 - Forever Came Today.flac" WAVE
TRACK 16 AUDIO
TITLE "Forever Came Today"
PERFORMER "The Jackson 5"
INDEX 01 00:00:00
FILE "17 - David Ruffin - Walk Away From Love.flac" WAVE
TRACK 17 AUDIO
TITLE "Walk Away From Love"
PERFORMER "David Ruffin"
INDEX 01 00:00:00
FILE "18 - Diana Ross - Theme From Mahogamy (Do You Know Where You're Going To).flac" WAVE
TRACK 18 AUDIO
TITLE "Theme From Mahogamy (Do You Know Where You're Going To)"
PERFORMER "Diana Ross"
INDEX 01 00:00:00
FILE "19 - T.G. Sheppard - Devil In The Bottle.flac" WAVE
TRACK 19 AUDIO
TITLE "Devil In The Bottle"
PERFORMER "T.G. Sheppard"
INDEX 01 00:00:00
FILE "20 - T.G. Sheppard - Tryin' To Beat The Morning Home.flac" WAVE
TRACK 20 AUDIO
TITLE "Tryin' To Beat The Morning Home"
PERFORMER "T.G. Sheppard"
INDEX 01 00:00:00
Приватный:
Нет (DHT включён)
Размер:
4.90 Гб (5,256,134,655 байт) » файлов: 232
Участники:
0 раздают, 0 качают (0 участников всего)
Внешние участники:
8 раздают, 2 качают (10 участников всего) [ Обновить ]
Никого нет на раздаче - пишите личное сообщение M0p94ok
No seeders - write personal message to M0p94ok
04:20
25
Нет комментариев. Ваш будет первым!