Поиск

(Jazz-Funk, European Groove) VA - Dramatic Funk Themes Vol. 1 - 2008, FLAC (tracks+.cue), lossless

(Jazz-Funk, European Groove) VA - Dramatic Funk Themes Vol. 1 - 2008, FLAC (tracks+.cue), lossless
Треклист:
VA - Dramatic Funk Themes Vol. 1 1973-1976
Жанр: Jazz-Funk, European Groove
Страна-производитель диска: Germany
Год издания диска: 2008
Издатель (лейбл): ShowUp Records
Номер по каталогу: showup 02
Страна: United Kingdom
Аудио кодек: FLAC (*.flac)
Тип рипа: tracks+.cue
Битрейт аудио: lossless
Продолжительность: 49:18
Источник (релизер): wata
Наличие сканов в содержимом раздачи: нет
Трэклист:
01. Les Hurdle - Soul Train
02. Alan Hawkshaw - Flashpoint
03. Kenny Salmon - Flying Squad
04. Alan Parker - Sweeny Todd
05. David Lindup - The Observer
06. Kenny Salmon - Get Up and Go
07. Alan Hawkshaw - High Diver
08. Madeline Bell & Alan Parker - Soul Slap
09. Keith Roberts - Override
10. Mike Moran - El Zoro
11. Alan Tew - Scenechange 6a
12. David Lindup - At Risk
13. Johnny Pearson - Work Force
14. James Clarke - The Heavies
15. Alan Hawkshaw & Brian Bennett - Oddball
16. Alan Tew - Headlights
17. Alan Hawkshaw - Speed Run
18. David Lindup - Inside Information
19. Mike Moran - The Pick-Up
20. Alan Hawkshaw - The Investigator
 
eac
Exact Audio Copy V0.99 prebeta 3 from 28. July 2007
EAC extraction logfile from 2. May 2008, 23:34
Various / Dramatic Funk Themes Vol. 1 - British Rare Groove from the Themes International Music Library 1973-1976
Used drive : PIONEER DVD-RW DVR-111D Adapter: 1 ID: 0
Read mode : Secure
Utilize accurate stream : Yes
Defeat audio cache : Yes
Make use of C2 pointers : No
Read offset correction : 48
Overread into Lead-In and Lead-Out : No
Fill up missing offset samples with silence : Yes
Delete leading and trailing silent blocks : No
Null samples used in CRC calculations : Yes
Used interface : Installed external ASPI interface
Gap handling : Appended to previous track
Used output format : User Defined Encoder
Selected bitrate : 192 kBit/s
Quality : High
Add ID3 tag : No
Command line compressor : C:\Program Files\Exact Audio Copy\Flac\flac.exe
Additional command line options : -8 -A tukey(0.25) -A gauss(0.1875) -b 4096 -V -T "artist=%a" -T "title=%t" -T "album=%g" -T "date=%y" -T "tracknumber=%n" -T "genre=%m" %s --sector-align
TOC of the extracted CD
Track | Start | Length | Start sector | End sector
---------------------------------------------------------
1 | 0:00.00 | 4:24.68 | 0 | 19867
2 | 4:24.68 | 2:26.51 | 19868 | 30868
3 | 6:51.44 | 2:38.25 | 30869 | 42743
4 | 9:29.69 | 2:04.30 | 42744 | 52073
5 | 11:34.24 | 2:48.58 | 52074 | 64731
6 | 14:23.07 | 2:34.11 | 64732 | 76292
7 | 16:57.18 | 3:41.51 | 76293 | 92918
8 | 20:38.69 | 2:14.32 | 92919 | 103000
9 | 22:53.26 | 3:27.54 | 103001 | 118579
10 | 26:21.05 | 2:07.14 | 118580 | 128118
11 | 28:28.19 | 0:24.57 | 128119 | 129975
12 | 28:53.01 | 1:53.05 | 129976 | 138455
13 | 30:46.06 | 2:21.04 | 138456 | 149034
14 | 33:07.10 | 2:15.44 | 149035 | 159203
15 | 35:22.54 | 3:01.34 | 159204 | 172812
16 | 38:24.13 | 1:08.70 | 172813 | 177982
17 | 39:33.08 | 2:25.26 | 177983 | 188883
18 | 41:58.34 | 2:27.67 | 188884 | 199975
19 | 44:26.26 | 2:08.68 | 199976 | 209643
20 | 46:35.19 | 2:42.60 | 209644 | 221853
Track 1
Filename E:\music\VA - Dramatic Funk Themes Vol 1 [FLAC]\01. Les Hurdle - Soul Train.wav
Pre-gap length 0:00:02.00
Peak level 98.8 %
Track quality 100.0 %
Test CRC 53402052
Copy CRC 53402052
Track not present in AccurateRip database
Copy OK
Track 2
Filename E:\music\VA - Dramatic Funk Themes Vol 1 [FLAC]\02. Alan Hawkshaw - Flashpoint.wav
Peak level 98.8 %
Track quality 100.0 %
Test CRC 5EFD7571
Copy CRC 5EFD7571
Track not present in AccurateRip database
Copy OK
Track 3
Filename E:\music\VA - Dramatic Funk Themes Vol 1 [FLAC]\03. Kenny Salmon - Flying Squad.wav
Peak level 98.8 %
Track quality 100.0 %
Test CRC 024E4B9C
Copy CRC 024E4B9C
Track not present in AccurateRip database
Copy OK
Track 4
Filename E:\music\VA - Dramatic Funk Themes Vol 1 [FLAC]\04. Alan Parker - Sweeny Todd.wav
Peak level 98.8 %
Track quality 100.0 %
Test CRC 028FD5E0
Copy CRC 028FD5E0
Track not present in AccurateRip database
Copy OK
Track 5
Filename E:\music\VA - Dramatic Funk Themes Vol 1 [FLAC]\05. David Lindup - The Observer.wav
Peak level 98.8 %
Track quality 100.0 %
Test CRC CAEB0754
Copy CRC CAEB0754
Track not present in AccurateRip database
Copy OK
Track 6
Filename E:\music\VA - Dramatic Funk Themes Vol 1 [FLAC]\06. Kenny Salmon - Get Up and Go.wav
Peak level 98.8 %
Track quality 100.0 %
Test CRC 4C21128E
Copy CRC 4C21128E
Track not present in AccurateRip database
Copy OK
Track 7
Filename E:\music\VA - Dramatic Funk Themes Vol 1 [FLAC]\07. Alan Hawkshaw - High Diver.wav
Peak level 98.8 %
Track quality 100.0 %
Test CRC 334C7C0F
Copy CRC 334C7C0F
Track not present in AccurateRip database
Copy OK
Track 8
Filename E:\music\VA - Dramatic Funk Themes Vol 1 [FLAC]\08. Madeline Bell & Alan Parker - Soul Slap.wav
Peak level 98.8 %
Track quality 100.0 %
Test CRC 0DA504C1
Copy CRC 0DA504C1
Track not present in AccurateRip database
Copy OK
Track 9
Filename E:\music\VA - Dramatic Funk Themes Vol 1 [FLAC]\09. Keith Roberts - Override.wav
Peak level 98.8 %
Track quality 100.0 %
Test CRC 0F81EBF4
Copy CRC 0F81EBF4
Track not present in AccurateRip database
Copy OK
Track 10
Filename E:\music\VA - Dramatic Funk Themes Vol 1 [FLAC]\10. Mike Moran - El Zoro.wav
Peak level 98.8 %
Track quality 99.9 %
Test CRC AB49AAF6
Copy CRC AB49AAF6
Track not present in AccurateRip database
Copy OK
Track 11
Filename E:\music\VA - Dramatic Funk Themes Vol 1 [FLAC]\11. Alan Tew - Scenechange 6a.wav
Peak level 98.8 %
Track quality 100.0 %
Test CRC E35144DA
Copy CRC E35144DA
Track not present in AccurateRip database
Copy OK
Track 12
Filename E:\music\VA - Dramatic Funk Themes Vol 1 [FLAC]\12. David Lindup - At Risk.wav
Peak level 98.8 %
Track quality 100.0 %
Test CRC FBC4652F
Copy CRC FBC4652F
Track not present in AccurateRip database
Copy OK
Track 13
Filename E:\music\VA - Dramatic Funk Themes Vol 1 [FLAC]\13. Johnny Pearson - Work Force.wav
Peak level 98.8 %
Track quality 100.0 %
Test CRC 0DD30BB3
Copy CRC 0DD30BB3
Track not present in AccurateRip database
Copy OK
Track 14
Filename E:\music\VA - Dramatic Funk Themes Vol 1 [FLAC]\14. James Clarke - The Heavies.wav
Peak level 98.8 %
Track quality 100.0 %
Test CRC 22A16005
Copy CRC 22A16005
Track not present in AccurateRip database
Copy OK
Track 15
Filename E:\music\VA - Dramatic Funk Themes Vol 1 [FLAC]\15. Alan Hawkshaw & Brian Bennett - Oddball.wav
Peak level 98.8 %
Track quality 100.0 %
Test CRC 7C25195E
Copy CRC 7C25195E
Track not present in AccurateRip database
Copy OK
Track 16
Filename E:\music\VA - Dramatic Funk Themes Vol 1 [FLAC]\16. Alan Tew - Headlights.wav
Peak level 98.8 %
Track quality 100.0 %
Test CRC 360836E4
Copy CRC 360836E4
Track not present in AccurateRip database
Copy OK
Track 17
Filename E:\music\VA - Dramatic Funk Themes Vol 1 [FLAC]\17. Alan Hawkshaw - Speed Run.wav
Peak level 98.8 %
Track quality 100.0 %
Test CRC 4F8F263C
Copy CRC 4F8F263C
Track not present in AccurateRip database
Copy OK
Track 18
Filename E:\music\VA - Dramatic Funk Themes Vol 1 [FLAC]\18. David Lindup - Inside Information.wav
Peak level 98.8 %
Track quality 100.0 %
Test CRC D1253C3B
Copy CRC D1253C3B
Track not present in AccurateRip database
Copy OK
Track 19
Filename E:\music\VA - Dramatic Funk Themes Vol 1 [FLAC]\19. Mike Moran - The Pick-Up.wav
Peak level 98.8 %
Track quality 100.0 %
Test CRC 24874F2A
Copy CRC 24874F2A
Track not present in AccurateRip database
Copy OK
Track 20
Filename E:\music\VA - Dramatic Funk Themes Vol 1 [FLAC]\20. Alan Hawkshaw - The Investigator.wav
Peak level 98.8 %
Track quality 100.0 %
Test CRC 454D491B
Copy CRC 454D491B
Track not present in AccurateRip database
Copy OK
None of the tracks are present in the AccurateRip database
No errors occurred
End of status report
 
cue
REM GENRE Funk
REM DATE 2008
REM DISCID 270B8E14
REM COMMENT "ExactAudioCopy v0.99pb3"
PERFORMER "Various"
TITLE "Dramatic Funk Themes Vol. 1 - British Rare Groove from the Themes Internation..."
FILE "01. Les Hurdle - Soul Train.wav" WAVE
TRACK 01 AUDIO
TITLE "01. Les Hurdle - Soul Train"
PERFORMER "01. Les Hurdle - Soul Train"
INDEX 01 00:00:00
FILE "02. Alan Hawkshaw - Flashpoint.wav" WAVE
TRACK 02 AUDIO
TITLE "02. Alan Hawkshaw - Flashpoint"
PERFORMER "02. Alan Hawkshaw - Flashpoint"
INDEX 01 00:00:00
FILE "03. Kenny Salmon - Flying Squad.wav" WAVE
TRACK 03 AUDIO
TITLE "03. Kenny Salmon - Flying Squad"
PERFORMER "03. Kenny Salmon - Flying Squad"
INDEX 01 00:00:00
FILE "04. Alan Parker - Sweeny Todd.wav" WAVE
TRACK 04 AUDIO
TITLE "04. Alan Parker - Sweeny Todd"
PERFORMER "04. Alan Parker - Sweeny Todd"
INDEX 01 00:00:00
FILE "05. David Lindup - The Observer.wav" WAVE
TRACK 05 AUDIO
TITLE "05. David Lindup - The Observer"
PERFORMER "05. David Lindup - The Observer"
INDEX 01 00:00:00
FILE "06. Kenny Salmon - Get Up and Go.wav" WAVE
TRACK 06 AUDIO
TITLE "06. Kenny Salmon - Get Up and Go"
PERFORMER "06. Kenny Salmon - Get Up and Go"
INDEX 01 00:00:00
FILE "07. Alan Hawkshaw - High Diver.wav" WAVE
TRACK 07 AUDIO
TITLE "07. Alan Hawkshaw - High Diver"
PERFORMER "07. Alan Hawkshaw - High Diver"
INDEX 01 00:00:00
FILE "08. Madeline Bell & Alan Parker - Soul Slap.wav" WAVE
TRACK 08 AUDIO
TITLE "08. Madeline Bell & Alan Parker - Soul Slap"
PERFORMER "08. Madeline Bell & Alan Parker - Soul Slap"
INDEX 01 00:00:00
FILE "09. Keith Roberts - Override.wav" WAVE
TRACK 09 AUDIO
TITLE "09. Keith Roberts - Override"
PERFORMER "09. Keith Roberts - Override"
INDEX 01 00:00:00
FILE "10. Mike Moran - El Zoro.wav" WAVE
TRACK 10 AUDIO
TITLE "10. Mike Moran - El Zoro"
PERFORMER "10. Mike Moran - El Zoro"
INDEX 01 00:00:00
FILE "11. Alan Tew - Scenechange 6a.wav" WAVE
TRACK 11 AUDIO
TITLE "11. Alan Tew - Scenechange 6a"
PERFORMER "11. Alan Tew - Scenechange 6a"
INDEX 01 00:00:00
FILE "12. David Lindup - At Risk.wav" WAVE
TRACK 12 AUDIO
TITLE "12. David Lindup - At Risk"
PERFORMER "12. David Lindup - At Risk"
INDEX 01 00:00:00
FILE "13. Johnny Pearson - Work Force.wav" WAVE
TRACK 13 AUDIO
TITLE "13. Johnny Pearson - Work Force"
PERFORMER "13. Johnny Pearson - Work Force"
INDEX 01 00:00:00
FILE "14. James Clarke - The Heavies.wav" WAVE
TRACK 14 AUDIO
TITLE "14. James Clarke - The Heavies"
PERFORMER "14. James Clarke - The Heavies"
INDEX 01 00:00:00
FILE "15. Alan Hawkshaw & Brian Bennett - Oddball.wav" WAVE
TRACK 15 AUDIO
TITLE "15. Alan Hawkshaw & Brian Bennett - Oddball"
PERFORMER "15. Alan Hawkshaw & Brian Bennett - Oddball"
INDEX 01 00:00:00
FILE "16. Alan Tew - Headlights.wav" WAVE
TRACK 16 AUDIO
TITLE "16. Alan Tew - Headlights"
PERFORMER "16. Alan Tew - Headlights"
INDEX 01 00:00:00
FILE "17. Alan Hawkshaw - Speed Run.wav" WAVE
TRACK 17 AUDIO
TITLE "17. Alan Hawkshaw - Speed Run"
PERFORMER "17. Alan Hawkshaw - Speed Run"
INDEX 01 00:00:00
FILE "18. David Lindup - Inside Information.wav" WAVE
TRACK 18 AUDIO
TITLE "18. David Lindup - Inside Information"
PERFORMER "18. David Lindup - Inside Information"
INDEX 01 00:00:00
FILE "19. Mike Moran - The Pick-Up.wav" WAVE
TRACK 19 AUDIO
TITLE "19. Mike Moran - The Pick-Up"
PERFORMER "19. Mike Moran - The Pick-Up"
INDEX 01 00:00:00
FILE "20. Alan Hawkshaw - The Investigator.wav" WAVE
TRACK 20 AUDIO
TITLE "20. Alan Hawkshaw - The Investigator"
PERFORMER "20. Alan Hawkshaw - The Investigator"
INDEX 01 00:00:00
Приватный:
Нет (DHT включён)
Размер:
322.09 Мб (337,731,944 байт) » файлов: 23
Участники:
0 раздают, 0 качают (0 участников всего)
Внешние участники:
5 раздают, 1 качают (6 участников всего) [ Обновить ]
Нет сидеров - пишите личное сообщение M0p94ok. Не нравятся торренты? Участники группы Pro-jazz Club могут заказать прямую ссылку на скачивание из облака.
No seeders - write a personal message to M0p94ok. Don't like torrents? Members of Pro-jazz Club group can order a direct download link from the cloud.
04:27
33
Нет комментариев. Ваш будет первым!