Поиск

(European groove (Jazz-Funk), Easy Listening) VA - Music For Dancefloors - The Cream Of The KPM Music Green Label Sessions - 2000, FLAC (tracks+.cue), lossless

Треклист:
VA - Music For Dancefloors - The Cream Of The KPM Music Green Label Sessions
Жанр: European groove (Jazz-Funk), Easy Listening
Год выпуска диска: 2000
Производитель диска: UK
Аудио кодек: FLAC
Тип рипа: tracks+.cue
Битрейт аудио: lossless
Продолжительность: 56:02
Трэклист:
1 Alan Parker & Madeline Bell - That's What Friends Are For (Vocal) 2:58
2 Alan Parker - Unlimited Love 2:07
3 Duncan Lamont - Funky Express (Re-Edit) 3:12
4 Johnny Pearson - Assault Course 4:26
5 Barry Morgan & Ray Cooper - Samba Street 3:01
6 James Clarke - Second Cut (Re-Edit) 2:24
7 John Cameron - Swamp Fever 2:07
8 Dennis Bovell & William Farley - Reggae Train 2:28
9 Keith Mansfield - Incidental Backcloth No.3 2:56
10 Francis Coppieters - Cross Talk 3:20
11 Pierre Lavin Pop Band, The - In Advance (Re-Edit) 2:20
12 Alan Hawkshaw - Senior Thump 2:46
13 Alan Moorhouse - Expo In Tokyo 2:17
14 Nascimbene - Interlude: Witchdoctor 1:19
15 Juan Erlando & His Latin Band - Jungle Baby 2:17
16 Klaus Weiss Sounds & Percussion - Morning 1 / Morning 2 4:03
17 Les Baxter - Freeway To Rio 2:06
18 Juan Erlando & His Latin Band - Brazil Express 2:29
19 Francis Coppieters - Piano In Transit 4:17
20 Keith Mansfield - Crash Course 2:43
 
eac
Exact Audio Copy V0.99 prebeta 5 from 4. May 2009
EAC extraction logfile from 7. June 2009, 17:44
Various / Music For Dancefloors (The Cream Of The KPM Music Green Label Sesions)
Used drive : TSSTcorpCDDVDW SH-S203D Adapter: 2 ID: 0
Read mode : Burst
Read offset correction : 6
Overread into Lead-In and Lead-Out : No
Fill up missing offset samples with silence : Yes
Delete leading and trailing silent blocks : No
Null samples used in CRC calculations : Yes
Used interface : Native Win32 interface for Win NT & 2000
Gap handling : Appended to previous track
Used output format : User Defined Encoder
Selected bitrate : 128 kBit/s
Quality : High
Add ID3 tag : No
Command line compressor : C:\Program Files\Exact Audio Copy\Flac\flac.exe
Additional command line options : -V -8 -T "artist=%a" -T "title=%t" -T "album=%g" -T "date=%y" -T "tracknumber=%n" -T "genre=%m" %s
TOC of the extracted CD
Track | Start | Length | Start sector | End sector
---------------------------------------------------------
1 | 0:00.00 | 2:59.25 | 0 | 13449
2 | 2:59.25 | 2:08.37 | 13450 | 23086
3 | 5:07.62 | 3:13.15 | 23087 | 37576
4 | 8:21.02 | 4:27.00 | 37577 | 57601
5 | 12:48.02 | 3:02.30 | 57602 | 71281
6 | 15:50.32 | 2:25.00 | 71282 | 82156
7 | 18:15.32 | 2:08.13 | 82157 | 91769
8 | 20:23.45 | 2:29.57 | 91770 | 103001
9 | 22:53.27 | 2:57.10 | 103002 | 116286
10 | 25:50.37 | 3:21.00 | 116287 | 131361
11 | 29:11.37 | 2:21.48 | 131362 | 141984
12 | 31:33.10 | 2:47.00 | 141985 | 154509
13 | 34:20.10 | 2:17.65 | 154510 | 164849
14 | 36:38.00 | 1:20.15 | 164850 | 170864
15 | 37:58.15 | 2:18.57 | 170865 | 181271
16 | 40:16.72 | 4:04.40 | 181272 | 199611
17 | 44:21.37 | 2:07.50 | 199612 | 209186
18 | 46:29.12 | 2:30.03 | 209187 | 220439
19 | 48:59.15 | 4:18.60 | 220440 | 239849
20 | 53:18.00 | 2:43.45 | 239850 | 252119
Track 1
Filename D:\To Do\_EAC RIPS\Various - Music For Dancefloors (The Cream Of The KPM Music Green Label Sesions) (2000)\Various - Music For Dancefloors (The Cream Of The KPM Music Green Label Sesions) (2000) - 01 - That's What Friends Are For (Vocal).wav
Pre-gap length 0:00:02.00
Peak level 87.3 %
Test CRC C889CA35
Copy CRC C889CA35
Accurately ripped (confidence 2) [B86912CC]
Copy OK
Track 2
Filename D:\To Do\_EAC RIPS\Various - Music For Dancefloors (The Cream Of The KPM Music Green Label Sesions) (2000)\Various - Music For Dancefloors (The Cream Of The KPM Music Green Label Sesions) (2000) - 02 - Unlimited Love.wav
Pre-gap length 0:00:00.56
Peak level 87.7 %
Test CRC E30FBF3D
Copy CRC E30FBF3D
Accurately ripped (confidence 2) [A1E4B5B1]
Copy OK
Track 3
Filename D:\To Do\_EAC RIPS\Various - Music For Dancefloors (The Cream Of The KPM Music Green Label Sesions) (2000)\Various - Music For Dancefloors (The Cream Of The KPM Music Green Label Sesions) (2000) - 03 - Funky Express (re-edit).wav
Pre-gap length 0:00:00.56
Peak level 99.3 %
Test CRC 8906DDCE
Copy CRC 8906DDCE
Accurately ripped (confidence 2) [FECF1F1F]
Copy OK
Track 4
Filename D:\To Do\_EAC RIPS\Various - Music For Dancefloors (The Cream Of The KPM Music Green Label Sesions) (2000)\Various - Music For Dancefloors (The Cream Of The KPM Music Green Label Sesions) (2000) - 04 - Assault Course.wav
Pre-gap length 0:00:00.55
Peak level 87.3 %
Test CRC E2B0CFDA
Copy CRC E2B0CFDA
Accurately ripped (confidence 2) [583D3CA0]
Copy OK
Track 5
Filename D:\To Do\_EAC RIPS\Various - Music For Dancefloors (The Cream Of The KPM Music Green Label Sesions) (2000)\Various - Music For Dancefloors (The Cream Of The KPM Music Green Label Sesions) (2000) - 05 - Samba Street.wav
Pre-gap length 0:00:00.56
Peak level 87.3 %
Test CRC 2E442F7A
Copy CRC 2E442F7A
Accurately ripped (confidence 2) [99271C2E]
Copy OK
Track 6
Filename D:\To Do\_EAC RIPS\Various - Music For Dancefloors (The Cream Of The KPM Music Green Label Sesions) (2000)\Various - Music For Dancefloors (The Cream Of The KPM Music Green Label Sesions) (2000) - 06 - Second Cut (re-edit).wav
Pre-gap length 0:00:00.55
Peak level 95.6 %
Test CRC B844F192
Copy CRC B844F192
Accurately ripped (confidence 2) [59016797]
Copy OK
Track 7
Filename D:\To Do\_EAC RIPS\Various - Music For Dancefloors (The Cream Of The KPM Music Green Label Sesions) (2000)\Various - Music For Dancefloors (The Cream Of The KPM Music Green Label Sesions) (2000) - 07 - Swamp Fever.wav
Pre-gap length 0:00:00.56
Peak level 87.3 %
Test CRC B3244AAD
Copy CRC B3244AAD
Accurately ripped (confidence 2) [1538C94A]
Copy OK
Track 8
Filename D:\To Do\_EAC RIPS\Various - Music For Dancefloors (The Cream Of The KPM Music Green Label Sesions) (2000)\Various - Music For Dancefloors (The Cream Of The KPM Music Green Label Sesions) (2000) - 08 - Reggae Train.wav
Pre-gap length 0:00:00.55
Peak level 87.5 %
Test CRC C7308072
Copy CRC C7308072
Accurately ripped (confidence 2) [EB88471D]
Copy OK
Track 9
Filename D:\To Do\_EAC RIPS\Various - Music For Dancefloors (The Cream Of The KPM Music Green Label Sesions) (2000)\Various - Music For Dancefloors (The Cream Of The KPM Music Green Label Sesions) (2000) - 09 - Incidental Backcloth No.3.wav
Pre-gap length 0:00:00.56
Peak level 42.6 %
Test CRC 2C3A6302
Copy CRC 2C3A6302
Accurately ripped (confidence 2) [3307EF46]
Copy OK
Track 10
Filename D:\To Do\_EAC RIPS\Various - Music For Dancefloors (The Cream Of The KPM Music Green Label Sesions) (2000)\Various - Music For Dancefloors (The Cream Of The KPM Music Green Label Sesions) (2000) - 10 - Cross Talk.wav
Pre-gap length 0:00:00.57
Peak level 79.8 %
Test CRC 09271545
Copy CRC 09271545
Accurately ripped (confidence 2) [FAED6844]
Copy OK
Track 11
Filename D:\To Do\_EAC RIPS\Various - Music For Dancefloors (The Cream Of The KPM Music Green Label Sesions) (2000)\Various - Music For Dancefloors (The Cream Of The KPM Music Green Label Sesions) (2000) - 11 - In Advance (re-edit).wav
Pre-gap length 0:00:00.55
Peak level 83.0 %
Test CRC CC5867BC
Copy CRC CC5867BC
Accurately ripped (confidence 2) [167120A5]
Copy OK
Track 12
Filename D:\To Do\_EAC RIPS\Various - Music For Dancefloors (The Cream Of The KPM Music Green Label Sesions) (2000)\Various - Music For Dancefloors (The Cream Of The KPM Music Green Label Sesions) (2000) - 12 - Senior Thump.wav
Pre-gap length 0:00:00.56
Peak level 85.9 %
Test CRC B266B680
Copy CRC B266B680
Accurately ripped (confidence 2) [6B9175F9]
Copy OK
Track 13
Filename D:\To Do\_EAC RIPS\Various - Music For Dancefloors (The Cream Of The KPM Music Green Label Sesions) (2000)\Various - Music For Dancefloors (The Cream Of The KPM Music Green Label Sesions) (2000) - 13 - Expo In Tokyo.wav
Pre-gap length 0:00:00.56
Peak level 73.4 %
Test CRC 1E6C500E
Copy CRC 1E6C500E
Accurately ripped (confidence 2) [8AE61CD8]
Copy OK
Track 14
Filename D:\To Do\_EAC RIPS\Various - Music For Dancefloors (The Cream Of The KPM Music Green Label Sesions) (2000)\Various - Music For Dancefloors (The Cream Of The KPM Music Green Label Sesions) (2000) - 14 - Witchdoctor.wav
Pre-gap length 0:00:00.54
Peak level 74.3 %
Test CRC 30BFEC01
Copy CRC 30BFEC01
Accurately ripped (confidence 2) [E15EFC1B]
Copy OK
Track 15
Filename D:\To Do\_EAC RIPS\Various - Music For Dancefloors (The Cream Of The KPM Music Green Label Sesions) (2000)\Various - Music For Dancefloors (The Cream Of The KPM Music Green Label Sesions) (2000) - 15 - Jungle Baby.wav
Pre-gap length 0:00:00.56
Peak level 86.8 %
Test CRC 9D985486
Copy CRC 9D985486
Accurately ripped (confidence 2) [29FFE915]
Copy OK
Track 16
Filename D:\To Do\_EAC RIPS\Various - Music For Dancefloors (The Cream Of The KPM Music Green Label Sesions) (2000)\Various - Music For Dancefloors (The Cream Of The KPM Music Green Label Sesions) (2000) - 16 - Morning 1 , Morning 2.wav
Pre-gap length 0:00:00.56
Peak level 87.3 %
Test CRC D2CA865E
Copy CRC D2CA865E
Accurately ripped (confidence 2) [20AEC127]
Copy OK
Track 17
Filename D:\To Do\_EAC RIPS\Various - Music For Dancefloors (The Cream Of The KPM Music Green Label Sesions) (2000)\Various - Music For Dancefloors (The Cream Of The KPM Music Green Label Sesions) (2000) - 17 - Freeway To Rio.wav
Pre-gap length 0:00:00.55
Peak level 77.9 %
Test CRC EE82049B
Copy CRC EE82049B
Accurately ripped (confidence 2) [9A8B975C]
Copy OK
Track 18
Filename D:\To Do\_EAC RIPS\Various - Music For Dancefloors (The Cream Of The KPM Music Green Label Sesions) (2000)\Various - Music For Dancefloors (The Cream Of The KPM Music Green Label Sesions) (2000) - 18 - Brazil Express.wav
Pre-gap length 0:00:00.54
Peak level 86.3 %
Test CRC CFD59CDF
Copy CRC CFD59CDF
Accurately ripped (confidence 2) [FA33386B]
Copy OK
Track 19
Filename D:\To Do\_EAC RIPS\Various - Music For Dancefloors (The Cream Of The KPM Music Green Label Sesions) (2000)\Various - Music For Dancefloors (The Cream Of The KPM Music Green Label Sesions) (2000) - 19 - Piano In Transit.wav
Pre-gap length 0:00:00.55
Peak level 100.0 %
Test CRC 4E0A61D7
Copy CRC 4E0A61D7
Accurately ripped (confidence 2) [DC0BD530]
Copy OK
Track 20
Filename D:\To Do\_EAC RIPS\Various - Music For Dancefloors (The Cream Of The KPM Music Green Label Sesions) (2000)\Various - Music For Dancefloors (The Cream Of The KPM Music Green Label Sesions) (2000) - 20 - Crash Course.wav
Pre-gap length 0:00:00.56
Peak level 89.1 %
Test CRC 817BC53D
Copy CRC 817BC53D
Accurately ripped (confidence 2) [BF622DF7]
Copy OK
All tracks accurately ripped
No errors occurred
End of status report
 
cue
REM DATE 2000
REM DISCID 000D2114
REM COMMENT "ExactAudioCopy v0.99pb5"
PERFORMER "Various"
TITLE "Music For Dancefloors (The Cream Of The KPM Music Green Label Sesions)"
FILE "Various - Music For Dancefloors (The Cream Of The KPM Music Green Label Sesions) (2000)\Various - Music For Dancefloors (The Cream Of The KPM Music Green Label Sesions) (2000) - 01 - That's What Friends Are For (Vocal).wav" WAVE
TRACK 01 AUDIO
TITLE "That's What Friends Are For (Vocal)"
PERFORMER "Madeline Bell & Alan Parker"
INDEX 01 00:00:00
TRACK 02 AUDIO
TITLE "Unlimited Love"
PERFORMER "Alan Parker"
INDEX 00 02:58:44
FILE "Various - Music For Dancefloors (The Cream Of The KPM Music Green Label Sesions) (2000)\Various - Music For Dancefloors (The Cream Of The KPM Music Green Label Sesions) (2000) - 02 - Unlimited Love.wav" WAVE
INDEX 01 00:00:00
TRACK 03 AUDIO
TITLE "Funky Express (re-edit)"
PERFORMER "Duncan Lamont"
INDEX 00 02:07:56
FILE "Various - Music For Dancefloors (The Cream Of The KPM Music Green Label Sesions) (2000)\Various - Music For Dancefloors (The Cream Of The KPM Music Green Label Sesions) (2000) - 03 - Funky Express (re-edit).wav" WAVE
INDEX 01 00:00:00
TRACK 04 AUDIO
TITLE "Assault Course"
PERFORMER "Jonnhy Pearson"
INDEX 00 03:12:35
FILE "Various - Music For Dancefloors (The Cream Of The KPM Music Green Label Sesions) (2000)\Various - Music For Dancefloors (The Cream Of The KPM Music Green Label Sesions) (2000) - 04 - Assault Course.wav" WAVE
INDEX 01 00:00:00
TRACK 05 AUDIO
TITLE "Samba Street"
PERFORMER "Barry Morgan & Ray Cooper"
INDEX 00 04:26:19
FILE "Various - Music For Dancefloors (The Cream Of The KPM Music Green Label Sesions) (2000)\Various - Music For Dancefloors (The Cream Of The KPM Music Green Label Sesions) (2000) - 05 - Samba Street.wav" WAVE
INDEX 01 00:00:00
TRACK 06 AUDIO
TITLE "Second Cut (re-edit)"
PERFORMER "James Clarke"
INDEX 00 03:01:50
FILE "Various - Music For Dancefloors (The Cream Of The KPM Music Green Label Sesions) (2000)\Various - Music For Dancefloors (The Cream Of The KPM Music Green Label Sesions) (2000) - 06 - Second Cut (re-edit).wav" WAVE
INDEX 01 00:00:00
TRACK 07 AUDIO
TITLE "Swamp Fever"
PERFORMER "John Cameron"
INDEX 00 02:24:19
FILE "Various - Music For Dancefloors (The Cream Of The KPM Music Green Label Sesions) (2000)\Various - Music For Dancefloors (The Cream Of The KPM Music Green Label Sesions) (2000) - 07 - Swamp Fever.wav" WAVE
INDEX 01 00:00:00
TRACK 08 AUDIO
TITLE "Reggae Train"
PERFORMER "William Farley & Dennis Bovell"
INDEX 00 02:07:33
FILE "Various - Music For Dancefloors (The Cream Of The KPM Music Green Label Sesions) (2000)\Various - Music For Dancefloors (The Cream Of The KPM Music Green Label Sesions) (2000) - 08 - Reggae Train.wav" WAVE
INDEX 01 00:00:00
TRACK 09 AUDIO
TITLE "Incidental Backcloth No.3"
PERFORMER "Keith Mansfield"
INDEX 00 02:29:01
FILE "Various - Music For Dancefloors (The Cream Of The KPM Music Green Label Sesions) (2000)\Various - Music For Dancefloors (The Cream Of The KPM Music Green Label Sesions) (2000) - 09 - Incidental Backcloth No.3.wav" WAVE
INDEX 01 00:00:00
TRACK 10 AUDIO
TITLE "Cross Talk"
PERFORMER "Francis Coppieters"
INDEX 00 02:56:28
FILE "Various - Music For Dancefloors (The Cream Of The KPM Music Green Label Sesions) (2000)\Various - Music For Dancefloors (The Cream Of The KPM Music Green Label Sesions) (2000) - 10 - Cross Talk.wav" WAVE
INDEX 01 00:00:00
TRACK 11 AUDIO
TITLE "In Advance (re-edit)"
PERFORMER "The Pierre Lavin Pop Band"
INDEX 00 03:20:20
FILE "Various - Music For Dancefloors (The Cream Of The KPM Music Green Label Sesions) (2000)\Various - Music For Dancefloors (The Cream Of The KPM Music Green Label Sesions) (2000) - 11 - In Advance (re-edit).wav" WAVE
INDEX 01 00:00:00
TRACK 12 AUDIO
TITLE "Senior Thump"
PERFORMER "Alan Hawkshaw"
INDEX 00 02:20:67
FILE "Various - Music For Dancefloors (The Cream Of The KPM Music Green Label Sesions) (2000)\Various - Music For Dancefloors (The Cream Of The KPM Music Green Label Sesions) (2000) - 12 - Senior Thump.wav" WAVE
INDEX 01 00:00:00
TRACK 13 AUDIO
TITLE "Expo In Tokyo"
PERFORMER "Alan Moorhouse"
INDEX 00 02:46:19
FILE "Various - Music For Dancefloors (The Cream Of The KPM Music Green Label Sesions) (2000)\Various - Music For Dancefloors (The Cream Of The KPM Music Green Label Sesions) (2000) - 13 - Expo In Tokyo.wav" WAVE
INDEX 01 00:00:00
TRACK 14 AUDIO
TITLE "Witchdoctor"
PERFORMER "Nascimbene"
INDEX 00 02:17:11
FILE "Various - Music For Dancefloors (The Cream Of The KPM Music Green Label Sesions) (2000)\Various - Music For Dancefloors (The Cream Of The KPM Music Green Label Sesions) (2000) - 14 - Witchdoctor.wav" WAVE
INDEX 01 00:00:00
TRACK 15 AUDIO
TITLE "Jungle Baby"
PERFORMER "Juan Erlando & His Latin Band"
INDEX 00 01:19:34
FILE "Various - Music For Dancefloors (The Cream Of The KPM Music Green Label Sesions) (2000)\Various - Music For Dancefloors (The Cream Of The KPM Music Green Label Sesions) (2000) - 15 - Jungle Baby.wav" WAVE
INDEX 01 00:00:00
TRACK 16 AUDIO
TITLE "Morning 1 / Morning 2"
PERFORMER "Klaus Weiss"
INDEX 00 02:18:01
FILE "Various - Music For Dancefloors (The Cream Of The KPM Music Green Label Sesions) (2000)\Various - Music For Dancefloors (The Cream Of The KPM Music Green Label Sesions) (2000) - 16 - Morning 1 , Morning 2.wav" WAVE
INDEX 01 00:00:00
TRACK 17 AUDIO
TITLE "Freeway To Rio"
PERFORMER "Les Baxter"
INDEX 00 04:03:60
FILE "Various - Music For Dancefloors (The Cream Of The KPM Music Green Label Sesions) (2000)\Various - Music For Dancefloors (The Cream Of The KPM Music Green Label Sesions) (2000) - 17 - Freeway To Rio.wav" WAVE
INDEX 01 00:00:00
TRACK 18 AUDIO
TITLE "Brazil Express"
PERFORMER "Juan Erlando & His Latin Band"
INDEX 00 02:06:71
FILE "Various - Music For Dancefloors (The Cream Of The KPM Music Green Label Sesions) (2000)\Various - Music For Dancefloors (The Cream Of The KPM Music Green Label Sesions) (2000) - 18 - Brazil Express.wav" WAVE
INDEX 01 00:00:00
TRACK 19 AUDIO
TITLE "Piano In Transit"
PERFORMER "Francis Coppieters"
INDEX 00 02:29:23
FILE "Various - Music For Dancefloors (The Cream Of The KPM Music Green Label Sesions) (2000)\Various - Music For Dancefloors (The Cream Of The KPM Music Green Label Sesions) (2000) - 19 - Piano In Transit.wav" WAVE
INDEX 01 00:00:00
TRACK 20 AUDIO
TITLE "Crash Course"
PERFORMER "Keith Mansfield"
INDEX 00 04:18:04
FILE "Various - Music For Dancefloors (The Cream Of The KPM Music Green Label Sesions) (2000)\Various - Music For Dancefloors (The Cream Of The KPM Music Green Label Sesions) (2000) - 20 - Crash Course.wav" WAVE
INDEX 01 00:00:00
Приватный:
Нет (DHT включён)
Размер:
331.52 Мб (347,618,878 байт) » файлов: 22
Участники:
0 раздают, 0 качают (0 участников всего)
Внешние участники:
--- [ Обновить ]
Никого нет на раздаче - пишите личное сообщение M0p94ok
No seeders - write personal message to M0p94ok
04:28
22
Нет комментариев. Ваш будет первым!