Поиск

(Soul, Funk, R&B) [CD] VA - Soul Hits of the 80's (3CD) - 2004, FLAC (tracks+.cue), lossless

(Soul, Funk, R&B) [CD] VA - Soul Hits of the 80's (3CD) - 2004, FLAC (tracks+.cue), lossless
Треклист:
Soul Hits of the 80's (3CD)
Жанр: Soul, Funk, R&B
Носитель: CD
Год издания: 2004
Издатель (лейбл): Sony Cmg Mkt Group
Аудиокодек: FLAC (*.flac)
Тип рипа: tracks+.cue
Битрейт аудио: lossless
Продолжительность: 03:16:47
Источник (релизер): найдено в сети
Наличие сканов в содержимом раздачи: нет
с раздачи ушел
 
Disc 1
 
Tracklist:
01. Juicy Fruit - James Mtume
02. Sanctified Lady - Marvin Gaye
03. Baby Come To Me - Regina Bell
04. Stop To Love - Luther Vandross
05. Let's Hear It For The Boy - Deniece Williams
06. Caravan Of Love - Isley Jasper Isley
07. All Cried Out - Lisa Lisa & Cult Jam
08. Lovergirl - Teena Marie
09. Shining Star - Manhattans
10. Fall In Love With Me - Earth, Wind & Fire
11. Shake You Down - Gregory Abbott
12. Lovey Dovey - Tony Terry
13. Easy Lover - Phil Collins & Phillip Bailey
 
Лог создания рипа
Exact Audio Copy V1.0 beta 1 from 15. November 2010
EAC extraction logfile from 15. August 2011, 13:53
Various Artist / Soul Hits Of The 80's (2002)
Used drive : TSSTcorpCDDVDW SH-S223L Adapter: 5 ID: 0
Read mode : Secure
Utilize accurate stream : Yes
Defeat audio cache : No
Make use of C2 pointers : No
Read offset correction : 6
Overread into Lead-In and Lead-Out : No
Fill up missing offset samples with silence : Yes
Delete leading and trailing silent blocks : No
Null samples used in CRC calculations : Yes
Used interface : Native Win32 interface for Win NT & 2000
Gap handling : Appended to previous track
Used output format : User Defined Encoder
Selected bitrate : 768 kBit/s
Quality : High
Add ID3 tag : No
Command line compressor : C:\Program Files (x86)\Exact Audio Copy\FLAC\FLAC.EXE
Additional command line options : -6 -V -T "ARTIST=%a" -T "TITLE=%t" -T "ALBUM=%g" -T "DATE=%y" -T "TRACKNUMBER=%n" -T "GENRE=%m" -T "COMMENT=%e" %j--picture="%i"%j %s -o %d
TOC of the extracted CD
Track | Start | Length | Start sector | End sector
---------------------------------------------------------
1 | 0:00.00 | 5:52.12 | 0 | 26411
2 | 5:52.12 | 5:25.00 | 26412 | 50786
3 | 11:17.12 | 5:41.50 | 50787 | 76411
4 | 16:58.62 | 5:10.63 | 76412 | 99724
5 | 22:09.50 | 4:21.60 | 99725 | 119359
6 | 26:31.35 | 5:42.70 | 119360 | 145079
7 | 32:14.30 | 4:45.72 | 145080 | 166526
8 | 37:00.27 | 4:52.18 | 166527 | 188444
9 | 41:52.45 | 4:40.27 | 188445 | 209471
10 | 46:32.72 | 5:53.65 | 209472 | 236011
11 | 52:26.62 | 4:05.18 | 236012 | 254404
12 | 56:32.05 | 3:35.72 | 254405 | 270601
13 | 60:08.02 | 5:05.00 | 270602 | 293476
Track 1
Filename C:\Users\Mike\Documents\EAC Rips\01. Juicy Fruit - Mtume.wav
Pre-gap length 0:00:02.00
Peak level 98.8 %
Extraction speed 8.6 X
Track quality 100.0 %
Test CRC 6FEB0276
Copy CRC 6FEB0276
Cannot be verified as accurate (confidence 2) [CED345E9], AccurateRip returned [858A9D3D]
Copy OK
Track 2
Filename C:\Users\Mike\Documents\EAC Rips\02. Sanctified Lady - Marvin Gaye.wav
Pre-gap length 0:00:00.30
Peak level 88.1 %
Extraction speed 9.7 X
Track quality 100.0 %
Test CRC 1A68E8DD
Copy CRC 1A68E8DD
Cannot be verified as accurate (confidence 2) [1944397B], AccurateRip returned [EC5C23FB]
Copy OK
Track 3
Filename C:\Users\Mike\Documents\EAC Rips\03. Baby Come To Me - Regina Belle.wav
Pre-gap length 0:00:00.60
Peak level 78.5 %
Extraction speed 10.6 X
Track quality 100.0 %
Test CRC D696A279
Copy CRC D696A279
Cannot be verified as accurate (confidence 2) [15A4223F], AccurateRip returned [5425C7DF]
Copy OK
Track 4
Filename C:\Users\Mike\Documents\EAC Rips\04. Stop To Love - Luther Vandross.wav
Peak level 98.8 %
Extraction speed 11.4 X
Track quality 100.0 %
Test CRC 2F48A352
Copy CRC 2F48A352
Cannot be verified as accurate (confidence 2) [5FD1FB0C], AccurateRip returned [11393855]
Copy OK
Track 5
Filename C:\Users\Mike\Documents\EAC Rips\05. Let's Hear It For The Boy - Deniece Williams.wav
Pre-gap length 0:00:00.63
Peak level 88.1 %
Extraction speed 12.1 X
Track quality 100.0 %
Test CRC 782A4829
Copy CRC 782A4829
Cannot be verified as accurate (confidence 2) [FFA04337], AccurateRip returned [DE2C4E7F]
Copy OK
Track 6
Filename C:\Users\Mike\Documents\EAC Rips\06. Caravan Of Love - Isley Jasper Isley.wav
Pre-gap length 0:00:01.18
Peak level 98.8 %
Extraction speed 12.7 X
Track quality 100.0 %
Test CRC 06792869
Copy CRC 06792869
Cannot be verified as accurate (confidence 2) [643A43DA], AccurateRip returned [39BE10A5]
Copy OK
Track 7
Filename C:\Users\Mike\Documents\EAC Rips\07. All Cried Out - Lisa Lisa & Cult Jam.wav
Peak level 98.8 %
Extraction speed 13.3 X
Track quality 100.0 %
Test CRC C2CD18F6
Copy CRC C2CD18F6
Cannot be verified as accurate (confidence 2) [0FF513E9], AccurateRip returned [223ACEDE]
Copy OK
Track 8
Filename C:\Users\Mike\Documents\EAC Rips\08. Lovergirl - Teena Marie.wav
Pre-gap length 0:00:00.50
Peak level 83.1 %
Extraction speed 12.3 X
Track quality 99.9 %
Test CRC 894E6CD2
Copy CRC 894E6CD2
Cannot be verified as accurate (confidence 2) [39BAF487], AccurateRip returned [D72D19BD]
Copy OK
Track 9
Filename C:\Users\Mike\Documents\EAC Rips\09. Shining Star - The Manhattans.wav
Pre-gap length 0:00:00.73
Peak level 98.8 %
Extraction speed 14.0 X
Track quality 100.0 %
Test CRC 54E98936
Copy CRC 54E98936
Cannot be verified as accurate (confidence 2) [B3778690], AccurateRip returned [B8C23317]
Copy OK
Track 10
Filename C:\Users\Mike\Documents\EAC Rips\10. Fall In Love With Me - Earth, Wind, & Fire.wav
Pre-gap length 0:00:01.02
Peak level 88.1 %
Extraction speed 14.9 X
Track quality 100.0 %
Test CRC 2736F632
Copy CRC 2736F632
Cannot be verified as accurate (confidence 2) [A37E60C1], AccurateRip returned [AB99452C]
Copy OK
Track 11
Filename C:\Users\Mike\Documents\EAC Rips\11. Shake You Down - Gregory Abbott.wav
Pre-gap length 0:00:00.45
Peak level 88.1 %
Extraction speed 15.3 X
Track quality 100.0 %
Test CRC 4A92909B
Copy CRC 4A92909B
Cannot be verified as accurate (confidence 2) [97065844], AccurateRip returned [5FD2820A]
Copy OK
Track 12
Filename C:\Users\Mike\Documents\EAC Rips\12. Lovey Dovey - Tony Terry.wav
Pre-gap length 0:00:00.45
Peak level 98.8 %
Extraction speed 15.6 X
Track quality 100.0 %
Test CRC F33A1B9A
Copy CRC F33A1B9A
Cannot be verified as accurate (confidence 2) [DFB4C691], AccurateRip returned [6FCFEAB4]
Copy OK
Track 13
Filename C:\Users\Mike\Documents\EAC Rips\13. Easy Lover - Philip Bailey ft. Phil Collins.wav
Peak level 98.8 %
Extraction speed 16.1 X
Track quality 100.0 %
Test CRC 6F373B78
Copy CRC 6F373B78
Cannot be verified as accurate (confidence 2) [78D2E1AA], AccurateRip returned [A8925A50]
Copy OK
No tracks could be verified as accurate
You may have a different pressing from the one(s) in the database
No errors occurred
End of status report
 
Содержание индексной карты (.CUE)
REM GENRE R&B
REM DATE 2002
REM DISCID AB0F490D
REM COMMENT "ExactAudioCopy v1.0b1"
PERFORMER "Various Artist"
TITLE "Soul Hits Of The 80's (2002)"
FILE "01. Juicy Fruit - Mtume.wav" WAVE
TRACK 01 AUDIO
TITLE "Juicy Fruit"
PERFORMER "Mtume"
ISRC USSM18300593
INDEX 01 00:00:00
TRACK 02 AUDIO
TITLE "Sanctified Lady"
PERFORMER "Marvin Gaye"
ISRC USSM19804531
INDEX 00 05:51:57
FILE "02. Sanctified Lady - Marvin Gaye.wav" WAVE
INDEX 01 00:00:00
TRACK 03 AUDIO
TITLE "Baby Come To Me"
PERFORMER "Regina Belle"
ISRC USSM18900232
INDEX 00 05:24:15
FILE "03. Baby Come To Me - Regina Belle.wav" WAVE
INDEX 01 00:00:00
FILE "04. Stop To Love - Luther Vandross.wav" WAVE
TRACK 04 AUDIO
TITLE "Stop To Love"
PERFORMER "Luther Vandross"
ISRC USSM18600320
INDEX 01 00:00:00
TRACK 05 AUDIO
TITLE "Let's Hear It For The Boy"
PERFORMER "Deniece Williams"
ISRC USSM18400032
INDEX 00 05:10:00
FILE "05. Let's Hear It For The Boy - Deniece Williams.wav" WAVE
INDEX 01 00:00:00
TRACK 06 AUDIO
TITLE "Caravan Of Love"
PERFORMER "Isley Jasper Isley"
ISRC USSM18500007
INDEX 00 04:20:42
FILE "06. Caravan Of Love - Isley Jasper Isley.wav" WAVE
INDEX 01 00:00:00
FILE "07. All Cried Out - Lisa Lisa & Cult Jam.wav" WAVE
TRACK 07 AUDIO
TITLE "All Cried Out"
PERFORMER "Lisa Lisa & Cult Jam"
ISRC USSM18500573
INDEX 01 00:00:00
TRACK 08 AUDIO
TITLE "Lovergirl"
PERFORMER "Teena Marie"
ISRC USSM18400506
INDEX 00 04:45:22
FILE "08. Lovergirl - Teena Marie.wav" WAVE
INDEX 01 00:00:00
TRACK 09 AUDIO
TITLE "Shining Star"
PERFORMER "The Manhattans"
ISRC USSM18000018
INDEX 00 04:51:20
FILE "09. Shining Star - The Manhattans.wav" WAVE
INDEX 01 00:00:00
TRACK 10 AUDIO
TITLE "Fall In Love With Me"
PERFORMER "Earth, Wind, & Fire"
ISRC USSM18200210
INDEX 00 04:39:25
FILE "10. Fall In Love With Me - Earth, Wind, & Fire.wav" WAVE
INDEX 01 00:00:00
TRACK 11 AUDIO
TITLE "Shake You Down"
PERFORMER "Gregory Abbott"
ISRC USSM18600471
INDEX 00 05:53:20
FILE "11. Shake You Down - Gregory Abbott.wav" WAVE
INDEX 01 00:00:00
TRACK 12 AUDIO
TITLE "Lovey Dovey"
PERFORMER "Tony Terry"
ISRC USSM10015464
INDEX 00 04:04:48
FILE "12. Lovey Dovey - Tony Terry.wav" WAVE
INDEX 01 00:00:00
FILE "13. Easy Lover - Philip Bailey ft. Phil Collins.wav" WAVE
TRACK 13 AUDIO
TITLE "Easy Lover"
PERFORMER "Philip Bailey ft. Phil Collins"
ISRC USSM18400801
INDEX 01 00:00:00
 
Disc 2
 
Tracklist:
01. Encore - Cheryl Lynn
02. Ooo La La La - Teena Marie
03. Shower Me With Your Love - Surface
04. Lost in Emotion - Lisa Lisa & Cult Jam
05. Magnetic - Earth, Wind & Fire
06. All In My Mind - Full Force
07. How 'Bout Us - Champaign
08. Heaven Sent You - Stanley Clarke
09. Here and Now - Luther Vandross
10. You, Me and He - Mtume
11. Dancing in The Sheets - Shalamar
12. Thigh Ride - Tawatha Agee
13. All I Want Is Forever - James Taylor, J.T, Regina Belle
 
Лог создания рипа
Exact Audio Copy V1.0 beta 1 from 15. November 2010
EAC extraction logfile from 15. August 2011, 14:10
Various Artists / Soul Hits Of The 80's (CD2-2002)
Used drive : TSSTcorpCDDVDW SH-S223L Adapter: 5 ID: 0
Read mode : Secure
Utilize accurate stream : Yes
Defeat audio cache : No
Make use of C2 pointers : No
Read offset correction : 6
Overread into Lead-In and Lead-Out : No
Fill up missing offset samples with silence : Yes
Delete leading and trailing silent blocks : No
Null samples used in CRC calculations : Yes
Used interface : Native Win32 interface for Win NT & 2000
Gap handling : Appended to previous track
Used output format : User Defined Encoder
Selected bitrate : 768 kBit/s
Quality : High
Add ID3 tag : No
Command line compressor : C:\Program Files (x86)\Exact Audio Copy\FLAC\FLAC.EXE
Additional command line options : -6 -V -T "ARTIST=%a" -T "TITLE=%t" -T "ALBUM=%g" -T "DATE=%y" -T "TRACKNUMBER=%n" -T "GENRE=%m" -T "COMMENT=%e" %j--picture="%i"%j %s -o %d
TOC of the extracted CD
Track | Start | Length | Start sector | End sector
---------------------------------------------------------
1 | 0:00.00 | 4:34.67 | 0 | 20616
2 | 4:34.67 | 5:18.10 | 20617 | 44476
3 | 9:53.02 | 4:56.43 | 44477 | 66719
4 | 14:49.45 | 5:07.70 | 66720 | 89814
5 | 19:57.40 | 4:18.70 | 89815 | 109234
6 | 24:16.35 | 4:41.52 | 109235 | 130361
7 | 28:58.12 | 4:37.00 | 130362 | 151136
8 | 33:35.12 | 5:59.63 | 151137 | 178124
9 | 39:35.00 | 5:24.35 | 178125 | 202459
10 | 44:59.35 | 4:28.05 | 202460 | 222564
11 | 49:27.40 | 4:05.00 | 222565 | 240939
12 | 53:32.40 | 4:55.20 | 240940 | 263084
13 | 58:27.60 | 4:30.57 | 263085 | 283391
Track 1
Filename C:\Users\Mike\Documents\EAC Rips\01. Encore (Single Version) - Cheryl Lynn.wav
Pre-gap length 0:00:02.00
Peak level 98.8 %
Extraction speed 8.4 X
Track quality 100.0 %
Test CRC C4ED1949
Copy CRC C4ED1949
Cannot be verified as accurate (confidence 3) [D188DCE0], AccurateRip returned [ECC85814]
Copy OK
Track 2
Filename C:\Users\Mike\Documents\EAC Rips\02. Ooo La La La - Teena Marie.wav
Pre-gap length 0:00:01.55
Peak level 83.1 %
Extraction speed 8.7 X
Track quality 99.9 %
Test CRC 5C62A35F
Copy CRC 5C62A35F
Cannot be verified as accurate (confidence 3) [89CD5BDA], AccurateRip returned [45964D52]
Copy OK
Track 3
Filename C:\Users\Mike\Documents\EAC Rips\03. Shower Me With Your Love - Surface.wav
Pre-gap length 0:00:00.60
Peak level 98.8 %
Extraction speed 10.2 X
Track quality 100.0 %
Test CRC DCA739F7
Copy CRC DCA739F7
Cannot be verified as accurate (confidence 3) [AA915FF2], AccurateRip returned [723263D0]
Copy OK
Track 4
Filename C:\Users\Mike\Documents\EAC Rips\04. Lost In Emotion - Lisa Lisa & Cult Jam.wav
Pre-gap length 0:00:02.35
Peak level 69.9 %
Extraction speed 10.9 X
Track quality 100.0 %
Test CRC A53A5692
Copy CRC A53A5692
Cannot be verified as accurate (confidence 3) [8F95B4B7], AccurateRip returned [7AC9E66A]
Copy OK
Track 5
Filename C:\Users\Mike\Documents\EAC Rips\05. Magnetic - Earth, Wind & Fire.wav
Pre-gap length 0:00:00.55
Peak level 88.1 %
Extraction speed 11.3 X
Track quality 100.0 %
Test CRC D930DE0C
Copy CRC D930DE0C
Cannot be verified as accurate (confidence 3) [5CBFB0BD], AccurateRip returned [CDC83F8D]
Copy OK
Track 6
Filename C:\Users\Mike\Documents\EAC Rips\06. All In My Mind - Full Force.wav
Pre-gap length 0:00:01.33
Peak level 98.8 %
Extraction speed 12.2 X
Track quality 100.0 %
Test CRC E2AD2336
Copy CRC E2AD2336
Cannot be verified as accurate (confidence 3) [31CAA38A], AccurateRip returned [3FDF4EF3]
Copy OK
Track 7
Filename C:\Users\Mike\Documents\EAC Rips\07. How 'Bout Us - Champaign.wav
Pre-gap length 0:00:00.60
Peak level 93.3 %
Extraction speed 12.6 X
Track quality 100.0 %
Test CRC 97A355F8
Copy CRC 97A355F8
Cannot be verified as accurate (confidence 3) [326EF09A], AccurateRip returned [FBFB33F5]
Copy OK
Track 8
Filename C:\Users\Mike\Documents\EAC Rips\08. Heaven Sent You - Stanley Clarke.wav
Pre-gap length 0:00:02.27
Peak level 78.5 %
Extraction speed 13.3 X
Track quality 100.0 %
Test CRC C134A28B
Copy CRC C134A28B
Cannot be verified as accurate (confidence 3) [D66AB561], AccurateRip returned [B7D088D5]
Copy OK
Track 9
Filename C:\Users\Mike\Documents\EAC Rips\09. Here And Now - Luther Vandross.wav
Pre-gap length 0:00:01.65
Peak level 98.8 %
Extraction speed 13.9 X
Track quality 100.0 %
Test CRC 960036B5
Copy CRC 960036B5
Cannot be verified as accurate (confidence 3) [9A545768], AccurateRip returned [876B0378]
Copy OK
Track 10
Filename C:\Users\Mike\Documents\EAC Rips\10. You, Me And He - Mtume.wav
Pre-gap length 0:00:01.48
Peak level 98.8 %
Extraction speed 14.3 X
Track quality 100.0 %
Test CRC 96FDE35D
Copy CRC 96FDE35D
Cannot be verified as accurate (confidence 3) [0D0C463C], AccurateRip returned [0507EB64]
Copy OK
Track 11
Filename C:\Users\Mike\Documents\EAC Rips\11. Dancing In The Sheets - Shalamar.wav
Pre-gap length 0:00:00.23
Peak level 78.5 %
Extraction speed 14.6 X
Track quality 100.0 %
Test CRC 243AC308
Copy CRC 243AC308
Cannot be verified as accurate (confidence 3) [5D8E3E90], AccurateRip returned [E5C8A20B]
Copy OK
Track 12
Filename C:\Users\Mike\Documents\EAC Rips\12. Thigh Ride - Tawatha Agee.wav
Pre-gap length 0:00:00.50
Peak level 98.8 %
Extraction speed 15.1 X
Track quality 100.0 %
Test CRC B05E68F0
Copy CRC B05E68F0
Cannot be verified as accurate (confidence 3) [A8179CBF], AccurateRip returned [8DEE316A]
Copy OK
Track 13
Filename C:\Users\Mike\Documents\EAC Rips\13. All I Want Is Forever - Regina Belle ft. James ''JT'' Taylor.wav
Pre-gap length 0:00:00.60
Peak level 98.8 %
Extraction speed 15.5 X
Track quality 100.0 %
Test CRC EA498490
Copy CRC EA498490
Cannot be verified as accurate (confidence 3) [6974BFF2], AccurateRip returned [69804B6C]
Copy OK
No tracks could be verified as accurate
You may have a different pressing from the one(s) in the database
No errors occurred
End of status report
 
Содержание индексной карты (.CUE)
REM GENRE R&B
REM DATE 2002
REM DISCID C40EC20D
REM COMMENT "ExactAudioCopy v1.0b1"
PERFORMER "Various Artists"
TITLE "Soul Hits Of The 80's (CD2-2002)"
FILE "01. Encore (Single Version) - Cheryl Lynn.wav" WAVE
TRACK 01 AUDIO
TITLE "Encore (Single Version)"
PERFORMER "Cheryl Lynn"
ISRC USSM18300084
INDEX 01 00:00:00
TRACK 02 AUDIO
TITLE "Ooo La La La"
PERFORMER "Teena Marie"
ISRC USSM19920574
INDEX 00 04:33:12
FILE "02. Ooo La La La - Teena Marie.wav" WAVE
INDEX 01 00:00:00
TRACK 03 AUDIO
TITLE "Shower Me With Your Love"
PERFORMER "Surface"
ISRC USSM10105140
INDEX 00 05:17:25
FILE "03. Shower Me With Your Love - Surface.wav" WAVE
INDEX 01 00:00:00
TRACK 04 AUDIO
TITLE "Lost In Emotion"
PERFORMER "Lisa Lisa & Cult Jam"
ISRC USSM18700127
INDEX 00 04:54:08
FILE "04. Lost In Emotion - Lisa Lisa & Cult Jam.wav" WAVE
INDEX 01 00:00:00
TRACK 05 AUDIO
TITLE "Magnetic"
PERFORMER "Earth, Wind & Fire"
ISRC USSM18300226
INDEX 00 05:07:15
FILE "05. Magnetic - Earth, Wind & Fire.wav" WAVE
INDEX 01 00:00:00
TRACK 06 AUDIO
TITLE "All In My Mind"
PERFORMER "Full Force"
ISRC USSM18700558
INDEX 00 04:17:37
FILE "06. All In My Mind - Full Force.wav" WAVE
INDEX 01 00:00:00
TRACK 07 AUDIO
TITLE "How 'Bout Us"
PERFORMER "Champaign"
ISRC USSM19801711
INDEX 00 04:40:67
FILE "07. How 'Bout Us - Champaign.wav" WAVE
INDEX 01 00:00:00
TRACK 08 AUDIO
TITLE "Heaven Sent You"
PERFORMER "Stanley Clarke"
ISRC USSM18400088
INDEX 00 04:34:48
FILE "08. Heaven Sent You - Stanley Clarke.wav" WAVE
INDEX 01 00:00:00
TRACK 09 AUDIO
TITLE "Here And Now"
PERFORMER "Luther Vandross"
ISRC USSM18900432
INDEX 00 05:57:73
FILE "09. Here And Now - Luther Vandross.wav" WAVE
INDEX 01 00:00:00
TRACK 10 AUDIO
TITLE "You, Me And He"
PERFORMER "Mtume"
ISRC USSM10026962
INDEX 00 05:22:62
FILE "10. You, Me And He - Mtume.wav" WAVE
INDEX 01 00:00:00
TRACK 11 AUDIO
TITLE "Dancing In The Sheets"
PERFORMER "Shalamar"
ISRC USSM19803323
INDEX 00 04:27:57
FILE "11. Dancing In The Sheets - Shalamar.wav" WAVE
INDEX 01 00:00:00
TRACK 12 AUDIO
TITLE "Thigh Ride"
PERFORMER "Tawatha Agee"
ISRC USSM10200181
INDEX 00 04:04:25
FILE "12. Thigh Ride - Tawatha Agee.wav" WAVE
INDEX 01 00:00:00
TRACK 13 AUDIO
TITLE "All I Want Is Forever"
PERFORMER "Regina Belle ft. James ''JT'' Taylor"
ISRC USSM18900860
INDEX 00 04:54:35
FILE "13. All I Want Is Forever - Regina Belle ft. James ''JT'' Taylor.wav" WAVE
INDEX 01 00:00:00
 
Disc 3
 
Tracklist:
01. Rockit - Herbie Hancock
02. Summer Nights - Grover Washington Jr.
03. Wishing Well - Terence Trent Darby
04. Oh Yeah! - Bill Withers
05. Save The Overtime (For Me) - Gladys Knight & The Pips
06. Sweat (Till You Get Wet) - Brick
07. Hydraulic Pump - P Funk All Stars
08. Love Attack - Issac Hayes
09. It's Gonna Be A Miracle - Deneice Williams
10. Show Me The Way - Regina Belle
11. Nights (Feel Like Getting Down) - Billy Ocean
12. Just Got Paid - Johnny Kemp
13. Fake - Alexander O'Neal
14. Its No Crime - Babyface
 
Лог создания рипа
Exact Audio Copy V1.0 beta 1 from 15. November 2010
EAC extraction logfile from 15. August 2011, 14:23
Various Artists / Soul Hits of the 80's (Disc 3)
Used drive : TSSTcorpCDDVDW SH-S223L Adapter: 5 ID: 0
Read mode : Secure
Utilize accurate stream : Yes
Defeat audio cache : No
Make use of C2 pointers : No
Read offset correction : 6
Overread into Lead-In and Lead-Out : No
Fill up missing offset samples with silence : Yes
Delete leading and trailing silent blocks : No
Null samples used in CRC calculations : Yes
Used interface : Native Win32 interface for Win NT & 2000
Gap handling : Appended to previous track
Used output format : User Defined Encoder
Selected bitrate : 768 kBit/s
Quality : High
Add ID3 tag : No
Command line compressor : C:\Program Files (x86)\Exact Audio Copy\FLAC\FLAC.EXE
Additional command line options : -6 -V -T "ARTIST=%a" -T "TITLE=%t" -T "ALBUM=%g" -T "DATE=%y" -T "TRACKNUMBER=%n" -T "GENRE=%m" -T "COMMENT=%e" %j--picture="%i"%j %s -o %d
TOC of the extracted CD
Track | Start | Length | Start sector | End sector
---------------------------------------------------------
1 | 0:00.00 | 5:26.32 | 0 | 24481
2 | 5:26.32 | 6:14.18 | 24482 | 52549
3 | 11:40.50 | 3:32.72 | 52550 | 68521
4 | 15:13.47 | 4:04.33 | 68522 | 86854
5 | 19:18.05 | 4:43.55 | 86855 | 108134
6 | 24:01.60 | 4:45.45 | 108135 | 129554
7 | 28:47.30 | 6:42.62 | 129555 | 159766
8 | 35:30.17 | 5:36.35 | 159767 | 185001
9 | 41:06.52 | 4:11.35 | 185002 | 203861
10 | 45:18.12 | 4:08.73 | 203862 | 222534
11 | 49:27.10 | 4:42.37 | 222535 | 243721
12 | 54:09.47 | 5:28.28 | 243722 | 268349
13 | 59:38.00 | 4:55.12 | 268350 | 290486
14 | 64:33.12 | 4:02.58 | 290487 | 308694
Track 1
Filename C:\Users\Mike\Documents\EAC Rips\01. Rockit - Herbie Hancock - Rockit - Herbie Hancock.wav
Pre-gap length 0:00:02.00
Peak level 76.2 %
Extraction speed 7.9 X
Track quality 99.9 %
Test CRC 4BC1E86F
Copy CRC 4BC1E86F
Accurately ripped (confidence 3) [92B777EE]
Copy OK
Track 2
Filename C:\Users\Mike\Documents\EAC Rips\02. Summer Nights - Grover Washington, JR. - Summer Nights - Grover Washington, JR..wav
Pre-gap length 0:00:01.15
Peak level 69.9 %
Extraction speed 9.0 X
Track quality 99.9 %
Test CRC 49BE4746
Copy CRC 49BE4746
Accurately ripped (confidence 3) [B8E82A07]
Copy OK
Track 3
Filename C:\Users\Mike\Documents\EAC Rips\03. Wishing Well - Terence Trent D'Arby - Wishing Well - Terence Trent D'Arby.wav
Pre-gap length 0:00:01.20
Peak level 98.8 %
Extraction speed 10.4 X
Track quality 100.0 %
Test CRC 69BCBC20
Copy CRC 69BCBC20
Accurately ripped (confidence 3) [D6C1E3BF]
Copy OK
Track 4
Filename C:\Users\Mike\Documents\EAC Rips\04. Oh Yeah! - Bill Withers - Oh Yeah! - Bill Withers.wav
Pre-gap length 0:00:02.15
Peak level 78.5 %
Extraction speed 11.0 X
Track quality 100.0 %
Test CRC C01CFDD1
Copy CRC C01CFDD1
Accurately ripped (confidence 3) [1357A7CE]
Copy OK
Track 5
Filename C:\Users\Mike\Documents\EAC Rips\05. Save The Overtime - Gladys Knight & The Pips - Save The Overtime - Gladys Knight & The Pips.wav
Pre-gap length 0:00:01.10
Peak level 98.8 %
Extraction speed 11.7 X
Track quality 100.0 %
Test CRC 7A489F00
Copy CRC 7A489F00
Accurately ripped (confidence 3) [FE4061B2]
Copy OK
Track 6
Filename C:\Users\Mike\Documents\EAC Rips\06. Sweat (Till You Get Wet) - Brick - Sweat (Till You Get Wet) - Brick.wav
Pre-gap length 0:00:01.30
Peak level 98.8 %
Extraction speed 11.0 X
Track quality 99.9 %
Test CRC A47F10D0
Copy CRC A47F10D0
Accurately ripped (confidence 3) [D890D8DE]
Copy OK
Track 7
Filename C:\Users\Mike\Documents\EAC Rips\07. Hydraulic Pump - The P-Funk All Stars - Hydraulic Pump - The P-Funk All Stars.wav
Pre-gap length 0:00:01.00
Peak level 78.5 %
Extraction speed 13.1 X
Track quality 100.0 %
Test CRC 0867F096
Copy CRC 0867F096
Accurately ripped (confidence 3) [65387F1C]
Copy OK
Track 8
Filename C:\Users\Mike\Documents\EAC Rips\08. Love Attack - Isaac Hayes - Love Attack - Isaac Hayes.wav
Pre-gap length 0:00:01.55
Peak level 98.8 %
Extraction speed 13.7 X
Track quality 100.0 %
Test CRC 32FC2A1E
Copy CRC 32FC2A1E
Accurately ripped (confidence 3) [E0D0E1B9]
Copy OK
Track 9
Filename C:\Users\Mike\Documents\EAC Rips\09. It's Gonna Take a Miracle - Deniece Williams - It's Gonna Take a Miracle - Deniece Williams.wav
Pre-gap length 0:00:02.12
Peak level 69.9 %
Extraction speed 14.2 X
Track quality 100.0 %
Test CRC 757EE3E4
Copy CRC 757EE3E4
Accurately ripped (confidence 3) [5AAB16FA]
Copy OK
Track 10
Filename C:\Users\Mike\Documents\EAC Rips\10. Show Me The Way - Regina Belle - Show Me The Way - Regina Belle.wav
Pre-gap length 0:00:01.62
Peak level 98.8 %
Extraction speed 14.6 X
Track quality 100.0 %
Test CRC 845F1771
Copy CRC 845F1771
Accurately ripped (confidence 3) [E44025B4]
Copy OK
Track 11
Filename C:\Users\Mike\Documents\EAC Rips\11. Nights (Feel Like Gettin' Down) - Billy Ocean - Nights (Feel Like Gettin' Down) - Billy Ocean.wav
Pre-gap length 0:00:00.60
Peak level 98.8 %
Extraction speed 15.1 X
Track quality 100.0 %
Test CRC CADE2938
Copy CRC CADE2938
Accurately ripped (confidence 3) [F2883B46]
Copy OK
Track 12
Filename C:\Users\Mike\Documents\EAC Rips\12. Just Got Paid - Johnny Kemp - Just Got Paid - Johnny Kemp.wav
Pre-gap length 0:00:02.00
Peak level 98.8 %
Extraction speed 13.9 X
Track quality 99.9 %
Test CRC E529AB79
Copy CRC E529AB79
Accurately ripped (confidence 3) [F2573A9B]
Copy OK
Track 13
Filename C:\Users\Mike\Documents\EAC Rips\13. I Know Your Hot Spot - Enchantment - I Know Your Hot Spot - Enchantment.wav
Pre-gap length 0:00:00.58
Peak level 97.7 %
Extraction speed 16.1 X
Track quality 100.0 %
Test CRC 424953CC
Copy CRC 424953CC
Accurately ripped (confidence 3) [3F2818D5]
Copy OK
Track 14
Filename C:\Users\Mike\Documents\EAC Rips\14. It's No Crime - Babyface - It's No Crime - Babyface.wav
Pre-gap length 0:00:00.27
Peak level 79.7 %
Extraction speed 14.0 X
Track quality 99.9 %
Test CRC 25DEA3CF
Copy CRC 25DEA3CF
Accurately ripped (confidence 3) [634AAB70]
Copy OK
All tracks accurately ripped
No errors occurred
End of status report
 
Содержание индексной карты (.CUE)
REM GENRE Soul
REM DISCID C110130E
REM COMMENT "ExactAudioCopy v1.0b1"
PERFORMER "Various Artists"
TITLE "Soul Hits of the 80's (Disc 3)"
FILE "01. Rockit - Herbie Hancock - Rockit - Herbie Hancock.wav" WAVE
TRACK 01 AUDIO
TITLE "Rockit - Herbie Hancock"
PERFORMER "Rockit - Herbie Hancock"
ISRC USSM18300607
INDEX 01 00:00:00
TRACK 02 AUDIO
TITLE "Summer Nights - Grover Washington, JR."
PERFORMER "Summer Nights - Grover Washington, JR."
ISRC USSM19912609
INDEX 00 05:25:17
FILE "02. Summer Nights - Grover Washington, JR. - Summer Nights - Grover Washington, JR..wav" WAVE
INDEX 01 00:00:00
TRACK 03 AUDIO
TITLE "Wishing Well - Terence Trent D'Arby"
PERFORMER "Wishing Well - Terence Trent D'Arby"
ISRC GBBBN8700003
INDEX 00 06:12:73
FILE "03. Wishing Well - Terence Trent D'Arby - Wishing Well - Terence Trent D'Arby.wav" WAVE
INDEX 01 00:00:00
TRACK 04 AUDIO
TITLE "Oh Yeah! - Bill Withers"
PERFORMER "Oh Yeah! - Bill Withers"
ISRC USSM10000375
INDEX 00 03:30:57
FILE "04. Oh Yeah! - Bill Withers - Oh Yeah! - Bill Withers.wav" WAVE
INDEX 01 00:00:00
TRACK 05 AUDIO
TITLE "Save The Overtime - Gladys Knight & The Pips"
PERFORMER "Save The Overtime - Gladys Knight & The Pips"
ISRC USSM10105240
INDEX 00 04:03:23
FILE "05. Save The Overtime - Gladys Knight & The Pips - Save The Overtime - Gladys Knight & The Pips.wav" WAVE
INDEX 01 00:00:00
TRACK 06 AUDIO
TITLE "Sweat (Till You Get Wet) - Brick"
PERFORMER "Sweat (Till You Get Wet) - Brick"
ISRC USSM10009535
INDEX 00 04:42:25
FILE "06. Sweat (Till You Get Wet) - Brick - Sweat (Till You Get Wet) - Brick.wav" WAVE
INDEX 01 00:00:00
TRACK 07 AUDIO
TITLE "Hydraulic Pump - The P-Funk All Stars"
PERFORMER "Hydraulic Pump - The P-Funk All Stars"
ISRC USSM10021848
INDEX 00 04:44:45
FILE "07. Hydraulic Pump - The P-Funk All Stars - Hydraulic Pump - The P-Funk All Stars.wav" WAVE
INDEX 01 00:00:00
TRACK 08 AUDIO
TITLE "Love Attack - Isaac Hayes"
PERFORMER "Love Attack - Isaac Hayes"
ISRC USSM19916375
INDEX 00 06:41:07
FILE "08. Love Attack - Isaac Hayes - Love Attack - Isaac Hayes.wav" WAVE
INDEX 01 00:00:00
TRACK 09 AUDIO
TITLE "It's Gonna Take a Miracle - Deniece Williams"
PERFORMER "It's Gonna Take a Miracle - Deniece Williams"
ISRC USSM19922698
INDEX 00 05:34:23
FILE "09. It's Gonna Take a Miracle - Deniece Williams - It's Gonna Take a Miracle - Deniece Williams.wav" WAVE
INDEX 01 00:00:00
TRACK 10 AUDIO
TITLE "Show Me The Way - Regina Belle"
PERFORMER "Show Me The Way - Regina Belle"
ISRC USSM10105652
INDEX 00 04:09:48
FILE "10. Show Me The Way - Regina Belle - Show Me The Way - Regina Belle.wav" WAVE
INDEX 01 00:00:00
TRACK 11 AUDIO
TITLE "Nights (Feel Like Gettin' Down) - Billy Ocean"
PERFORMER "Nights (Feel Like Gettin' Down) - Billy Ocean"
ISRC GBBBM8100008
INDEX 00 04:08:13
FILE "11. Nights (Feel Like Gettin' Down) - Billy Ocean - Nights (Feel Like Gettin' Down) - Billy Ocean.wav" WAVE
INDEX 01 00:00:00
TRACK 12 AUDIO
TITLE "Just Got Paid - Johnny Kemp"
PERFORMER "Just Got Paid - Johnny Kemp"
ISRC USSM18700510
INDEX 00 04:40:37
FILE "12. Just Got Paid - Johnny Kemp - Just Got Paid - Johnny Kemp.wav" WAVE
INDEX 01 00:00:00
TRACK 13 AUDIO
TITLE "I Know Your Hot Spot - Enchantment"
PERFORMER "I Know Your Hot Spot - Enchantment"
ISRC USSM18200792
INDEX 00 05:27:45
FILE "13. I Know Your Hot Spot - Enchantment - I Know Your Hot Spot - Enchantment.wav" WAVE
INDEX 01 00:00:00
TRACK 14 AUDIO
TITLE "It's No Crime - Babyface"
PERFORMER "It's No Crime - Babyface"
ISRC USSM19907790
INDEX 00 04:54:60
FILE "14. It's No Crime - Babyface - It's No Crime - Babyface.wav" WAVE
INDEX 01 00:00:00
Приватный:
Нет (DHT включён)
Размер:
1.30 Гб (1,396,369,612 байт) » файлов: 52
Участники:
0 раздают, 0 качают (0 участников всего)
Внешние участники:
1 раздают, 0 качают (1 участников всего) [ Обновить ]
Есть вопросы - пишите личное сообщение пользователю M0p94ok.
10:34
59
Нет комментариев. Ваш будет первым!