Поиск

(Soul, R&B, Funk, Disco) [CD] VA - Greatest Hits of Soul and R&B - 2000, FLAC (tracks+.cue), lossless

(Soul, R&B, Funk, Disco) [CD] VA - Greatest Hits of Soul and R&B - 2000, FLAC (tracks+.cue), lossless
Треклист:
Greatest Hits of Soul and R&B (8CD Set)
Жанр: Soul, R&B, Funk, Disco
Носитель: CD
Страна-производитель диска (релиза): Netherlands
Год издания: 2000
Издатель (лейбл): Disky
Номер по каталогу: DB 250402
Аудиокодек: FLAC (*.flac)
Тип рипа: tracks+.cue
Битрейт аудио: lossless
Продолжительность: 08:26:08
Источник (релизер): найдено в сети
Наличие сканов в содержимом раздачи: нет
 
Disc 1
 
Tracklist:
01. Joe Tex - Buying A Book [03:21]
02. Aaron Neville - Tell It Like It Is [02:34]
03. Denise Lasalle - It's Lying Time Again [04:12]
04. The Temptations - Just My Imagination [03:47]
05. ZZ Hill - Chokin' Kind [03:05]
06. Percy Sledge - My Special Prayer [02:55]
07. Charles Brimmer - That's How Strong My Love Is [04:00]
08. The Independents - The First Time We Met [03:57]
09. Al Wilson - Show And Tell [03:23]
10. Chuck Jackson - I Don't Want To Cry [02:15]
11. Brenton Wood - The Oogum Boogum Song [02:28]
12. Dobie Gray - The 'In' Crowed [02:47]
13. Billy Jones - We Wnat Peace [04:28]
14. Ike & Tina Turner - Proud Mary [04:52]
15. The Isley Brothers - Who's That Lady [02:45]
Playing Time.........: 50:57
 
Лог создания рипа
Exact Audio Copy V1.0 beta 3 from 29. August 2011
EAC extraction logfile from 2. November 2014, 13:04
Various Artists / 120 - Hits - Greatest Hits Soul And R&B Disc 1
Used drive : TSSTcorpCDDVDW SH-S202J Adapter: 0 ID: 0
Read mode : Secure
Utilize accurate stream : Yes
Defeat audio cache : Yes
Make use of C2 pointers : No
Read offset correction : 6
Overread into Lead-In and Lead-Out : No
Fill up missing offset samples with silence : Yes
Delete leading and trailing silent blocks : No
Null samples used in CRC calculations : Yes
Used interface : Native Win32 interface for Win NT & 2000
Gap handling : Appended to previous track
Used output format : User Defined Encoder
Selected bitrate : 768 kBit/s
Quality : High
Add ID3 tag : No
Command line compressor : C:\Program Files\Exact Audio Copy\FLAC\FLAC.EXE
Additional command line options : -6 -V -T "ARTIST=%artist%" -T "TITLE=%title%" -T "ALBUM=%albumtitle%" -T "DATE=%year%" -T "TRACKNUMBER=%tracknr%" -T "GENRE=%genre%" -T "COMMENT=%comment%" -T "BAND=%albuminterpret%" -T "ALBUMARTIST=%albuminterpret%" -T "COMPOSER=%composer%" %haslyrics%--tag-from-file=LYRICS="%lyricsfile%"%haslyrics% -T "DISCNUMBER=%cdnumber%" -T "TOTALDISCS=%totalcds%" -T "TOTALTRACKS=%numtracks%" %hascover%--picture="%coverfile%"%hascover% %source% -o %dest%
TOC of the extracted CD
Track | Start | Length | Start sector | End sector
---------------------------------------------------------
1 | 0:00.00 | 3:25.28 | 0 | 15402
2 | 3:25.28 | 2:38.50 | 15403 | 27302
3 | 6:04.03 | 4:16.36 | 27303 | 46538
4 | 10:20.39 | 3:51.16 | 46539 | 63879
5 | 14:11.55 | 3:09.28 | 63880 | 78082
6 | 17:21.08 | 2:59.26 | 78083 | 91533
7 | 20:20.34 | 4:04.22 | 91534 | 109855
8 | 24:24.56 | 4:01.07 | 109856 | 127937
9 | 28:25.63 | 3:27.60 | 127938 | 143522
10 | 31:53.48 | 2:19.49 | 143523 | 153996
11 | 34:13.22 | 2:32.39 | 153997 | 165435
12 | 36:45.61 | 2:51.44 | 165436 | 178304
13 | 39:37.30 | 4:32.32 | 178305 | 198736
14 | 44:09.62 | 4:56.64 | 198737 | 221000
15 | 49:06.51 | 2:48.71 | 221001 | 233671
Track 1
Filename F:\EAC\VA - 120 - Hits - Greatest Hits Soul And R&B - 8 CD\Various Artists - Greatest Hits Soul And R&B - Disc 1\01. Buying A Book.wav
Pre-gap length 0:00:02.00
Peak level 78.8 %
Extraction speed 2.3 X
Track quality 100.0 %
Test CRC 029162AA
Copy CRC 029162AA
Accurately ripped (confidence 1) [673C2546] (AR v1)
Copy OK
Track 2
Filename F:\EAC\VA - 120 - Hits - Greatest Hits Soul And R&B - 8 CD\Various Artists - Greatest Hits Soul And R&B - Disc 1\02. Tell It Like It Is.wav
Pre-gap length 0:00:01.74
Peak level 91.6 %
Extraction speed 1.8 X
Track quality 99.9 %
Test CRC 110DE8D5
Copy CRC 110DE8D5
Accurately ripped (confidence 1) [652991F9] (AR v1)
Copy OK
Track 3
Filename F:\EAC\VA - 120 - Hits - Greatest Hits Soul And R&B - 8 CD\Various Artists - Greatest Hits Soul And R&B - Disc 1\03. It's Lying Time Again.wav
Pre-gap length 0:00:01.73
Peak level 98.8 %
Extraction speed 2.7 X
Track quality 100.0 %
Test CRC 8D24306B
Copy CRC 8D24306B
Accurately ripped (confidence 1) [8B9D1CA8] (AR v1)
Copy OK
Track 4
Filename F:\EAC\VA - 120 - Hits - Greatest Hits Soul And R&B - 8 CD\Various Artists - Greatest Hits Soul And R&B - Disc 1\04. Just My Imagination.wav
Pre-gap length 0:00:01.73
Peak level 67.6 %
Extraction speed 2.9 X
Track quality 100.0 %
Test CRC 177D11B9
Copy CRC 177D11B9
Accurately ripped (confidence 1) [ACED66E6] (AR v1)
Copy OK
Track 5
Filename F:\EAC\VA - 120 - Hits - Greatest Hits Soul And R&B - 8 CD\Various Artists - Greatest Hits Soul And R&B - Disc 1\05. Chokin' Kind.wav
Pre-gap length 0:00:01.73
Peak level 75.7 %
Extraction speed 3.0 X
Track quality 100.0 %
Test CRC 75CAA12A
Copy CRC 75CAA12A
Accurately ripped (confidence 1) [5A02231D] (AR v1)
Copy OK
Track 6
Filename F:\EAC\VA - 120 - Hits - Greatest Hits Soul And R&B - 8 CD\Various Artists - Greatest Hits Soul And R&B - Disc 1\06. My Special Prayer.wav
Pre-gap length 0:00:01.74
Peak level 60.1 %
Extraction speed 3.1 X
Track quality 100.0 %
Test CRC 128B51A2
Copy CRC 128B51A2
Accurately ripped (confidence 1) [9B1292A1] (AR v1)
Copy OK
Track 7
Filename F:\EAC\VA - 120 - Hits - Greatest Hits Soul And R&B - 8 CD\Various Artists - Greatest Hits Soul And R&B - Disc 1\07. That's How Strong My Love Is.wav
Pre-gap length 0:00:01.73
Peak level 100.0 %
Extraction speed 3.3 X
Track quality 100.0 %
Test CRC 7CF45A82
Copy CRC 7CF45A82
Accurately ripped (confidence 1) [1214129E] (AR v1)
Copy OK
Track 8
Filename F:\EAC\VA - 120 - Hits - Greatest Hits Soul And R&B - 8 CD\Various Artists - Greatest Hits Soul And R&B - Disc 1\08. The First Time We Met.wav
Pre-gap length 0:00:01.73
Peak level 98.4 %
Extraction speed 3.5 X
Track quality 100.0 %
Test CRC 1DF93510
Copy CRC 1DF93510
Accurately ripped (confidence 1) [439E55EF] (AR v1)
Copy OK
Track 9
Filename F:\EAC\VA - 120 - Hits - Greatest Hits Soul And R&B - 8 CD\Various Artists - Greatest Hits Soul And R&B - Disc 1\09. Show And Tell.wav
Pre-gap length 0:00:01.73
Peak level 92.2 %
Extraction speed 2.8 X
Track quality 99.9 %
Test CRC 3BA9A40C
Copy CRC 3BA9A40C
Accurately ripped (confidence 1) [014C193A] (AR v1)
Copy OK
Track 10
Filename F:\EAC\VA - 120 - Hits - Greatest Hits Soul And R&B - 8 CD\Various Artists - Greatest Hits Soul And R&B - Disc 1\10. I Don't Want To Cry.wav
Pre-gap length 0:00:01.73
Peak level 97.0 %
Extraction speed 3.4 X
Track quality 100.0 %
Test CRC 2927A4EC
Copy CRC 2927A4EC
Accurately ripped (confidence 1) [17AE3EDB] (AR v1)
Copy OK
Track 11
Filename F:\EAC\VA - 120 - Hits - Greatest Hits Soul And R&B - 8 CD\Various Artists - Greatest Hits Soul And R&B - Disc 1\11. The Oogum Boogum Song.wav
Pre-gap length 0:00:01.73
Peak level 98.4 %
Extraction speed 3.5 X
Track quality 100.0 %
Test CRC B1B650F9
Copy CRC B1B650F9
Accurately ripped (confidence 1) [CF90A0D3] (AR v1)
Copy OK
Track 12
Filename F:\EAC\VA - 120 - Hits - Greatest Hits Soul And R&B - 8 CD\Various Artists - Greatest Hits Soul And R&B - Disc 1\12. The 'In' Crowed.wav
Pre-gap length 0:00:01.73
Peak level 94.9 %
Extraction speed 3.7 X
Track quality 100.0 %
Test CRC 9171C7EA
Copy CRC 9171C7EA
Accurately ripped (confidence 1) [39830038] (AR v1)
Copy OK
Track 13
Filename F:\EAC\VA - 120 - Hits - Greatest Hits Soul And R&B - 8 CD\Various Artists - Greatest Hits Soul And R&B - Disc 1\13. We Wnat Peace.wav
Pre-gap length 0:00:01.73
Peak level 98.0 %
Extraction speed 4.0 X
Track quality 100.0 %
Test CRC AE038978
Copy CRC AE038978
Accurately ripped (confidence 1) [A75B5966] (AR v1)
Copy OK
Track 14
Filename F:\EAC\VA - 120 - Hits - Greatest Hits Soul And R&B - 8 CD\Various Artists - Greatest Hits Soul And R&B - Disc 1\14. Proud Mary.wav
Pre-gap length 0:00:01.73
Peak level 97.0 %
Extraction speed 4.1 X
Track quality 100.0 %
Test CRC 95209EAA
Copy CRC 95209EAA
Accurately ripped (confidence 1) [6E44E8F1] (AR v1)
Copy OK
Track 15
Filename F:\EAC\VA - 120 - Hits - Greatest Hits Soul And R&B - 8 CD\Various Artists - Greatest Hits Soul And R&B - Disc 1\15. Who's That Lady.wav
Pre-gap length 0:00:01.73
Peak level 99.1 %
Extraction speed 3.9 X
Track quality 100.0 %
Test CRC 1A20EB03
Copy CRC 1A20EB03
Accurately ripped (confidence 1) [12BDE36D] (AR v1)
Copy OK
All tracks accurately ripped
No errors occurred
End of status report
==== Log checksum 86AD800605A05024B4CFD52C96706B73ED96F9175379D7BA4CA9B9FC4EF6298E ====
 
Содержание индексной карты (.CUE)
REM GENRE "Soul And R&B"
REM DISCID C40C2B0F
REM COMMENT "ExactAudioCopy v1.0b3"
PERFORMER "Various Artists"
TITLE "120 - Hits - Greatest Hits Soul And R&B Disc 1"
FILE "01. Buying A Book.wav" WAVE
TRACK 01 AUDIO
TITLE "Buying A Book"
PERFORMER "Joe Tex"
INDEX 01 00:00:00
TRACK 02 AUDIO
TITLE "Tell It Like It Is"
PERFORMER "Aaron Neville"
INDEX 00 03:23:47
FILE "02. Tell It Like It Is.wav" WAVE
INDEX 01 00:00:00
TRACK 03 AUDIO
TITLE "It's Lying Time Again"
PERFORMER "Denise Lasalle"
INDEX 00 02:36:70
FILE "03. It's Lying Time Again.wav" WAVE
INDEX 01 00:00:00
TRACK 04 AUDIO
TITLE "Just My Imagination"
PERFORMER "The Temptations"
INDEX 00 04:14:56
FILE "04. Just My Imagination.wav" WAVE
INDEX 01 00:00:00
TRACK 05 AUDIO
TITLE "Chokin' Kind"
PERFORMER "ZZ Hill"
INDEX 00 03:49:36
FILE "05. Chokin' Kind.wav" WAVE
INDEX 01 00:00:00
TRACK 06 AUDIO
TITLE "My Special Prayer"
PERFORMER "Percy Sledge"
INDEX 00 03:07:47
FILE "06. My Special Prayer.wav" WAVE
INDEX 01 00:00:00
TRACK 07 AUDIO
TITLE "That's How Strong My Love Is"
PERFORMER "Charles Brimmer"
INDEX 00 02:57:46
FILE "07. That's How Strong My Love Is.wav" WAVE
INDEX 01 00:00:00
TRACK 08 AUDIO
TITLE "The First Time We Met"
PERFORMER "The Independents"
INDEX 00 04:02:42
FILE "08. The First Time We Met.wav" WAVE
INDEX 01 00:00:00
TRACK 09 AUDIO
TITLE "Show And Tell"
PERFORMER "Al Wilson"
INDEX 00 03:59:27
FILE "09. Show And Tell.wav" WAVE
INDEX 01 00:00:00
TRACK 10 AUDIO
TITLE "I Don't Want To Cry"
PERFORMER "Chuck Jackson"
INDEX 00 03:26:05
FILE "10. I Don't Want To Cry.wav" WAVE
INDEX 01 00:00:00
TRACK 11 AUDIO
TITLE "The Oogum Boogum Song"
PERFORMER "Brenton Wood"
INDEX 00 02:17:69
FILE "11. The Oogum Boogum Song.wav" WAVE
INDEX 01 00:00:00
TRACK 12 AUDIO
TITLE "The 'In' Crowed"
PERFORMER "Dobie Gray"
INDEX 00 02:30:59
FILE "12. The 'In' Crowed.wav" WAVE
INDEX 01 00:00:00
TRACK 13 AUDIO
TITLE "We Wnat Peace"
PERFORMER "Billy Jones"
INDEX 00 02:49:64
FILE "13. We Wnat Peace.wav" WAVE
INDEX 01 00:00:00
TRACK 14 AUDIO
TITLE "Proud Mary"
PERFORMER "Ike & Tina Turner"
INDEX 00 04:30:52
FILE "14. Proud Mary.wav" WAVE
INDEX 01 00:00:00
TRACK 15 AUDIO
TITLE "Who's That Lady"
PERFORMER "The Isley Brothers"
INDEX 00 04:55:09
FILE "15. Who's That Lady.wav" WAVE
INDEX 01 00:00:00
 
Disc 2
 
Tracklist:
01. Percy Sledge - When A Man Loves A Woman [02:52]
02. Byron Lee & Mighty Sparrow - Only A Fool [02:40]
03. King Floyd - Groove Me [02:57]
04. George McCrae - I Can't Leave You Alone [03:05]
05. KC & The Sunshine Band - Queen Of Clubs [03:14]
06. B.T. Express - Do It [02:49]
07. Donald Byrd - Change (Makes You Wanna Hustle) [05:05]
08. The Temptations - Papa Was A Rolling Stone [07:08]
09. William DeVaughn - Be Thankful For What You've Got [03:23]
10. Dorothy Moore - Misty Blue [03:32]
11. Bobby Bland - Members Only [04:02]
12. Ruby Winters - I Will [03:28]
13. Timmy Thomas - What Can I Tell Her [05:39]
14. Charles Brimmer - God Bless Our Love [07:57]
15. Percy Sledge - Try A Little Tenderness [03:46]
Playing Time.........: 01:01:42
 
Лог создания рипа
Exact Audio Copy V1.0 beta 3 from 29. August 2011
EAC extraction logfile from 2. November 2014, 13:42
Various Artists / 120 - Hits - Greatest Hits Soul And R&B Disc 2
Used drive : TSSTcorpCDDVDW SH-S202J Adapter: 0 ID: 0
Read mode : Secure
Utilize accurate stream : Yes
Defeat audio cache : Yes
Make use of C2 pointers : No
Read offset correction : 6
Overread into Lead-In and Lead-Out : No
Fill up missing offset samples with silence : Yes
Delete leading and trailing silent blocks : No
Null samples used in CRC calculations : Yes
Used interface : Native Win32 interface for Win NT & 2000
Gap handling : Appended to previous track
Used output format : User Defined Encoder
Selected bitrate : 768 kBit/s
Quality : High
Add ID3 tag : No
Command line compressor : C:\Program Files\Exact Audio Copy\FLAC\FLAC.EXE
Additional command line options : -6 -V -T "ARTIST=%artist%" -T "TITLE=%title%" -T "ALBUM=%albumtitle%" -T "DATE=%year%" -T "TRACKNUMBER=%tracknr%" -T "GENRE=%genre%" -T "COMMENT=%comment%" -T "BAND=%albuminterpret%" -T "ALBUMARTIST=%albuminterpret%" -T "COMPOSER=%composer%" %haslyrics%--tag-from-file=LYRICS="%lyricsfile%"%haslyrics% -T "DISCNUMBER=%cdnumber%" -T "TOTALDISCS=%totalcds%" -T "TOTALTRACKS=%numtracks%" %hascover%--picture="%coverfile%"%hascover% %source% -o %dest%
TOC of the extracted CD
Track | Start | Length | Start sector | End sector
---------------------------------------------------------
1 | 0:00.00 | 2:56.10 | 0 | 13209
2 | 2:56.10 | 2:44.00 | 13210 | 25509
3 | 5:40.10 | 3:00.69 | 25510 | 39078
4 | 8:41.04 | 3:09.00 | 39079 | 53253
5 | 11:50.04 | 3:18.03 | 53254 | 68106
6 | 15:08.07 | 2:52.72 | 68107 | 81078
7 | 18:01.04 | 5:08.68 | 81079 | 104246
8 | 23:09.72 | 7:12.38 | 104247 | 136684
9 | 30:22.35 | 3:26.72 | 136685 | 152206
10 | 33:49.32 | 3:36.28 | 152207 | 168434
11 | 37:25.60 | 4:06.49 | 168435 | 186933
12 | 41:32.34 | 3:32.53 | 186934 | 202886
13 | 45:05.12 | 5:43.39 | 202887 | 228650
14 | 50:48.51 | 8:01.05 | 228651 | 264730
15 | 58:49.56 | 3:50.29 | 264731 | 282009
Track 1
Filename F:\EAC\VA - 120 - Hits - Greatest Hits Soul And R&B - 8 CD\Various Artists - Greatest Hits Soul And R&B - Disc 2\01. When A Man Loves A Woman.wav
Pre-gap length 0:00:02.00
Peak level 99.3 %
Extraction speed 3.6 X
Track quality 100.0 %
Test CRC 11ACA532
Copy CRC 11ACA532
Accurately ripped (confidence 1) [749DDE20] (AR v1)
Copy OK
Track 2
Filename F:\EAC\VA - 120 - Hits - Greatest Hits Soul And R&B - 8 CD\Various Artists - Greatest Hits Soul And R&B - Disc 2\02. Only A Fool.wav
Pre-gap length 0:00:01.73
Peak level 98.8 %
Extraction speed 3.0 X
Track quality 99.9 %
Test CRC 2C87CE18
Copy CRC 2C87CE18
Accurately ripped (confidence 1) [7259FB28] (AR v1)
Copy OK
Track 3
Filename F:\EAC\VA - 120 - Hits - Greatest Hits Soul And R&B - 8 CD\Various Artists - Greatest Hits Soul And R&B - Disc 2\03. Groove Me.wav
Pre-gap length 0:00:01.73
Peak level 98.2 %
Extraction speed 3.2 X
Track quality 99.9 %
Test CRC 9ECECFA4
Copy CRC 9ECECFA4
Accurately ripped (confidence 1) [1CD5BCFC] (AR v1)
Copy OK
Track 4
Filename F:\EAC\VA - 120 - Hits - Greatest Hits Soul And R&B - 8 CD\Various Artists - Greatest Hits Soul And R&B - Disc 2\04. I Can't Leave You Alone.wav
Pre-gap length 0:00:01.73
Peak level 99.8 %
Extraction speed 4.3 X
Track quality 100.0 %
Test CRC C10BC346
Copy CRC C10BC346
Accurately ripped (confidence 1) [DAA71768] (AR v1)
Copy OK
Track 5
Filename F:\EAC\VA - 120 - Hits - Greatest Hits Soul And R&B - 8 CD\Various Artists - Greatest Hits Soul And R&B - Disc 2\05. Queen Of Clubs.wav
Pre-gap length 0:00:01.73
Peak level 100.0 %
Extraction speed 4.5 X
Track quality 100.0 %
Test CRC 267CF0E3
Copy CRC 267CF0E3
Accurately ripped (confidence 1) [BB29D1F4] (AR v1)
Copy OK
Track 6
Filename F:\EAC\VA - 120 - Hits - Greatest Hits Soul And R&B - 8 CD\Various Artists - Greatest Hits Soul And R&B - Disc 2\06. Do It.wav
Pre-gap length 0:00:01.73
Peak level 94.2 %
Extraction speed 3.6 X
Track quality 99.9 %
Test CRC E49E565A
Copy CRC E49E565A
Accurately ripped (confidence 1) [25E155B9] (AR v1)
Copy OK
Track 7
Filename F:\EAC\VA - 120 - Hits - Greatest Hits Soul And R&B - 8 CD\Various Artists - Greatest Hits Soul And R&B - Disc 2\07. Change (Makes You Wanna Hustle).wav
Pre-gap length 0:00:01.73
Peak level 86.1 %
Extraction speed 5.1 X
Track quality 100.0 %
Test CRC 3C350579
Copy CRC 3C350579
Accurately ripped (confidence 1) [91BB047A] (AR v1)
Copy OK
Track 8
Filename F:\EAC\VA - 120 - Hits - Greatest Hits Soul And R&B - 8 CD\Various Artists - Greatest Hits Soul And R&B - Disc 2\08. Papa Was A Rolling Stone.wav
Pre-gap length 0:00:01.73
Peak level 100.0 %
Extraction speed 5.5 X
Track quality 100.0 %
Test CRC 3D650F56
Copy CRC 3D650F56
Accurately ripped (confidence 1) [9954253F] (AR v1)
Copy OK
Track 9
Filename F:\EAC\VA - 120 - Hits - Greatest Hits Soul And R&B - 8 CD\Various Artists - Greatest Hits Soul And R&B - Disc 2\09. Be Thankful For What You've Got.wav
Pre-gap length 0:00:01.73
Peak level 99.6 %
Extraction speed 5.4 X
Track quality 100.0 %
Test CRC FBF278CE
Copy CRC FBF278CE
Accurately ripped (confidence 1) [C6F0078B] (AR v1)
Copy OK
Track 10
Filename F:\EAC\VA - 120 - Hits - Greatest Hits Soul And R&B - 8 CD\Various Artists - Greatest Hits Soul And R&B - Disc 2\10. Misty Blue.wav
Pre-gap length 0:00:01.73
Peak level 98.8 %
Extraction speed 5.5 X
Track quality 100.0 %
Test CRC 444785EE
Copy CRC 444785EE
Accurately ripped (confidence 1) [90ABD894] (AR v1)
Copy OK
Track 11
Filename F:\EAC\VA - 120 - Hits - Greatest Hits Soul And R&B - 8 CD\Various Artists - Greatest Hits Soul And R&B - Disc 2\11. Members Only.wav
Pre-gap length 0:00:01.73
Peak level 98.8 %
Extraction speed 4.8 X
Track quality 99.9 %
Test CRC E8A66C05
Copy CRC E8A66C05
Accurately ripped (confidence 1) [6B139CAF] (AR v1)
Copy OK
Track 12
Filename F:\EAC\VA - 120 - Hits - Greatest Hits Soul And R&B - 8 CD\Various Artists - Greatest Hits Soul And R&B - Disc 2\12. I Will.wav
Pre-gap length 0:00:01.74
Peak level 98.8 %
Extraction speed 5.9 X
Track quality 100.0 %
Test CRC 3487BF22
Copy CRC 3487BF22
Accurately ripped (confidence 1) [5866CF21] (AR v1)
Copy OK
Track 13
Filename F:\EAC\VA - 120 - Hits - Greatest Hits Soul And R&B - 8 CD\Various Artists - Greatest Hits Soul And R&B - Disc 2\13. What Can I Tell Her.wav
Pre-gap length 0:00:01.73
Peak level 85.9 %
Extraction speed 6.1 X
Track quality 100.0 %
Test CRC 6A4893A7
Copy CRC 6A4893A7
Accurately ripped (confidence 1) [FAA1289D] (AR v1)
Copy OK
Track 14
Filename F:\EAC\VA - 120 - Hits - Greatest Hits Soul And R&B - 8 CD\Various Artists - Greatest Hits Soul And R&B - Disc 2\14. God Bless Our Love.wav
Pre-gap length 0:00:01.73
Peak level 92.6 %
Extraction speed 6.0 X
Track quality 99.9 %
Test CRC 44AAF3FB
Copy CRC 44AAF3FB
Accurately ripped (confidence 1) [A969D758] (AR v1)
Copy OK
Track 15
Filename F:\EAC\VA - 120 - Hits - Greatest Hits Soul And R&B - 8 CD\Various Artists - Greatest Hits Soul And R&B - Disc 2\15. Try A Little Tenderness.wav
Pre-gap length 0:00:01.73
Peak level 88.4 %
Extraction speed 5.3 X
Track quality 99.9 %
Test CRC 6D25DC72
Copy CRC 6D25DC72
Accurately ripped (confidence 1) [4BE17C63] (AR v1)
Copy OK
All tracks accurately ripped
No errors occurred
End of status report
==== Log checksum 174D0C6391F3CE356A280E7BF22F55EE4A6E54D0619556576D8A2254A7A56C04 ====
 
Содержание индексной карты (.CUE)
REM GENRE "Soul And R&B"
REM DISCID AE0EB00F
REM COMMENT "ExactAudioCopy v1.0b3"
PERFORMER "Various Artists"
TITLE "120 - Hits - Greatest Hits Soul And R&B Disc 2"
FILE "01. When A Man Loves A Woman.wav" WAVE
TRACK 01 AUDIO
TITLE "When A Man Loves A Woman"
PERFORMER "Percy Sladge"
INDEX 01 00:00:00
TRACK 02 AUDIO
TITLE "Only A Fool"
PERFORMER "Byron Lee & Mighty Sparrow"
INDEX 00 02:54:30
FILE "02. Only A Fool.wav" WAVE
INDEX 01 00:00:00
TRACK 03 AUDIO
TITLE "Groove Me"
PERFORMER "King Floyd"
INDEX 00 02:42:20
FILE "03. Groove Me.wav" WAVE
INDEX 01 00:00:00
TRACK 04 AUDIO
TITLE "I Can't Leave You Alone"
PERFORMER "George McCrae"
INDEX 00 02:59:14
FILE "04. I Can't Leave You Alone.wav" WAVE
INDEX 01 00:00:00
TRACK 05 AUDIO
TITLE "Queen Of Clubs"
PERFORMER "KC & The Sunshine Band"
INDEX 00 03:07:20
FILE "05. Queen Of Clubs.wav" WAVE
INDEX 01 00:00:00
TRACK 06 AUDIO
TITLE "Do It"
PERFORMER "B.T. Express"
INDEX 00 03:16:23
FILE "06. Do It.wav" WAVE
INDEX 01 00:00:00
TRACK 07 AUDIO
TITLE "Change (Makes You Wanna Hustle)"
PERFORMER "Donald Byrd"
INDEX 00 02:51:17
FILE "07. Change (Makes You Wanna Hustle).wav" WAVE
INDEX 01 00:00:00
TRACK 08 AUDIO
TITLE "Papa Was A Rolling Stone"
PERFORMER "The Temptations"
INDEX 00 05:07:13
FILE "08. Papa Was A Rolling Stone.wav" WAVE
INDEX 01 00:00:00
TRACK 09 AUDIO
TITLE "Be Thankful For What You've Got"
PERFORMER "William DeVaughn"
INDEX 00 07:10:58
FILE "09. Be Thankful For What You've Got.wav" WAVE
INDEX 01 00:00:00
TRACK 10 AUDIO
TITLE "Misty Blue"
PERFORMER "Dorothy Moore"
INDEX 00 03:25:17
FILE "10. Misty Blue.wav" WAVE
INDEX 01 00:00:00
TRACK 11 AUDIO
TITLE "Members Only"
PERFORMER "Bobby Bland"
INDEX 00 03:34:48
FILE "11. Members Only.wav" WAVE
INDEX 01 00:00:00
TRACK 12 AUDIO
TITLE "I Will"
PERFORMER "Ruby Winters"
INDEX 00 04:04:68
FILE "12. I Will.wav" WAVE
INDEX 01 00:00:00
TRACK 13 AUDIO
TITLE "What Can I Tell Her"
PERFORMER "Timmy Thomas"
INDEX 00 03:30:73
FILE "13. What Can I Tell Her.wav" WAVE
INDEX 01 00:00:00
TRACK 14 AUDIO
TITLE "God Bless Our Love"
PERFORMER "Charles Brimmer"
INDEX 00 05:41:59
FILE "14. God Bless Our Love.wav" WAVE
INDEX 01 00:00:00
TRACK 15 AUDIO
TITLE "Try A Little Tenderness"
PERFORMER "Percy Sledge"
INDEX 00 07:59:25
FILE "15. Try A Little Tenderness.wav" WAVE
INDEX 01 00:00:00
 
Disc 3
 
Tracklist:
01. Dyke And The Blazers - Funky Broadway [02:37]
02. Maceo & The All Kings Men - Got To Getcha [02:44]
03. The Meters - Cissy Strut [02:56]
04. Sly & The Family Stone - Remember Who You Are [03:12]
05. Willie 'Beaver' Hale - Groove On [05:56]
06. Timmy Thomas - Why Can't We Live Together [03:26]
07. George McCrae - Rock Your Baby [03:10]
08. Jesse Green - Nice And Slow [03:03]
09. Fern Kinney - Together We Are Beautiful [04:08]
10. New York City - I'm Doin' Fine Now [02:43]
11. Jim Gilstrap - Swing Your Daddy [02:47]
12. Dee Clark - Ride A Wild Horse [02:44]
13. Average White Band - Walk On By [03:54]
14. Delegation - Where Is The Love [05:09]
15. Rokotto - Boogie On Top [05:35]
Playing Time.........: 54:11
 
Лог создания рипа
Exact Audio Copy V1.0 beta 3 from 29. August 2011
EAC extraction logfile from 2. November 2014, 14:30
Various Artists / 120 - Hits - Greatest Hits Soul And R&B Disc 3
Used drive : TSSTcorpCDDVDW SH-S202J Adapter: 0 ID: 0
Read mode : Secure
Utilize accurate stream : Yes
Defeat audio cache : Yes
Make use of C2 pointers : No
Read offset correction : 6
Overread into Lead-In and Lead-Out : No
Fill up missing offset samples with silence : Yes
Delete leading and trailing silent blocks : No
Null samples used in CRC calculations : Yes
Used interface : Native Win32 interface for Win NT & 2000
Gap handling : Appended to previous track
Used output format : User Defined Encoder
Selected bitrate : 768 kBit/s
Quality : High
Add ID3 tag : No
Command line compressor : C:\Program Files\Exact Audio Copy\FLAC\FLAC.EXE
Additional command line options : -6 -V -T "ARTIST=%artist%" -T "TITLE=%title%" -T "ALBUM=%albumtitle%" -T "DATE=%year%" -T "TRACKNUMBER=%tracknr%" -T "GENRE=%genre%" -T "COMMENT=%comment%" -T "BAND=%albuminterpret%" -T "ALBUMARTIST=%albuminterpret%" -T "COMPOSER=%composer%" %haslyrics%--tag-from-file=LYRICS="%lyricsfile%"%haslyrics% -T "DISCNUMBER=%cdnumber%" -T "TOTALDISCS=%totalcds%" -T "TOTALTRACKS=%numtracks%" %hascover%--picture="%coverfile%"%hascover% %source% -o %dest%
TOC of the extracted CD
Track | Start | Length | Start sector | End sector
---------------------------------------------------------
1 | 0:00.00 | 2:40.68 | 0 | 12067
2 | 2:40.68 | 2:47.68 | 12068 | 24660
3 | 5:28.61 | 3:00.13 | 24661 | 38173
4 | 8:28.74 | 3:16.58 | 38174 | 52931
5 | 11:45.57 | 6:00.38 | 52932 | 79969
6 | 17:46.20 | 3:30.63 | 79970 | 95782
7 | 21:17.08 | 3:14.22 | 95783 | 110354
8 | 24:31.30 | 3:06.71 | 110355 | 124375
9 | 27:38.26 | 4:12.61 | 124376 | 143336
10 | 31:51.12 | 2:47.60 | 143337 | 155921
11 | 34:38.72 | 2:51.05 | 155922 | 168751
12 | 37:30.02 | 2:48.44 | 168752 | 181395
13 | 40:18.46 | 3:58.32 | 181396 | 199277
14 | 44:17.03 | 5:13.20 | 199278 | 222772
15 | 49:30.23 | 5:39.35 | 222773 | 248232
Track 1
Filename F:\EAC\VA - 120 - Hits - Greatest Hits Soul And R&B - 8 CD\Various Artists - Greatest Hits Soul And R&B - Disc 3\01. Funky Broadway.wav
Pre-gap length 0:00:02.00
Peak level 95.2 %
Extraction speed 3.5 X
Track quality 100.0 %
Test CRC 9212BAF7
Copy CRC 9212BAF7
Accurately ripped (confidence 1) [345B8FB5] (AR v1)
Copy OK
Track 2
Filename F:\EAC\VA - 120 - Hits - Greatest Hits Soul And R&B - 8 CD\Various Artists - Greatest Hits Soul And R&B - Disc 3\02. Got To Getcha.wav
Pre-gap length 0:00:01.72
Peak level 99.8 %
Extraction speed 3.7 X
Track quality 100.0 %
Test CRC D2696D42
Copy CRC D2696D42
Accurately ripped (confidence 1) [45511940] (AR v1)
Copy OK
Track 3
Filename F:\EAC\VA - 120 - Hits - Greatest Hits Soul And R&B - 8 CD\Various Artists - Greatest Hits Soul And R&B - Disc 3\03. Cissy Strut.wav
Pre-gap length 0:00:01.73
Peak level 98.4 %
Extraction speed 4.0 X
Track quality 100.0 %
Test CRC 597646E2
Copy CRC 597646E2
Accurately ripped (confidence 1) [66C4AAC1] (AR v1)
Copy OK
Track 4
Filename F:\EAC\VA - 120 - Hits - Greatest Hits Soul And R&B - 8 CD\Various Artists - Greatest Hits Soul And R&B - Disc 3\04. Remember Who You Are.wav
Pre-gap length 0:00:01.73
Peak level 100.0 %
Extraction speed 4.2 X
Track quality 100.0 %
Test CRC C1BE7C6F
Copy CRC C1BE7C6F
Accurately ripped (confidence 1) [313D44D7] (AR v1)
Copy OK
Track 5
Filename F:\EAC\VA - 120 - Hits - Greatest Hits Soul And R&B - 8 CD\Various Artists - Greatest Hits Soul And R&B - Disc 3\05. Groove On.wav
Pre-gap length 0:00:01.73
Peak level 100.0 %
Extraction speed 4.3 X
Track quality 99.9 %
Test CRC 109A5B40
Copy CRC 109A5B40
Accurately ripped (confidence 1) [9D07BBEE] (AR v1)
Copy OK
Track 6
Filename F:\EAC\VA - 120 - Hits - Greatest Hits Soul And R&B - 8 CD\Various Artists - Greatest Hits Soul And R&B - Disc 3\06. Why Can't We Live Together.wav
Pre-gap length 0:00:01.73
Peak level 99.8 %
Extraction speed 3.9 X
Track quality 99.9 %
Test CRC 2833F00E
Copy CRC 2833F00E
Accurately ripped (confidence 1) [187D51AA] (AR v1)
Copy OK
Track 7
Filename F:\EAC\VA - 120 - Hits - Greatest Hits Soul And R&B - 8 CD\Various Artists - Greatest Hits Soul And R&B - Disc 3\07. Rock Your Baby.wav
Pre-gap length 0:00:01.74
Peak level 89.1 %
Extraction speed 4.9 X
Track quality 100.0 %
Test CRC E9A870B9
Copy CRC E9A870B9
Accurately ripped (confidence 1) [D142D7EE] (AR v1)
Copy OK
Track 8
Filename F:\EAC\VA - 120 - Hits - Greatest Hits Soul And R&B - 8 CD\Various Artists - Greatest Hits Soul And R&B - Disc 3\08. Nice And Slow.wav
Pre-gap length 0:00:01.73
Peak level 82.8 %
Extraction speed 5.0 X
Track quality 100.0 %
Test CRC 240B036F
Copy CRC 240B036F
Accurately ripped (confidence 1) [1CF14F2B] (AR v1)
Copy OK
Track 9
Filename F:\EAC\VA - 120 - Hits - Greatest Hits Soul And R&B - 8 CD\Various Artists - Greatest Hits Soul And R&B - Disc 3\09. Together We Are Beautiful.wav
Pre-gap length 0:00:01.72
Peak level 83.3 %
Extraction speed 5.4 X
Track quality 100.0 %
Test CRC A5A58E3E
Copy CRC A5A58E3E
Accurately ripped (confidence 1) [0C8807D7] (AR v1)
Copy OK
Track 10
Filename F:\EAC\VA - 120 - Hits - Greatest Hits Soul And R&B - 8 CD\Various Artists - Greatest Hits Soul And R&B - Disc 3\10. I'm Doin' Fine Now.wav
Pre-gap length 0:00:01.73
Peak level 97.1 %
Extraction speed 5.2 X
Track quality 100.0 %
Test CRC 04EF3ADC
Copy CRC 04EF3ADC
Accurately ripped (confidence 1) [5CA07342] (AR v1)
Copy OK
Track 11
Filename F:\EAC\VA - 120 - Hits - Greatest Hits Soul And R&B - 8 CD\Various Artists - Greatest Hits Soul And R&B - Disc 3\11. Swing Your Daddy.wav
Pre-gap length 0:00:01.74
Peak level 95.5 %
Extraction speed 5.4 X
Track quality 100.0 %
Test CRC 7155541E
Copy CRC 7155541E
Accurately ripped (confidence 1) [343BAC79] (AR v1)
Copy OK
Track 12
Filename F:\EAC\VA - 120 - Hits - Greatest Hits Soul And R&B - 8 CD\Various Artists - Greatest Hits Soul And R&B - Disc 3\12. Ride A Wild Horse.wav
Pre-gap length 0:00:01.73
Peak level 92.9 %
Extraction speed 5.4 X
Track quality 100.0 %
Test CRC D356E7E5
Copy CRC D356E7E5
Accurately ripped (confidence 1) [3EC6BE8C] (AR v1)
Copy OK
Track 13
Filename F:\EAC\VA - 120 - Hits - Greatest Hits Soul And R&B - 8 CD\Various Artists - Greatest Hits Soul And R&B - Disc 3\13. Walk On By.wav
Pre-gap length 0:00:01.73
Peak level 100.0 %
Extraction speed 5.8 X
Track quality 100.0 %
Test CRC 401994E1
Copy CRC 401994E1
Accurately ripped (confidence 1) [0A15E59C] (AR v1)
Copy OK
Track 14
Filename F:\EAC\VA - 120 - Hits - Greatest Hits Soul And R&B - 8 CD\Various Artists - Greatest Hits Soul And R&B - Disc 3\14. Where Is The Love.wav
Pre-gap length 0:00:01.73
Peak level 98.3 %
Extraction speed 6.1 X
Track quality 100.0 %
Test CRC 9B9FDB28
Copy CRC 9B9FDB28
Accurately ripped (confidence 1) [BE2B5F6F] (AR v1)
Copy OK
Track 15
Filename F:\EAC\VA - 120 - Hits - Greatest Hits Soul And R&B - 8 CD\Various Artists - Greatest Hits Soul And R&B - Disc 3\15. Boogie On Top.wav
Pre-gap length 0:00:01.73
Peak level 79.4 %
Extraction speed 6.2 X
Track quality 100.0 %
Test CRC 265A2B42
Copy CRC 265A2B42
Accurately ripped (confidence 1) [480C9C46] (AR v1)
Copy OK
All tracks accurately ripped
No errors occurred
End of status report
==== Log checksum 00D8EE03047958C116CAC792B8CDF40CA25368B04D2BDDBAEB52E8998506394B ====
 
Содержание индексной карты (.CUE)
REM GENRE "Soul And R&B"
REM DISCID B80CED0F
REM COMMENT "ExactAudioCopy v1.0b3"
PERFORMER "Various Artists"
TITLE "120 - Hits - Greatest Hits Soul And R&B Disc 3"
FILE "01. Funky Broadway.wav" WAVE
TRACK 01 AUDIO
TITLE "Funky Broadway"
PERFORMER "Dyke And The Blazers"
INDEX 01 00:00:00
TRACK 02 AUDIO
TITLE "Got To Getcha"
PERFORMER "Maceo & The All Kings Men"
INDEX 00 02:39:14
FILE "02. Got To Getcha.wav" WAVE
INDEX 01 00:00:00
TRACK 03 AUDIO
TITLE "Cissy Strut"
PERFORMER "The Meters"
INDEX 00 02:46:13
FILE "03. Cissy Strut.wav" WAVE
INDEX 01 00:00:00
TRACK 04 AUDIO
TITLE "Remember Who You Are"
PERFORMER "Sly & The Family Stone"
INDEX 00 02:58:33
FILE "04. Remember Who You Are.wav" WAVE
INDEX 01 00:00:00
TRACK 05 AUDIO
TITLE "Groove On"
PERFORMER "Willie 'Beaver' Hale"
INDEX 00 03:15:03
FILE "05. Groove On.wav" WAVE
INDEX 01 00:00:00
TRACK 06 AUDIO
TITLE "Why Can't We Live Together"
PERFORMER "Timmy Thomas"
INDEX 00 05:58:58
FILE "06. Why Can't We Live Together.wav" WAVE
INDEX 01 00:00:00
TRACK 07 AUDIO
TITLE "Rock Your Baby"
PERFORMER "George McGrae"
INDEX 00 03:29:07
FILE "07. Rock Your Baby.wav" WAVE
INDEX 01 00:00:00
TRACK 08 AUDIO
TITLE "Nice And Slow"
PERFORMER "Jesse Green"
INDEX 00 03:12:42
FILE "08. Nice And Slow.wav" WAVE
INDEX 01 00:00:00
TRACK 09 AUDIO
TITLE "Together We Are Beautiful"
PERFORMER "Fern Kinney"
INDEX 00 03:05:17
FILE "09. Together We Are Beautiful.wav" WAVE
INDEX 01 00:00:00
TRACK 10 AUDIO
TITLE "I'm Doin' Fine Now"
PERFORMER "New York City"
INDEX 00 04:11:06
FILE "10. I'm Doin' Fine Now.wav" WAVE
INDEX 01 00:00:00
TRACK 11 AUDIO
TITLE "Swing Your Daddy"
PERFORMER "Jim Gilstrap"
INDEX 00 02:46:04
FILE "11. Swing Your Daddy.wav" WAVE
INDEX 01 00:00:00
TRACK 12 AUDIO
TITLE "Ride A Wild Horse"
PERFORMER "Dee Clark"
INDEX 00 02:49:25
FILE "12. Ride A Wild Horse.wav" WAVE
INDEX 01 00:00:00
TRACK 13 AUDIO
TITLE "Walk On By"
PERFORMER "Average White Band"
INDEX 00 02:46:64
FILE "13. Walk On By.wav" WAVE
INDEX 01 00:00:00
TRACK 14 AUDIO
TITLE "Where Is The Love"
PERFORMER "Delegation"
INDEX 00 03:56:52
FILE "14. Where Is The Love.wav" WAVE
INDEX 01 00:00:00
TRACK 15 AUDIO
TITLE "Boogie On Top"
PERFORMER "Rokotto"
INDEX 00 05:11:40
FILE "15. Boogie On Top.wav" WAVE
INDEX 01 00:00:00
 
Disc 4
 
Tracklist:
01. Curtis Mayfield - Superfly [03:49]
02. Gil Scott-Heron & Brian Jackson - Heron & Brian Jackson [05:12]
03. Ripple - I Don't Know What It Is But It Sure Is Funky [03:15]
04. Average White Band - Cut The Cake [04:02]
05. James Brown & The JB's - Honky Tonk [04:46]
06. Sly & The Family Stone - Back On The Right Track [02:39]
07. B.T. Express - If It Don't Turn You On [04:37]
08. Peter Brown - Dance With Me [03:46]
09. Maxine Nightingale - Right Back Where We Started From [03:11]
10. Sharon Brown - I Specialize In Love [07:10]
11. Michael Zager Band - Let's All Chant [02:59]
12. Walter Murphy & The Big Apple Band - A Fith Of Beethoven[03:00]
13. Mighty Clouds Of Joy - Mighty High [03:32]
14. A Taste Of Honey - Boogie Oogie Oogie [05:26]
15. Joe Tex - Ain't Gonna Bump No More (With No Big Fat Woman)[03:23]
Playing Time.........: 01:00:52
 
Лог создания рипа
Exact Audio Copy V1.0 beta 3 from 29. August 2011
EAC extraction logfile from 2. November 2014, 15:22
Various Artists / 120 - Hits - Greatest Hits Soul And R&B Disc 4
Used drive : TSSTcorpCDDVDW SH-S202J Adapter: 0 ID: 0
Read mode : Secure
Utilize accurate stream : Yes
Defeat audio cache : Yes
Make use of C2 pointers : No
Read offset correction : 6
Overread into Lead-In and Lead-Out : No
Fill up missing offset samples with silence : Yes
Delete leading and trailing silent blocks : No
Null samples used in CRC calculations : Yes
Used interface : Native Win32 interface for Win NT & 2000
Gap handling : Appended to previous track
Used output format : User Defined Encoder
Selected bitrate : 768 kBit/s
Quality : High
Add ID3 tag : No
Command line compressor : C:\Program Files\Exact Audio Copy\FLAC\FLAC.EXE
Additional command line options : -6 -V -T "ARTIST=%artist%" -T "TITLE=%title%" -T "ALBUM=%albumtitle%" -T "DATE=%year%" -T "TRACKNUMBER=%tracknr%" -T "GENRE=%genre%" -T "COMMENT=%comment%" -T "BAND=%albuminterpret%" -T "ALBUMARTIST=%albuminterpret%" -T "COMPOSER=%composer%" %haslyrics%--tag-from-file=LYRICS="%lyricsfile%"%haslyrics% -T "DISCNUMBER=%cdnumber%" -T "TOTALDISCS=%totalcds%" -T "TOTALTRACKS=%numtracks%" %hascover%--picture="%coverfile%"%hascover% %source% -o %dest%
TOC of the extracted CD
Track | Start | Length | Start sector | End sector
---------------------------------------------------------
1 | 0:00.00 | 3:53.36 | 0 | 17510
2 | 3:53.36 | 5:16.03 | 17511 | 41213
3 | 9:09.39 | 3:19.33 | 41214 | 56171
4 | 12:28.72 | 4:06.11 | 56172 | 74632
5 | 16:35.08 | 4:50.44 | 74633 | 96426
6 | 21:25.52 | 2:43.17 | 96427 | 108668
7 | 24:08.69 | 4:40.70 | 108669 | 129738
8 | 28:49.64 | 3:49.74 | 129739 | 146987
9 | 32:39.63 | 3:15.33 | 146988 | 161645
10 | 35:55.21 | 7:14.44 | 161646 | 194239
11 | 43:09.65 | 3:03.12 | 194240 | 207976
12 | 46:13.02 | 3:04.11 | 207977 | 221787
13 | 49:17.13 | 3:35.68 | 221788 | 237980
14 | 52:53.06 | 5:30.39 | 237981 | 262769
15 | 58:23.45 | 3:27.27 | 262770 | 278321
Track 1
Filename F:\EAC\VA - 120 - Hits - Greatest Hits Soul And R&B - 8 CD\Various Artists - Greatest Hits Soul And R&B - Disc 4\01. Superfly.wav
Pre-gap length 0:00:02.00
Peak level 98.2 %
Extraction speed 2.4 X
Track quality 100.0 %
Test CRC C26D5EE9
Copy CRC C26D5EE9
Accurately ripped (confidence 1) [49DF797F] (AR v1)
Copy OK
Track 2
Filename F:\EAC\VA - 120 - Hits - Greatest Hits Soul And R&B - 8 CD\Various Artists - Greatest Hits Soul And R&B - Disc 4\02. The Bottle.wav
Pre-gap length 0:00:01.73
Peak level 96.5 %
Extraction speed 2.3 X
Track quality 99.9 %
Test CRC 82161FCC
Copy CRC 82161FCC
Accurately ripped (confidence 1) [5ABC7BDD] (AR v1)
Copy OK
Track 3
Filename F:\EAC\VA - 120 - Hits - Greatest Hits Soul And R&B - 8 CD\Various Artists - Greatest Hits Soul And R&B - Disc 4\03. I Don't Know What It Is But It Sure Is Funky.wav
Pre-gap length 0:00:01.73
Peak level 97.1 %
Extraction speed 2.8 X
Track quality 100.0 %
Test CRC 388FE0CF
Copy CRC 388FE0CF
Accurately ripped (confidence 1) [EC04037C] (AR v1)
Copy OK
Track 4
Filename F:\EAC\VA - 120 - Hits - Greatest Hits Soul And R&B - 8 CD\Various Artists - Greatest Hits Soul And R&B - Disc 4\04. Cut The Cake.wav
Pre-gap length 0:00:01.73
Peak level 98.9 %
Extraction speed 3.1 X
Track quality 100.0 %
Test CRC DB2FD270
Copy CRC DB2FD270
Accurately ripped (confidence 1) [8946ED50] (AR v1)
Copy OK
Track 5
Filename F:\EAC\VA - 120 - Hits - Greatest Hits Soul And R&B - 8 CD\Various Artists - Greatest Hits Soul And R&B - Disc 4\05. Honky Tonk.wav
Pre-gap length 0:00:01.73
Peak level 98.8 %
Extraction speed 3.3 X
Track quality 100.0 %
Test CRC 66F291EB
Copy CRC 66F291EB
Accurately ripped (confidence 1) [8934522F] (AR v1)
Copy OK
Track 6
Filename F:\EAC\VA - 120 - Hits - Greatest Hits Soul And R&B - 8 CD\Various Artists - Greatest Hits Soul And R&B - Disc 4\06. Back On The Right Track.wav
Pre-gap length 0:00:01.73
Peak level 94.5 %
Extraction speed 3.2 X
Track quality 100.0 %
Test CRC C9B0360A
Copy CRC C9B0360A
Accurately ripped (confidence 1) [208BDEDB] (AR v1)
Copy OK
Track 7
Filename F:\EAC\VA - 120 - Hits - Greatest Hits Soul And R&B - 8 CD\Various Artists - Greatest Hits Soul And R&B - Disc 4\07. If It Don't Turn You On.wav
Pre-gap length 0:00:01.73
Peak level 98.3 %
Extraction speed 3.6 X
Track quality 100.0 %
Test CRC 4AC4BD11
Copy CRC 4AC4BD11
Accurately ripped (confidence 1) [1396E0F8] (AR v1)
Copy OK
Track 8
Filename F:\EAC\VA - 120 - Hits - Greatest Hits Soul And R&B - 8 CD\Various Artists - Greatest Hits Soul And R&B - Disc 4\08. Dance With Me.wav
Pre-gap length 0:00:01.72
Peak level 84.2 %
Extraction speed 3.6 X
Track quality 100.0 %
Test CRC C5EA1E0F
Copy CRC C5EA1E0F
Accurately ripped (confidence 1) [9BA83393] (AR v1)
Copy OK
Track 9
Filename F:\EAC\VA - 120 - Hits - Greatest Hits Soul And R&B - 8 CD\Various Artists - Greatest Hits Soul And R&B - Disc 4\09. Right Back Where We Started From.wav
Pre-gap length 0:00:01.73
Peak level 99.9 %
Extraction speed 3.6 X
Track quality 100.0 %
Test CRC 3ADD1034
Copy CRC 3ADD1034
Accurately ripped (confidence 1) [09725D2F] (AR v1)
Copy OK
Track 10
Filename F:\EAC\VA - 120 - Hits - Greatest Hits Soul And R&B - 8 CD\Various Artists - Greatest Hits Soul And R&B - Disc 4\10. I Specialize In Love.wav
Pre-gap length 0:00:01.73
Peak level 99.4 %
Extraction speed 3.6 X
Track quality 99.9 %
Test CRC 8C3E7DED
Copy CRC 8C3E7DED
Accurately ripped (confidence 1) [F949F1E9] (AR v1)
Copy OK
Track 11
Filename F:\EAC\VA - 120 - Hits - Greatest Hits Soul And R&B - 8 CD\Various Artists - Greatest Hits Soul And R&B - Disc 4\11. Let's All Chant.wav
Pre-gap length 0:00:01.73
Peak level 100.0 %
Extraction speed 3.9 X
Track quality 100.0 %
Test CRC 394A617A
Copy CRC 394A617A
Accurately ripped (confidence 1) [7553C63F] (AR v1)
Copy OK
Track 12
Filename F:\EAC\VA - 120 - Hits - Greatest Hits Soul And R&B - 8 CD\Various Artists - Greatest Hits Soul And R&B - Disc 4\12. A Fith Of Beethoven.wav
Pre-gap length 0:00:01.73
Peak level 96.8 %
Extraction speed 3.9 X
Track quality 100.0 %
Test CRC 1A78FADE
Copy CRC 1A78FADE
Accurately ripped (confidence 1) [E9260EB6] (AR v1)
Copy OK
Track 13
Filename F:\EAC\VA - 120 - Hits - Greatest Hits Soul And R&B - 8 CD\Various Artists - Greatest Hits Soul And R&B - Disc 4\13. Mighty High.wav
Pre-gap length 0:00:01.73
Peak level 95.5 %
Extraction speed 4.2 X
Track quality 100.0 %
Test CRC AE782D2D
Copy CRC AE782D2D
Accurately ripped (confidence 1) [A8FA78FE] (AR v1)
Copy OK
Track 14
Filename F:\EAC\VA - 120 - Hits - Greatest Hits Soul And R&B - 8 CD\Various Artists - Greatest Hits Soul And R&B - Disc 4\14. Boogie Oogie Oogie.wav
Pre-gap length 0:00:01.73
Peak level 99.9 %
Extraction speed 4.5 X
Track quality 100.0 %
Test CRC 804BB0E2
Copy CRC 804BB0E2
Accurately ripped (confidence 1) [9F08CE5F] (AR v1)
Copy OK
Track 15
Filename F:\EAC\VA - 120 - Hits - Greatest Hits Soul And R&B - 8 CD\Various Artists - Greatest Hits Soul And R&B - Disc 4\15. Ain't Gonna Bump No More (With No Big Fat Woman).wav
Pre-gap length 0:00:01.73
Peak level 77.2 %
Extraction speed 4.3 X
Track quality 100.0 %
Test CRC A2FF9291
Copy CRC A2FF9291
Accurately ripped (confidence 1) [68CD2022] (AR v1)
Copy OK
All tracks accurately ripped
No errors occurred
End of status report
==== Log checksum 3259F01B411ED2348B2EB8AE0520F200ECDDFF35A163F4EBFE5BBDD696C8F8FD ====
 
Содержание индексной карты (.CUE)
REM GENRE "Soul And R&B"
REM DISCID E00E7E0F
REM COMMENT "ExactAudioCopy v1.0b3"
PERFORMER "Various Artists"
TITLE "120 - Hits - Greatest Hits Soul And R&B Disc 4"
FILE "01. Superfly.wav" WAVE
TRACK 01 AUDIO
TITLE "Superfly"
PERFORMER "Curtis Mayfield"
INDEX 01 00:00:00
TRACK 02 AUDIO
TITLE "The Bottle"
PERFORMER "Gil Scott-Heron & Brian Jackson"
INDEX 00 03:51:56
FILE "02. The Bottle.wav" WAVE
INDEX 01 00:00:00
TRACK 03 AUDIO
TITLE "I Don't Know What It Is But It Sure Is Funky"
PERFORMER "Ripple"
INDEX 00 05:14:23
FILE "03. I Don't Know What It Is But It Sure Is Funky.wav" WAVE
INDEX 01 00:00:00
TRACK 04 AUDIO
TITLE "Cut The Cake"
PERFORMER "Average White Band"
INDEX 00 03:17:53
FILE "04. Cut The Cake.wav" WAVE
INDEX 01 00:00:00
TRACK 05 AUDIO
TITLE "Honky Tonk"
PERFORMER "James Brown & The JB's"
INDEX 00 04:04:31
FILE "05. Honky Tonk.wav" WAVE
INDEX 01 00:00:00
TRACK 06 AUDIO
TITLE "Back On The Right Track"
PERFORMER "Sly & The Family Stone"
INDEX 00 04:48:64
FILE "06. Back On The Right Track.wav" WAVE
INDEX 01 00:00:00
TRACK 07 AUDIO
TITLE "If It Don't Turn You On"
PERFORMER "B.T. Express"
INDEX 00 02:41:37
FILE "07. If It Don't Turn You On.wav" WAVE
INDEX 01 00:00:00
TRACK 08 AUDIO
TITLE "Dance With Me"
PERFORMER "Peter Brown"
INDEX 00 04:39:16
FILE "08. Dance With Me.wav" WAVE
INDEX 01 00:00:00
TRACK 09 AUDIO
TITLE "Right Back Where We Started From"
PERFORMER "Maxine Nightingale"
INDEX 00 03:48:19
FILE "09. Right Back Where We Started From.wav" WAVE
INDEX 01 00:00:00
TRACK 10 AUDIO
TITLE "I Specialize In Love"
PERFORMER "Sharon Brown"
INDEX 00 03:13:53
FILE "10. I Specialize In Love.wav" WAVE
INDEX 01 00:00:00
TRACK 11 AUDIO
TITLE "Let's All Chant"
PERFORMER "Michael Zager Band"
INDEX 00 07:12:64
FILE "11. Let's All Chant.wav" WAVE
INDEX 01 00:00:00
TRACK 12 AUDIO
TITLE "A Fith Of Beethoven"
PERFORMER "Walter Murphy & The Big Apple Band"
INDEX 00 03:01:32
FILE "12. A Fith Of Beethoven.wav" WAVE
INDEX 01 00:00:00
TRACK 13 AUDIO
TITLE "Mighty High"
PERFORMER "Mighty Clouds Of Joy"
INDEX 00 03:02:31
FILE "13. Mighty High.wav" WAVE
INDEX 01 00:00:00
TRACK 14 AUDIO
TITLE "Boogie Oogie Oogie"
PERFORMER "A Taste Of Honey"
INDEX 00 03:34:13
FILE "14. Boogie Oogie Oogie.wav" WAVE
INDEX 01 00:00:00
TRACK 15 AUDIO
TITLE "Ain't Gonna Bump No More (With No Big Fat Woman)"
PERFORMER "Joe Tex"
INDEX 00 05:28:59
FILE "15. Ain't Gonna Bump No More (With No Big Fat Woman).wav" WAVE
INDEX 01 00:00:00
 
Disc 5
 
Tracklist:
01. Wild Cherry - Play That Funky Music [03:06]
02. Average White Band - Pick Up The Pieces [03:55]
03. James Brown - Sex Machine (Live) [06:35]
04. Joe Tex - Loose Caboose [06:43]
05. Peter Brown - Do You Wanna Get Funky With Me [04:27]
06. Sylvers - Boogie Fever [03:24]
07. Foxy - Get Off [05:37]
08. Sun - Sun Is Here [05:00]
09. Funkadelic - (Not Just) Knee Deep [04:25]
10. O'Bryan - Lovelite [03:53]
11. Evelyn (Champagne) King - Flirt [05:44]
12. Donna Allen - Joy And Pain [04:03]
13. Loose Ends - Hanging On A String [05:53]
14. Debarge - Dance All Night [03:38]
15. KC & The Sunshine Band - Give It Up [03:58]
Playing Time.........: 01:10:28
 
Лог создания рипа
Exact Audio Copy V1.0 beta 3 from 29. August 2011
EAC extraction logfile from 2. November 2014, 16:02
Various Artists / 120 - Hits - Greatest Hits Soul And R&B Disc 5
Used drive : TSSTcorpCDDVDW SH-S202J Adapter: 0 ID: 0
Read mode : Secure
Utilize accurate stream : Yes
Defeat audio cache : Yes
Make use of C2 pointers : No
Read offset correction : 6
Overread into Lead-In and Lead-Out : No
Fill up missing offset samples with silence : Yes
Delete leading and trailing silent blocks : No
Null samples used in CRC calculations : Yes
Used interface : Native Win32 interface for Win NT & 2000
Gap handling : Appended to previous track
Used output format : User Defined Encoder
Selected bitrate : 768 kBit/s
Quality : High
Add ID3 tag : No
Command line compressor : C:\Program Files\Exact Audio Copy\FLAC\FLAC.EXE
Additional command line options : -6 -V -T "ARTIST=%artist%" -T "TITLE=%title%" -T "ALBUM=%albumtitle%" -T "DATE=%year%" -T "TRACKNUMBER=%tracknr%" -T "GENRE=%genre%" -T "COMMENT=%comment%" -T "BAND=%albuminterpret%" -T "ALBUMARTIST=%albuminterpret%" -T "COMPOSER=%composer%" %haslyrics%--tag-from-file=LYRICS="%lyricsfile%"%haslyrics% -T "DISCNUMBER=%cdnumber%" -T "TOTALDISCS=%totalcds%" -T "TOTALTRACKS=%numtracks%" %hascover%--picture="%coverfile%"%hascover% %source% -o %dest%
TOC of the extracted CD
Track | Start | Length | Start sector | End sector
---------------------------------------------------------
1 | 0:00.00 | 3:10.49 | 0 | 14298
2 | 3:10.49 | 3:59.40 | 14299 | 32263
3 | 7:10.14 | 6:39.19 | 32264 | 62207
4 | 13:49.33 | 6:47.44 | 62208 | 92776
5 | 20:37.02 | 4:31.19 | 92777 | 113120
6 | 25:08.21 | 3:28.42 | 113121 | 128762
7 | 28:36.63 | 5:40.66 | 128763 | 154328
8 | 34:17.54 | 5:04.21 | 154329 | 177149
9 | 39:22.00 | 4:29.21 | 177150 | 197345
10 | 43:51.21 | 3:57.10 | 197346 | 215130
11 | 47:48.31 | 5:48.38 | 215131 | 241268
12 | 53:36.69 | 4:07.58 | 241269 | 259851
13 | 57:44.52 | 5:57.31 | 259852 | 286657
14 | 63:42.08 | 3:42.01 | 286658 | 303308
15 | 67:24.09 | 4:02.38 | 303309 | 321496
Track 1
Filename F:\EAC\VA - 120 - Hits - Greatest Hits Soul And R&B - 8 CD\Various Artists - Greatest Hits Soul And R&B - Disc 5\01. Play That Funky Music.wav
Pre-gap length 0:00:02.00
Peak level 89.1 %
Extraction speed 3.6 X
Track quality 100.0 %
Test CRC 09DCB47A
Copy CRC 09DCB47A
Accurately ripped (confidence 1) [70961E1B] (AR v1)
Copy OK
Track 2
Filename F:\EAC\VA - 120 - Hits - Greatest Hits Soul And R&B - 8 CD\Various Artists - Greatest Hits Soul And R&B - Disc 5\02. Pick Up The Pieces.wav
Pre-gap length 0:00:01.74
Peak level 99.1 %
Extraction speed 4.0 X
Track quality 100.0 %
Test CRC D8099447
Copy CRC D8099447
Accurately ripped (confidence 1) [6231FCD1] (AR v1)
Copy OK
Track 3
Filename F:\EAC\VA - 120 - Hits - Greatest Hits Soul And R&B - 8 CD\Various Artists - Greatest Hits Soul And R&B - Disc 5\03. Sex Machine (Live).wav
Pre-gap length 0:00:01.72
Peak level 100.0 %
Extraction speed 4.6 X
Track quality 100.0 %
Test CRC 0FF78333
Copy CRC 0FF78333
Accurately ripped (confidence 1) [9C10238B] (AR v1)
Copy OK
Track 4
Filename F:\EAC\VA - 120 - Hits - Greatest Hits Soul And R&B - 8 CD\Various Artists - Greatest Hits Soul And R&B - Disc 5\04. Loose Caboose.wav
Pre-gap length 0:00:01.73
Peak level 79.1 %
Extraction speed 5.0 X
Track quality 100.0 %
Test CRC 7CA45ADA
Copy CRC 7CA45ADA
Accurately ripped (confidence 1) [1D223D7B] (AR v1)
Copy OK
Track 5
Filename F:\EAC\VA - 120 - Hits - Greatest Hits Soul And R&B - 8 CD\Various Artists - Greatest Hits Soul And R&B - Disc 5\05. Do You Wanna Get Funky With Me.wav
Pre-gap length 0:00:01.73
Peak level 99.1 %
Extraction speed 4.3 X
Track quality 99.9 %
Test CRC 79D1FC67
Copy CRC 79D1FC67
Accurately ripped (confidence 1) [39D69531] (AR v1)
Copy OK
Track 6
Filename F:\EAC\VA - 120 - Hits - Greatest Hits Soul And R&B - 8 CD\Various Artists - Greatest Hits Soul And R&B - Disc 5\06. Boogie Fever.wav
Pre-gap length 0:00:01.73
Peak level 99.6 %
Extraction speed 5.2 X
Track quality 100.0 %
Test CRC B7DAB694
Copy CRC B7DAB694
Accurately ripped (confidence 1) [4ADB9ED4] (AR v1)
Copy OK
Track 7
Filename F:\EAC\VA - 120 - Hits - Greatest Hits Soul And R&B - 8 CD\Various Artists - Greatest Hits Soul And R&B - Disc 5\07. Get Off.wav
Pre-gap length 0:00:01.73
Peak level 98.9 %
Extraction speed 5.6 X
Track quality 100.0 %
Test CRC 584F3A19
Copy CRC 584F3A19
Accurately ripped (confidence 1) [DBF18139] (AR v1)
Copy OK
Track 8
Filename F:\EAC\VA - 120 - Hits - Greatest Hits Soul And R&B - 8 CD\Various Artists - Greatest Hits Soul And R&B - Disc 5\08. Sun Is Here.wav
Pre-gap length 0:00:01.72
Peak level 98.7 %
Extraction speed 5.7 X
Track quality 100.0 %
Test CRC 6E5B403D
Copy CRC 6E5B403D
Accurately ripped (confidence 1) [B7742273] (AR v1)
Copy OK
Track 9
Filename F:\EAC\VA - 120 - Hits - Greatest Hits Soul And R&B - 8 CD\Various Artists - Greatest Hits Soul And R&B - Disc 5\09. (Not Just) Knee Deep.wav
Pre-gap length 0:00:01.73
Peak level 100.0 %
Extraction speed 5.8 X
Track quality 100.0 %
Test CRC 420DBC71
Copy CRC 420DBC71
Accurately ripped (confidence 1) [275D38B0] (AR v1)
Copy OK
Track 10
Filename F:\EAC\VA - 120 - Hits - Greatest Hits Soul And R&B - 8 CD\Various Artists - Greatest Hits Soul And R&B - Disc 5\10. Lovelite.wav
Pre-gap length 0:00:01.73
Peak level 99.6 %
Extraction speed 5.8 X
Track quality 100.0 %
Test CRC A67DEB51
Copy CRC A67DEB51
Accurately ripped (confidence 1) [3D1C6F9B] (AR v1)
Copy OK
Track 11
Filename F:\EAC\VA - 120 - Hits - Greatest Hits Soul And R&B - 8 CD\Various Artists - Greatest Hits Soul And R&B - Disc 5\11. Flirt.wav
Pre-gap length 0:00:01.73
Peak level 100.0 %
Extraction speed 6.0 X
Track quality 100.0 %
Test CRC D802F748
Copy CRC D802F748
Accurately ripped (confidence 1) [A443FA04] (AR v1)
Copy OK
Track 12
Filename F:\EAC\VA - 120 - Hits - Greatest Hits Soul And R&B - 8 CD\Various Artists - Greatest Hits Soul And R&B - Disc 5\12. Joy And Pain.wav
Pre-gap length 0:00:01.73
Peak level 92.3 %
Extraction speed 6.2 X
Track quality 100.0 %
Test CRC 0F13EE60
Copy CRC 0F13EE60
Accurately ripped (confidence 1) [57D891BD] (AR v1)
Copy OK
Track 13
Filename F:\EAC\VA - 120 - Hits - Greatest Hits Soul And R&B - 8 CD\Various Artists - Greatest Hits Soul And R&B - Disc 5\13. Hanging On A String.wav
Pre-gap length 0:00:01.73
Peak level 98.4 %
Extraction speed 6.5 X
Track quality 100.0 %
Test CRC 8B039514
Copy CRC 8B039514
Accurately ripped (confidence 1) [6AFF1C2A] (AR v1)
Copy OK
Track 14
Filename F:\EAC\VA - 120 - Hits - Greatest Hits Soul And R&B - 8 CD\Various Artists - Greatest Hits Soul And R&B - Disc 5\14. Dance All Night.wav
Pre-gap length 0:00:01.73
Peak level 99.0 %
Extraction speed 6.3 X
Track quality 100.0 %
Test CRC 05A51326
Copy CRC 05A51326
Accurately ripped (confidence 1) [425242E5] (AR v1)
Copy OK
Track 15
Filename F:\EAC\VA - 120 - Hits - Greatest Hits Soul And R&B - 8 CD\Various Artists - Greatest Hits Soul And R&B - Disc 5\15. Give It Up.wav
Pre-gap length 0:00:01.73
Peak level 70.5 %
Extraction speed 6.4 X
Track quality 100.0 %
Test CRC 8E9EF88B
Copy CRC 8E9EF88B
Accurately ripped (confidence 1) [2CFF4745] (AR v1)
Copy OK
All tracks accurately ripped
No errors occurred
End of status report
==== Log checksum 92192130D159380B8AF9981182D5798328B1405744FD611071B09A245B24BC00 ====
 
Содержание индексной карты (.CUE)
REM GENRE "Soul And R&B"
REM DISCID C810BE0F
REM COMMENT "ExactAudioCopy v1.0b3"
PERFORMER "Various Artists"
TITLE "120 - Hits - Greatest Hits Soul And R&B Disc 5"
FILE "01. Play That Funky Music.wav" WAVE
TRACK 01 AUDIO
TITLE "Play That Funky Music"
PERFORMER "Wild Cherry"
INDEX 01 00:00:00
TRACK 02 AUDIO
TITLE "Pick Up The Pieces"
PERFORMER "Average White Band"
INDEX 00 03:08:68
FILE "02. Pick Up The Pieces.wav" WAVE
INDEX 01 00:00:00
TRACK 03 AUDIO
TITLE "Sex Machine (Live)"
PERFORMER "James Brown"
INDEX 00 03:57:61
FILE "03. Sex Machine (Live).wav" WAVE
INDEX 01 00:00:00
TRACK 04 AUDIO
TITLE "Loose Caboose"
PERFORMER "Joe Tex"
INDEX 00 06:37:39
FILE "04. Loose Caboose.wav" WAVE
INDEX 01 00:00:00
TRACK 05 AUDIO
TITLE "Do You Wanna Get Funky With Me"
PERFORMER "Peter Brown"
INDEX 00 06:45:64
FILE "05. Do You Wanna Get Funky With Me.wav" WAVE
INDEX 01 00:00:00
TRACK 06 AUDIO
TITLE "Boogie Fever"
PERFORMER "Sylvers"
INDEX 00 04:29:39
FILE "06. Boogie Fever.wav" WAVE
INDEX 01 00:00:00
TRACK 07 AUDIO
TITLE "Get Off"
PERFORMER "Foxy"
INDEX 00 03:26:62
FILE "07. Get Off.wav" WAVE
INDEX 01 00:00:00
TRACK 08 AUDIO
TITLE "Sun Is Here"
PERFORMER "Sun"
INDEX 00 05:39:12
FILE "08. Sun Is Here.wav" WAVE
INDEX 01 00:00:00
TRACK 09 AUDIO
TITLE "(Not Just) Knee Deep"
PERFORMER "Funkadelic"
INDEX 00 05:02:41
FILE "09. (Not Just) Knee Deep.wav" WAVE
INDEX 01 00:00:00
TRACK 10 AUDIO
TITLE "Lovelite"
PERFORMER "O'Bryan"
INDEX 00 04:27:41
FILE "10. Lovelite.wav" WAVE
INDEX 01 00:00:00
TRACK 11 AUDIO
TITLE "Flirt"
PERFORMER "Evelyn (Champagne) King"
INDEX 00 03:55:30
FILE "11. Flirt.wav" WAVE
INDEX 01 00:00:00
TRACK 12 AUDIO
TITLE "Joy And Pain"
PERFORMER "Donna Allen"
INDEX 00 05:46:58
FILE "12. Joy And Pain.wav" WAVE
INDEX 01 00:00:00
TRACK 13 AUDIO
TITLE "Hanging On A String"
PERFORMER "Loose Ends"
INDEX 00 04:06:03
FILE "13. Hanging On A String.wav" WAVE
INDEX 01 00:00:00
TRACK 14 AUDIO
TITLE "Dance All Night"
PERFORMER "Debarge"
INDEX 00 05:55:51
FILE "14. Dance All Night.wav" WAVE
INDEX 01 00:00:00
TRACK 15 AUDIO
TITLE "Give It Up"
PERFORMER "KC & The Sunshine Band"
INDEX 00 03:40:21
FILE "15. Give It Up.wav" WAVE
INDEX 01 00:00:00
 
Disc 6
 
Tracklist:
01. Curtis Mayfield - Move On Up [03:37]
02. Timmy Thomas - Stone To The Bone [03:18]
03. The Meters - Handclapping Song [02:50]
04. Joe Tex - I Gotcha [02:22]
05. Betty Davis - I Need A Whole Lot Of Love [04:44]
06. Maceo & All The Kings Men - Shake It Baby [Keep On Shakin'][02:07]
07. B.T. Express - [Here Comes The] Express [05:02]
08. Brass Construction - Movin' [03:44]
09. Swinging Soul Machine - Spook's Day Off [02:53]
10. First Choice - Armed And Extremely Dangerous [02:43]
11. The Temptations - Masterpiece [04:24]
12. Lee Dorsey - Night People [04:19]
13. Toots & The Maytals - Daddy's Home [05:41]
14. ZZ Hill - Second Change [04:54]
15. Norma Jenkins - Love Jones [06:34]
Playing Time.........: 59:20
 
Лог создания рипа
Exact Audio Copy V1.0 beta 3 from 29. August 2011
EAC extraction logfile from 2. November 2014, 16:44
Various Artists / 120 - Hits - Greatest Hits Soul And R&B Disc 6
Used drive : TSSTcorpCDDVDW SH-S202J Adapter: 0 ID: 0
Read mode : Secure
Utilize accurate stream : Yes
Defeat audio cache : Yes
Make use of C2 pointers : No
Read offset correction : 6
Overread into Lead-In and Lead-Out : No
Fill up missing offset samples with silence : Yes
Delete leading and trailing silent blocks : No
Null samples used in CRC calculations : Yes
Used interface : Native Win32 interface for Win NT & 2000
Gap handling : Appended to previous track
Used output format : User Defined Encoder
Selected bitrate : 768 kBit/s
Quality : High
Add ID3 tag : No
Command line compressor : C:\Program Files\Exact Audio Copy\FLAC\FLAC.EXE
Additional command line options : -6 -V -T "ARTIST=%artist%" -T "TITLE=%title%" -T "ALBUM=%albumtitle%" -T "DATE=%year%" -T "TRACKNUMBER=%tracknr%" -T "GENRE=%genre%" -T "COMMENT=%comment%" -T "BAND=%albuminterpret%" -T "ALBUMARTIST=%albuminterpret%" -T "COMPOSER=%composer%" %haslyrics%--tag-from-file=LYRICS="%lyricsfile%"%haslyrics% -T "DISCNUMBER=%cdnumber%" -T "TOTALDISCS=%totalcds%" -T "TOTALTRACKS=%numtracks%" %hascover%--picture="%coverfile%"%hascover% %source% -o %dest%
TOC of the extracted CD
Track | Start | Length | Start sector | End sector
---------------------------------------------------------
1 | 0:00.00 | 3:41.61 | 0 | 16635
2 | 3:41.61 | 3:22.62 | 16636 | 31847
3 | 7:04.48 | 2:54.07 | 31848 | 44904
4 | 9:58.55 | 2:26.58 | 44905 | 55912
5 | 12:25.38 | 4:47.73 | 55913 | 77510
6 | 17:13.36 | 2:11.13 | 77511 | 87348
7 | 19:24.49 | 5:06.50 | 87349 | 110348
8 | 24:31.24 | 3:48.43 | 110349 | 127491
9 | 28:19.67 | 2:57.47 | 127492 | 140813
10 | 31:17.39 | 2:47.37 | 140814 | 153375
11 | 34:05.01 | 4:27.69 | 153376 | 173469
12 | 38:32.70 | 4:23.10 | 173470 | 193204
13 | 42:56.05 | 5:45.50 | 193205 | 219129
14 | 48:41.55 | 4:58.32 | 219130 | 241511
15 | 53:40.12 | 6:38.05 | 241512 | 271366
Track 1
Filename F:\EAC\VA - 120 - Hits - Greatest Hits Soul And R&B - 8 CD\Various Artists - Greatest Hits Soul And R&B - Disc 6\01. Move On Up.wav
Pre-gap length 0:00:02.00
Peak level 98.6 %
Extraction speed 3.7 X
Track quality 100.0 %
Test CRC F8F42006
Copy CRC F8F42006
Accurately ripped (confidence 1) [0E052BEF] (AR v1)
Copy OK
Track 2
Filename F:\EAC\VA - 120 - Hits - Greatest Hits Soul And R&B - 8 CD\Various Artists - Greatest Hits Soul And R&B - Disc 6\02. Stone To The bone.wav
Pre-gap length 0:00:01.73
Peak level 99.8 %
Extraction speed 3.2 X
Track quality 99.9 %
Test CRC 1525F9C4
Copy CRC 1525F9C4
Accurately ripped (confidence 1) [DFB86057] (AR v1)
Copy OK
Track 3
Filename F:\EAC\VA - 120 - Hits - Greatest Hits Soul And R&B - 8 CD\Various Artists - Greatest Hits Soul And R&B - Disc 6\03. Handclapping Song.wav
Pre-gap length 0:00:01.73
Peak level 97.6 %
Extraction speed 4.1 X
Track quality 100.0 %
Test CRC 664EF5EB
Copy CRC 664EF5EB
Accurately ripped (confidence 1) [275C49FF] (AR v1)
Copy OK
Track 4
Filename F:\EAC\VA - 120 - Hits - Greatest Hits Soul And R&B - 8 CD\Various Artists - Greatest Hits Soul And R&B - Disc 6\04. I Gotcha.wav
Pre-gap length 0:00:01.73
Peak level 82.6 %
Extraction speed 4.1 X
Track quality 100.0 %
Test CRC AA8F65D3
Copy CRC AA8F65D3
Accurately ripped (confidence 1) [C883616A] (AR v1)
Copy OK
Track 5
Filename F:\EAC\VA - 120 - Hits - Greatest Hits Soul And R&B - 8 CD\Various Artists - Greatest Hits Soul And R&B - Disc 6\05. I Need A Whole Lot Of Love.wav
Pre-gap length 0:00:01.73
Peak level 94.3 %
Extraction speed 4.8 X
Track quality 100.0 %
Test CRC B8940876
Copy CRC B8940876
Accurately ripped (confidence 1) [315D3006] (AR v1)
Copy OK
Track 6
Filename F:\EAC\VA - 120 - Hits - Greatest Hits Soul And R&B - 8 CD\Various Artists - Greatest Hits Soul And R&B - Disc 6\06. Shake It Baby (Keep On Shakin').wav
Pre-gap length 0:00:01.73
Peak level 83.9 %
Extraction speed 4.4 X
Track quality 100.0 %
Test CRC 0B0270A3
Copy CRC 0B0270A3
Accurately ripped (confidence 1) [FFB2680E] (AR v1)
Copy OK
Track 7
Filename F:\EAC\VA - 120 - Hits - Greatest Hits Soul And R&B - 8 CD\Various Artists - Greatest Hits Soul And R&B - Disc 6\07. (Here Comes The) Express.wav
Pre-gap length 0:00:01.73
Peak level 94.0 %
Extraction speed 5.1 X
Track quality 100.0 %
Test CRC E8B25BE5
Copy CRC E8B25BE5
Accurately ripped (confidence 1) [99FC2159] (AR v1)
Copy OK
Track 8
Filename F:\EAC\VA - 120 - Hits - Greatest Hits Soul And R&B - 8 CD\Various Artists - Greatest Hits Soul And R&B - Disc 6\08. Movin'.wav
Pre-gap length 0:00:01.73
Peak level 98.8 %
Extraction speed 5.2 X
Track quality 100.0 %
Test CRC 08CD5AC6
Copy CRC 08CD5AC6
Accurately ripped (confidence 1) [A48BD290] (AR v1)
Copy OK
Track 9
Filename F:\EAC\VA - 120 - Hits - Greatest Hits Soul And R&B - 8 CD\Various Artists - Greatest Hits Soul And R&B - Disc 6\09. Spook's Day Off.wav
Pre-gap length 0:00:01.73
Peak level 100.0 %
Extraction speed 4.2 X
Track quality 99.9 %
Test CRC 25DC53FA
Copy CRC 25DC53FA
Accurately ripped (confidence 1) [480505CB] (AR v1)
Copy OK
Track 10
Filename F:\EAC\VA - 120 - Hits - Greatest Hits Soul And R&B - 8 CD\Various Artists - Greatest Hits Soul And R&B - Disc 6\10. Armed And Extremely Dangerous.wav
Pre-gap length 0:00:01.73
Peak level 100.0 %
Extraction speed 5.3 X
Track quality 100.0 %
Test CRC 97354BCE
Copy CRC 97354BCE
Accurately ripped (confidence 1) [8D1BD86A] (AR v1)
Copy OK
Track 11
Filename F:\EAC\VA - 120 - Hits - Greatest Hits Soul And R&B - 8 CD\Various Artists - Greatest Hits Soul And R&B - Disc 6\11. Masterpiece.wav
Pre-gap length 0:00:01.73
Peak level 92.1 %
Extraction speed 4.9 X
Track quality 99.9 %
Test CRC BD8F2ABA
Copy CRC BD8F2ABA
Accurately ripped (confidence 1) [B351C70D] (AR v1)
Copy OK
Track 12
Filename F:\EAC\VA - 120 - Hits - Greatest Hits Soul And R&B - 8 CD\Various Artists - Greatest Hits Soul And R&B - Disc 6\12. Night People.wav
Pre-gap length 0:00:01.73
Peak level 99.9 %
Extraction speed 5.8 X
Track quality 100.0 %
Test CRC 4C76CAF2
Copy CRC 4C76CAF2
Accurately ripped (confidence 1) [B89B0B23] (AR v1)
Copy OK
Track 13
Filename F:\EAC\VA - 120 - Hits - Greatest Hits Soul And R&B - 8 CD\Various Artists - Greatest Hits Soul And R&B - Disc 6\13. Daddy's Home.wav
Pre-gap length 0:00:01.73
Peak level 93.7 %
Extraction speed 6.1 X
Track quality 100.0 %
Test CRC 7F16638C
Copy CRC 7F16638C
Accurately ripped (confidence 1) [751D4456] (AR v1)
Copy OK
Track 14
Filename F:\EAC\VA - 120 - Hits - Greatest Hits Soul And R&B - 8 CD\Various Artists - Greatest Hits Soul And R&B - Disc 6\14. Second Change.wav
Pre-gap length 0:00:01.72
Peak level 97.2 %
Extraction speed 6.3 X
Track quality 100.0 %
Test CRC 427CB682
Copy CRC 427CB682
Accurately ripped (confidence 1) [9693340F] (AR v1)
Copy OK
Track 15
Filename F:\EAC\VA - 120 - Hits - Greatest Hits Soul And R&B - 8 CD\Various Artists - Greatest Hits Soul And R&B - Disc 6\15. Love Jones.wav
Pre-gap length 0:00:01.73
Peak level 98.8 %
Extraction speed 5.9 X
Track quality 99.9 %
Test CRC 31FC0D2A
Copy CRC 31FC0D2A
Accurately ripped (confidence 1) [FA52A139] (AR v1)
Copy OK
All tracks accurately ripped
No errors occurred
End of status report
==== Log checksum C8820AFEF0345AE29C917380A09D46BFA729C8688D6A9F1BB31AA8B907EBE9A2 ====
 
Содержание индексной карты (.CUE)
REM GENRE "Soul And R&B"
REM DISCID BB0E220F
REM COMMENT "ExactAudioCopy v1.0b3"
PERFORMER "Various Artists"
TITLE "120 - Hits - Greatest Hits Soul And R&B Disc 6"
FILE "01. Move On Up.wav" WAVE
TRACK 01 AUDIO
TITLE "Move On Up"
PERFORMER "Curtis Mayfield"
INDEX 01 00:00:00
TRACK 02 AUDIO
TITLE "Stone To The bone"
PERFORMER "Timmy Thomas"
INDEX 00 03:40:06
FILE "02. Stone To The bone.wav" WAVE
INDEX 01 00:00:00
TRACK 03 AUDIO
TITLE "Handclapping Song"
PERFORMER "The Meters"
INDEX 00 03:21:07
FILE "03. Handclapping Song.wav" WAVE
INDEX 01 00:00:00
TRACK 04 AUDIO
TITLE "I Gotcha"
PERFORMER "Joe Tex"
INDEX 00 02:52:27
FILE "04. I Gotcha.wav" WAVE
INDEX 01 00:00:00
TRACK 05 AUDIO
TITLE "I Need A Whole Lot Of Love"
PERFORMER "Betty Davis"
INDEX 00 02:25:03
FILE "05. I Need A Whole Lot Of Love.wav" WAVE
INDEX 01 00:00:00
TRACK 06 AUDIO
TITLE "Shake It Baby (Keep On Shakin')"
PERFORMER "Maceo & All The Kings Men"
INDEX 00 04:46:18
FILE "06. Shake It Baby (Keep On Shakin').wav" WAVE
INDEX 01 00:00:00
TRACK 07 AUDIO
TITLE "(Here Comes The) Express"
PERFORMER "B.T. Express"
INDEX 00 02:09:33
FILE "07. (Here Comes The) Express.wav" WAVE
INDEX 01 00:00:00
TRACK 08 AUDIO
TITLE "Movin'"
PERFORMER "Brass Construction"
INDEX 00 05:04:70
FILE "08. Movin'.wav" WAVE
INDEX 01 00:00:00
TRACK 09 AUDIO
TITLE "Spook's Day Off"
PERFORMER "Swinging Soul Machine"
INDEX 00 03:46:63
FILE "09. Spook's Day Off.wav" WAVE
INDEX 01 00:00:00
TRACK 10 AUDIO
TITLE "Armed And Extremely Dangerous"
PERFORMER "First Choice"
INDEX 00 02:55:67
FILE "10. Armed And Extremely Dangerous.wav" WAVE
INDEX 01 00:00:00
TRACK 11 AUDIO
TITLE "Masterpiece"
PERFORMER "The Temptations"
INDEX 00 02:45:57
FILE "11. Masterpiece.wav" WAVE
INDEX 01 00:00:00
TRACK 12 AUDIO
TITLE "Night People"
PERFORMER "Lee Dorsey"
INDEX 00 04:26:14
FILE "12. Night People.wav" WAVE
INDEX 01 00:00:00
TRACK 13 AUDIO
TITLE "Daddy's Home"
PERFORMER "Toots & The Maytals"
INDEX 00 04:21:30
FILE "13. Daddy's Home.wav" WAVE
INDEX 01 00:00:00
TRACK 14 AUDIO
TITLE "Second Change"
PERFORMER "ZZ Hill"
INDEX 00 05:43:71
FILE "14. Second Change.wav" WAVE
INDEX 01 00:00:00
TRACK 15 AUDIO
TITLE "Love Jones"
PERFORMER "Norma Jenkins"
INDEX 00 04:56:52
FILE "15. Love Jones.wav" WAVE
INDEX 01 00:00:00
 
Disc 7
 
Tracklist:
01. Kool & The Gang - (Jump On The) Rhythm And Ride [05:01]
02. Ashford & Spimpson - Solid [05:03]
03. James Brown - Body Heat (Live) [05:09]
04. Gene Chandler - Get Down [03:16]
05. The Jungle Band - Full Speed Ahead [04:39]
06. Joe Tex - Give The Baby Anything That The Baby Wants [03:16]
07. Sly & The Family Stone - Shine It On [04:47]
08. Minnie Riperton - Loving You [03:18]
09. Percy Sledge - I'll Be Your Everything [03:16]
10. James Brown & The JB's - Stay With Me [04:04]
11. Minneapolis Genius 94 East Feat. Prince - Lovin' Cup [04:16]
12. L.J. Reynolds - Ain't No Woman Like My Baby [04:35]
13. Phyllis Nelson - Move Closer [04:06]
14. KC & The Sunshine Band - Please Don't Go [03:45]
15. Kenny Thomas - Tender Love [04:04]
Playing Time.........: 01:02:44
 
Лог создания рипа
Exact Audio Copy V1.0 beta 3 from 29. August 2011
EAC extraction logfile from 2. November 2014, 17:38
Various Artists / 120 - Hits - Greatest Hits Soul And R&B Disc 7
Used drive : TSSTcorpCDDVDW SH-S202J Adapter: 0 ID: 0
Read mode : Secure
Utilize accurate stream : Yes
Defeat audio cache : Yes
Make use of C2 pointers : No
Read offset correction : 6
Overread into Lead-In and Lead-Out : No
Fill up missing offset samples with silence : Yes
Delete leading and trailing silent blocks : No
Null samples used in CRC calculations : Yes
Used interface : Native Win32 interface for Win NT & 2000
Gap handling : Appended to previous track
Used output format : User Defined Encoder
Selected bitrate : 768 kBit/s
Quality : High
Add ID3 tag : No
Command line compressor : C:\Program Files\Exact Audio Copy\FLAC\FLAC.EXE
Additional command line options : -6 -V -T "ARTIST=%artist%" -T "TITLE=%title%" -T "ALBUM=%albumtitle%" -T "DATE=%year%" -T "TRACKNUMBER=%tracknr%" -T "GENRE=%genre%" -T "COMMENT=%comment%" -T "BAND=%albuminterpret%" -T "ALBUMARTIST=%albuminterpret%" -T "COMPOSER=%composer%" %haslyrics%--tag-from-file=LYRICS="%lyricsfile%"%haslyrics% -T "DISCNUMBER=%cdnumber%" -T "TOTALDISCS=%totalcds%" -T "TOTALTRACKS=%numtracks%" %hascover%--picture="%coverfile%"%hascover% %source% -o %dest%
TOC of the extracted CD
Track | Start | Length | Start sector | End sector
---------------------------------------------------------
1 | 0:00.00 | 5:05.64 | 0 | 22938
2 | 5:05.64 | 5:07.46 | 22939 | 46009
3 | 10:13.35 | 5:13.63 | 46010 | 69547
4 | 15:27.23 | 3:20.32 | 69548 | 84579
5 | 18:47.55 | 4:43.45 | 84580 | 105849
6 | 23:31.25 | 3:20.47 | 105850 | 120896
7 | 26:51.72 | 4:50.69 | 120897 | 142715
8 | 31:42.66 | 3:22.55 | 142716 | 157920
9 | 35:05.46 | 3:20.02 | 157921 | 172922
10 | 38:25.48 | 4:08.37 | 172923 | 191559
11 | 42:34.10 | 4:20.36 | 191560 | 211095
12 | 46:54.46 | 4:39.52 | 211096 | 232072
13 | 51:34.23 | 4:10.31 | 232073 | 250853
14 | 55:44.54 | 3:49.41 | 250854 | 268069
15 | 59:34.20 | 4:07.73 | 268070 | 286667
Track 1
Filename F:\EAC\VA - 120 - Hits - Greatest Hits Soul And R&B - 8 CD\Various Artists - Greatest Hits Soul And R&B - Disc 7\01. (Jump On The) Rhythm And Ride.wav
Pre-gap length 0:00:02.00
Peak level 98.4 %
Extraction speed 2.5 X
Track quality 100.0 %
Test CRC CB33637A
Copy CRC CB33637A
Accurately ripped (confidence 1) [8057490A] (AR v1)
Copy OK
Track 2
Filename F:\EAC\VA - 120 - Hits - Greatest Hits Soul And R&B - 8 CD\Various Artists - Greatest Hits Soul And R&B - Disc 7\02. Solid.wav
Pre-gap length 0:00:01.73
Peak level 91.0 %
Extraction speed 2.8 X
Track quality 100.0 %
Test CRC 4FDC5DB9
Copy CRC 4FDC5DB9
Accurately ripped (confidence 1) [75D53AFD] (AR v1)
Copy OK
Track 3
Filename F:\EAC\VA - 120 - Hits - Greatest Hits Soul And R&B - 8 CD\Various Artists - Greatest Hits Soul And R&B - Disc 7\03. Body Heat (Live).wav
Pre-gap length 0:00:01.73
Peak level 97.5 %
Extraction speed 3.1 X
Track quality 100.0 %
Test CRC 0FB39E48
Copy CRC 0FB39E48
Accurately ripped (confidence 1) [8BBD66B4] (AR v1)
Copy OK
Track 4
Filename F:\EAC\VA - 120 - Hits - Greatest Hits Soul And R&B - 8 CD\Various Artists - Greatest Hits Soul And R&B - Disc 7\04. Get Down.wav
Pre-gap length 0:00:01.73
Peak level 98.1 %
Extraction speed 3.0 X
Track quality 100.0 %
Test CRC 150EFC8D
Copy CRC 150EFC8D
Accurately ripped (confidence 1) [47065D7E] (AR v1)
Copy OK
Track 5
Filename F:\EAC\VA - 120 - Hits - Greatest Hits Soul And R&B - 8 CD\Various Artists - Greatest Hits Soul And R&B - Disc 7\05. Full Speed Ahead.wav
Pre-gap length 0:00:01.73
Peak level 97.9 %
Extraction speed 3.4 X
Track quality 100.0 %
Test CRC 13C551FC
Copy CRC 13C551FC
Accurately ripped (confidence 1) [CB8092FA] (AR v1)
Copy OK
Track 6
Filename F:\EAC\VA - 120 - Hits - Greatest Hits Soul And R&B - 8 CD\Various Artists - Greatest Hits Soul And R&B - Disc 7\06. Give The Baby Anything That The Baby Wants.wav
Pre-gap length 0:00:01.73
Peak level 98.9 %
Extraction speed 3.4 X
Track quality 100.0 %
Test CRC FC857FFB
Copy CRC FC857FFB
Accurately ripped (confidence 1) [028CE079] (AR v1)
Copy OK
Track 7
Filename F:\EAC\VA - 120 - Hits - Greatest Hits Soul And R&B - 8 CD\Various Artists - Greatest Hits Soul And R&B - Disc 7\07. Shine It On.wav
Pre-gap length 0:00:01.73
Peak level 99.2 %
Extraction speed 3.7 X
Track quality 100.0 %
Test CRC 043A2040
Copy CRC 043A2040
Accurately ripped (confidence 1) [CC86D5B4] (AR v1)
Copy OK
Track 8
Filename F:\EAC\VA - 120 - Hits - Greatest Hits Soul And R&B - 8 CD\Various Artists - Greatest Hits Soul And R&B - Disc 7\08. Loving You.wav
Pre-gap length 0:00:01.73
Peak level 97.9 %
Extraction speed 3.6 X
Track quality 100.0 %
Test CRC DC09D2F9
Copy CRC DC09D2F9
Accurately ripped (confidence 1) [F663D3E3] (AR v1)
Copy OK
Track 9
Filename F:\EAC\VA - 120 - Hits - Greatest Hits Soul And R&B - 8 CD\Various Artists - Greatest Hits Soul And R&B - Disc 7\09. I'll Be Your Everything.wav
Pre-gap length 0:00:01.73
Peak level 97.4 %
Extraction speed 3.7 X
Track quality 100.0 %
Test CRC 2C3100C4
Copy CRC 2C3100C4
Accurately ripped (confidence 1) [F359876D] (AR v1)
Copy OK
Track 10
Filename F:\EAC\VA - 120 - Hits - Greatest Hits Soul And R&B - 8 CD\Various Artists - Greatest Hits Soul And R&B - Disc 7\10. Stay With Me.wav
Pre-gap length 0:00:01.73
Peak level 100.0 %
Extraction speed 4.0 X
Track quality 100.0 %
Test CRC 5CA071F7
Copy CRC 5CA071F7
Accurately ripped (confidence 1) [E339E607] (AR v1)
Copy OK
Track 11
Filename F:\EAC\VA - 120 - Hits - Greatest Hits Soul And R&B - 8 CD\Various Artists - Greatest Hits Soul And R&B - Disc 7\11. Lovin' Cup.wav
Pre-gap length 0:00:01.73
Peak level 92.2 %
Extraction speed 4.0 X
Track quality 100.0 %
Test CRC CACB0A95
Copy CRC CACB0A95
Accurately ripped (confidence 1) [1637E2B0] (AR v1)
Copy OK
Track 12
Filename F:\EAC\VA - 120 - Hits - Greatest Hits Soul And R&B - 8 CD\Various Artists - Greatest Hits Soul And R&B - Disc 7\12. Ain't No Woman Like My Baby.wav
Pre-gap length 0:00:01.73
Peak level 99.9 %
Extraction speed 4.2 X
Track quality 100.0 %
Test CRC A6CC5274
Copy CRC A6CC5274
Accurately ripped (confidence 1) [071C55E9] (AR v1)
Copy OK
Track 13
Filename F:\EAC\VA - 120 - Hits - Greatest Hits Soul And R&B - 8 CD\Various Artists - Greatest Hits Soul And R&B - Disc 7\13. Move Closer.wav
Pre-gap length 0:00:01.73
Peak level 71.8 %
Extraction speed 4.3 X
Track quality 100.0 %
Test CRC 3A82D092
Copy CRC 3A82D092
Accurately ripped (confidence 1) [C1BC999F] (AR v1)
Copy OK
Track 14
Filename F:\EAC\VA - 120 - Hits - Greatest Hits Soul And R&B - 8 CD\Various Artists - Greatest Hits Soul And R&B - Disc 7\14. Please Don't Go.wav
Pre-gap length 0:00:01.72
Peak level 97.3 %
Extraction speed 4.3 X
Track quality 100.0 %
Test CRC BB559F4A
Copy CRC BB559F4A
Accurately ripped (confidence 1) [5E098274] (AR v1)
Copy OK
Track 15
Filename F:\EAC\VA - 120 - Hits - Greatest Hits Soul And R&B - 8 CD\Various Artists - Greatest Hits Soul And R&B - Disc 7\15. Tender Love.wav
Pre-gap length 0:00:01.73
Peak level 99.0 %
Extraction speed 3.6 X
Track quality 99.9 %
Test CRC 9C9B24D1
Copy CRC 9C9B24D1
Accurately ripped (confidence 1) [0B2AFCBC] (AR v1)
Copy OK
All tracks accurately ripped
No errors occurred
End of status report
==== Log checksum 2BB1D4149F266909EC6B1A8A410B3EB3B3F7F3155222BFBC036F23BF67F6D950 ====
 
Содержание индексной карты (.CUE)
REM GENRE "Soul And R&B"
REM DISCID CB0EEE0F
REM COMMENT "ExactAudioCopy v1.0b3"
PERFORMER "Various Artists"
TITLE "120 - Hits - Greatest Hits Soul And R&B Disc 7"
FILE "01. (Jump On The) Rhythm And Ride.wav" WAVE
TRACK 01 AUDIO
TITLE "(Jump On The) Rhythm And Ride"
PERFORMER "Kool & The Gang"
INDEX 01 00:00:00
TRACK 02 AUDIO
TITLE "Solid"
PERFORMER "Ashford & Spimpson"
INDEX 00 05:04:09
FILE "02. Solid.wav" WAVE
INDEX 01 00:00:00
TRACK 03 AUDIO
TITLE "Body Heat (Live)"
PERFORMER "James Brown"
INDEX 00 05:05:66
FILE "03. Body Heat (Live).wav" WAVE
INDEX 01 00:00:00
TRACK 04 AUDIO
TITLE "Get Down"
PERFORMER "Gene Chandler"
INDEX 00 05:12:08
FILE "04. Get Down.wav" WAVE
INDEX 01 00:00:00
TRACK 05 AUDIO
TITLE "Full Speed Ahead"
PERFORMER "The Jungle Band"
INDEX 00 03:18:52
FILE "05. Full Speed Ahead.wav" WAVE
INDEX 01 00:00:00
TRACK 06 AUDIO
TITLE "Give The Baby Anything That The Baby Wants"
PERFORMER "Joe Tex"
INDEX 00 04:41:65
FILE "06. Give The Baby Anything That The Baby Wants.wav" WAVE
INDEX 01 00:00:00
TRACK 07 AUDIO
TITLE "Shine It On"
PERFORMER "Sly & The Family Stone"
INDEX 00 03:18:67
FILE "07. Shine It On.wav" WAVE
INDEX 01 00:00:00
TRACK 08 AUDIO
TITLE "Loving You"
PERFORMER "Minnie Riperton"
INDEX 00 04:49:14
FILE "08. Loving You.wav" WAVE
INDEX 01 00:00:00
TRACK 09 AUDIO
TITLE "I'll Be Your Everything"
PERFORMER "Percy Sledge"
INDEX 00 03:21:00
FILE "09. I'll Be Your Everything.wav" WAVE
INDEX 01 00:00:00
TRACK 10 AUDIO
TITLE "Stay With Me"
PERFORMER "James Brown & The JB's"
INDEX 00 03:18:22
FILE "10. Stay With Me.wav" WAVE
INDEX 01 00:00:00
TRACK 11 AUDIO
TITLE "Lovin' Cup"
PERFORMER "Minneapolis Genius 94 East + Prince"
INDEX 00 04:06:57
FILE "11. Lovin' Cup.wav" WAVE
INDEX 01 00:00:00
TRACK 12 AUDIO
TITLE "Ain't No Woman Like My Baby"
PERFORMER "L.J. Reynolds"
INDEX 00 04:18:56
FILE "12. Ain't No Woman Like My Baby.wav" WAVE
INDEX 01 00:00:00
TRACK 13 AUDIO
TITLE "Move Closer"
PERFORMER "Phyllis Nelson"
INDEX 00 04:37:72
FILE "13. Move Closer.wav" WAVE
INDEX 01 00:00:00
TRACK 14 AUDIO
TITLE "Please Don't Go"
PERFORMER "KC & The Sunshine Band"
INDEX 00 04:08:52
FILE "14. Please Don't Go.wav" WAVE
INDEX 01 00:00:00
TRACK 15 AUDIO
TITLE "Tender Love"
PERFORMER "Kenny Thomas"
INDEX 00 03:47:61
FILE "15. Tender Love.wav" WAVE
INDEX 01 00:00:00
 
Disc 8
 
Tracklist:
01. Minneapolis Genius 94 East Feat. Prince - Just Another Sucker[05:17]
02. Donna Allen - Serious [04:00]
03. Sun - Slamm Dunk The Funk [04:41]
04. George Clinton - Do Fries Go With That Shake [06:28]
05. Funkadelic - One Nation Under A Groove [07:23]
06. Xavier Feat. George Clinton & Bootsy - Work That Sucker To Death[05:48]
07. James Brown & The JB's - Rapp Payback [04:55]
08. Rene & Angela - Bangin' The Boogie [03:40]
09. Dayton - The Sound Of Music [03:35]
10. Kool & The Gang - Brown [05:47]
11. BB & Q Band - On The Beat [06:57]
12. Charles & Eddie - Would I Lie To You? [04:33]
13. Portrait - Here We Go Again! (Extended) [05:14]
14. Charles Jackson - Passionate Breezes [04:20]
15. David Grant & Jaki Graham - Could It Be I'm Falling In Love[05:21]
Playing Time.........: 01:18:06
 
Лог создания рипа
Exact Audio Copy V1.0 beta 3 from 29. August 2011
EAC extraction logfile from 2. November 2014, 18:40
Various Artists / 120 - Hits - Greatest Hits Soul And R&B Disc 8
Used drive : TSSTcorpCDDVDW SH-S202J Adapter: 0 ID: 0
Read mode : Secure
Utilize accurate stream : Yes
Defeat audio cache : Yes
Make use of C2 pointers : No
Read offset correction : 6
Overread into Lead-In and Lead-Out : No
Fill up missing offset samples with silence : Yes
Delete leading and trailing silent blocks : No
Null samples used in CRC calculations : Yes
Used interface : Native Win32 interface for Win NT & 2000
Gap handling : Appended to previous track
Used output format : User Defined Encoder
Selected bitrate : 768 kBit/s
Quality : High
Add ID3 tag : No
Command line compressor : C:\Program Files\Exact Audio Copy\FLAC\FLAC.EXE
Additional command line options : -6 -V -T "ARTIST=%artist%" -T "TITLE=%title%" -T "ALBUM=%albumtitle%" -T "DATE=%year%" -T "TRACKNUMBER=%tracknr%" -T "GENRE=%genre%" -T "COMMENT=%comment%" -T "BAND=%albuminterpret%" -T "ALBUMARTIST=%albuminterpret%" -T "COMPOSER=%composer%" %haslyrics%--tag-from-file=LYRICS="%lyricsfile%"%haslyrics% -T "DISCNUMBER=%cdnumber%" -T "TOTALDISCS=%totalcds%" -T "TOTALTRACKS=%numtracks%" %hascover%--picture="%coverfile%"%hascover% %source% -o %dest%
TOC of the extracted CD
Track | Start | Length | Start sector | End sector
---------------------------------------------------------
1 | 0:00.00 | 5:21.09 | 0 | 24083
2 | 5:21.09 | 4:04.13 | 24084 | 42396
3 | 9:25.22 | 4:45.57 | 42397 | 63828
4 | 14:11.04 | 6:32.64 | 63829 | 93292
5 | 20:43.68 | 7:27.29 | 93293 | 126846
6 | 28:11.22 | 5:52.37 | 126847 | 153283
7 | 34:03.59 | 4:59.26 | 153284 | 175734
8 | 39:03.10 | 3:44.40 | 175735 | 192574
9 | 42:47.50 | 3:39.57 | 192575 | 209056
10 | 46:27.32 | 5:51.28 | 209057 | 235409
11 | 52:18.60 | 7:00.72 | 235410 | 266981
12 | 59:19.57 | 4:37.14 | 266982 | 287770
13 | 63:56.71 | 5:18.47 | 287771 | 311667
14 | 69:15.43 | 4:24.23 | 311668 | 331490
15 | 73:39.66 | 5:25.02 | 331491 | 355867
Track 1
Filename F:\EAC\VA - 120 - Hits - Greatest Hits Soul And R&B - 8 CD\Various Artists - Greatest Hits Soul And R&B - Disc 8\01. Just Another Sucker.wav
Pre-gap length 0:00:02.00
Peak level 98.8 %
Extraction speed 2.7 X
Track quality 100.0 %
Test CRC 7DF22978
Copy CRC 7DF22978
Accurately ripped (confidence 1) [441F1BCA] (AR v1)
Copy OK
Track 2
Filename F:\EAC\VA - 120 - Hits - Greatest Hits Soul And R&B - 8 CD\Various Artists - Greatest Hits Soul And R&B - Disc 8\02. Serious.wav
Pre-gap length 0:00:01.73
Peak level 97.3 %
Extraction speed 2.9 X
Track quality 100.0 %
Test CRC 6AC3217B
Copy CRC 6AC3217B
Accurately ripped (confidence 1) [8B886EDC] (AR v1)
Copy OK
Track 3
Filename F:\EAC\VA - 120 - Hits - Greatest Hits Soul And R&B - 8 CD\Various Artists - Greatest Hits Soul And R&B - Disc 8\03. Slamm Dunk The Funk.wav
Pre-gap length 0:00:01.72
Peak level 98.7 %
Extraction speed 3.1 X
Track quality 100.0 %
Test CRC 7D0B0CE9
Copy CRC 7D0B0CE9
Accurately ripped (confidence 1) [F91F44D7] (AR v1)
Copy OK
Track 4
Filename F:\EAC\VA - 120 - Hits - Greatest Hits Soul And R&B - 8 CD\Various Artists - Greatest Hits Soul And R&B - Disc 8\04. Do Fries Go With That Shake.wav
Pre-gap length 0:00:01.73
Peak level 89.0 %
Extraction speed 3.4 X
Track quality 100.0 %
Test CRC 9E40684A
Copy CRC 9E40684A
Accurately ripped (confidence 1) [81C77734] (AR v1)
Copy OK
Track 5
Filename F:\EAC\VA - 120 - Hits - Greatest Hits Soul And R&B - 8 CD\Various Artists - Greatest Hits Soul And R&B - Disc 8\05. One Nation Under A Groove.wav
Pre-gap length 0:00:01.73
Peak level 100.0 %
Extraction speed 3.7 X
Track quality 100.0 %
Test CRC 907D7B69
Copy CRC 907D7B69
Accurately ripped (confidence 1) [75DC7548] (AR v1)
Copy OK
Track 6
Filename F:\EAC\VA - 120 - Hits - Greatest Hits Soul And R&B - 8 CD\Various Artists - Greatest Hits Soul And R&B - Disc 8\06. Work That Sucker To Death.wav
Pre-gap length 0:00:01.73
Peak level 100.0 %
Extraction speed 3.9 X
Track quality 100.0 %
Test CRC 38AFF5C1
Copy CRC 38AFF5C1
Accurately ripped (confidence 1) [876AC59D] (AR v1)
Copy OK
Track 7
Filename F:\EAC\VA - 120 - Hits - Greatest Hits Soul And R&B - 8 CD\Various Artists - Greatest Hits Soul And R&B - Disc 8\07. Rapp Payback.wav
Pre-gap length 0:00:01.73
Peak level 100.0 %
Extraction speed 3.9 X
Track quality 100.0 %
Test CRC 21BD5D5F
Copy CRC 21BD5D5F
Accurately ripped (confidence 1) [55C33A3E] (AR v1)
Copy OK
Track 8
Filename F:\EAC\VA - 120 - Hits - Greatest Hits Soul And R&B - 8 CD\Various Artists - Greatest Hits Soul And R&B - Disc 8\08. Bangin' The Boogie.wav
Pre-gap length 0:00:01.73
Peak level 97.6 %
Extraction speed 4.0 X
Track quality 100.0 %
Test CRC 3649A168
Copy CRC 3649A168
Accurately ripped (confidence 1) [154DD433] (AR v1)
Copy OK
Track 9
Filename F:\EAC\VA - 120 - Hits - Greatest Hits Soul And R&B - 8 CD\Various Artists - Greatest Hits Soul And R&B - Disc 8\09. The Sound Of Music.wav
Pre-gap length 0:00:01.73
Peak level 83.3 %
Extraction speed 3.2 X
Track quality 99.9 %
Test CRC FEA3F287
Copy CRC FEA3F287
Accurately ripped (confidence 1) [C383C9CE] (AR v1)
Copy OK
Track 10
Filename F:\EAC\VA - 120 - Hits - Greatest Hits Soul And R&B - 8 CD\Various Artists - Greatest Hits Soul And R&B - Disc 8\10. Brown.wav
Pre-gap length 0:00:01.73
Peak level 100.0 %
Extraction speed 4.3 X
Track quality 100.0 %
Test CRC 121E365A
Copy CRC 121E365A
Accurately ripped (confidence 1) [4DD460E0] (AR v1)
Copy OK
Track 11
Filename F:\EAC\VA - 120 - Hits - Greatest Hits Soul And R&B - 8 CD\Various Artists - Greatest Hits Soul And R&B - Disc 8\11. On The Beat.wav
Pre-gap length 0:00:01.73
Peak level 88.5 %
Extraction speed 3.9 X
Track quality 99.9 %
Test CRC EC52D0F0
Copy CRC EC52D0F0
Accurately ripped (confidence 1) [FB8AEA50] (AR v1)
Copy OK
Track 12
Filename F:\EAC\VA - 120 - Hits - Greatest Hits Soul And R&B - 8 CD\Various Artists - Greatest Hits Soul And R&B - Disc 8\12. Would I Lie To You.wav
Pre-gap length 0:00:01.73
Peak level 98.1 %
Extraction speed 3.7 X
Track quality 99.9 %
Test CRC 061CBCB7
Copy CRC 061CBCB7
Accurately ripped (confidence 1) [D5142D6E] (AR v1)
Copy OK
Track 13
Filename F:\EAC\VA - 120 - Hits - Greatest Hits Soul And R&B - 8 CD\Various Artists - Greatest Hits Soul And R&B - Disc 8\13. Here We Go Again! (Extended).wav
Pre-gap length 0:00:01.73
Peak level 99.9 %
Extraction speed 4.7 X
Track quality 100.0 %
Test CRC 969EE821
Copy CRC 969EE821
Accurately ripped (confidence 1) [DCB87C25] (AR v1)
Copy OK
Track 14
Filename F:\EAC\VA - 120 - Hits - Greatest Hits Soul And R&B - 8 CD\Various Artists - Greatest Hits Soul And R&B - Disc 8\14. Passionate Breezes.wav
Pre-gap length 0:00:01.73
Peak level 99.7 %
Extraction speed 4.7 X
Track quality 100.0 %
Test CRC C40882DE
Copy CRC C40882DE
Accurately ripped (confidence 1) [39206952] (AR v1)
Copy OK
Track 15
Filename F:\EAC\VA - 120 - Hits - Greatest Hits Soul And R&B - 8 CD\Various Artists - Greatest Hits Soul And R&B - Disc 8\15. Could It Be I'm Falling In Love.wav
Pre-gap length 0:00:01.73
Peak level 96.0 %
Extraction speed 4.1 X
Track quality 99.9 %
Test CRC 604537E6
Copy CRC 604537E6
Accurately ripped (confidence 1) [98D9F900] (AR v1)
Copy OK
All tracks accurately ripped
No errors occurred
End of status report
==== Log checksum C239077C1D88D8D3D5F7AF3F000125C78440C95DA8293C3C04EE1E237A540B57 ====
 
Содержание индексной карты (.CUE)
REM GENRE "Soul And R&B"
REM DISCID DD12880F
REM COMMENT "ExactAudioCopy v1.0b3"
PERFORMER "Various Artists"
TITLE "120 - Hits - Greatest Hits Soul And R&B Disc 8"
FILE "01. Just Another Sucker.wav" WAVE
TRACK 01 AUDIO
TITLE "Just Another Sucker"
PERFORMER "Minneapolis Genius 94 East Feat. Prince"
INDEX 01 00:00:00
TRACK 02 AUDIO
TITLE "Serious"
PERFORMER "Donna Allen"
INDEX 00 05:19:29
FILE "02. Serious.wav" WAVE
INDEX 01 00:00:00
TRACK 03 AUDIO
TITLE "Slamm Dunk The Funk"
PERFORMER "Sun"
INDEX 00 04:02:34
FILE "03. Slamm Dunk The Funk.wav" WAVE
INDEX 01 00:00:00
TRACK 04 AUDIO
TITLE "Do Fries Go With That Shake"
PERFORMER "George Clinton"
INDEX 00 04:44:02
FILE "04. Do Fries Go With That Shake.wav" WAVE
INDEX 01 00:00:00
TRACK 05 AUDIO
TITLE "One Nation Under A Groove"
PERFORMER "Funkadelic"
INDEX 00 06:31:09
FILE "05. One Nation Under A Groove.wav" WAVE
INDEX 01 00:00:00
TRACK 06 AUDIO
TITLE "Work That Sucker To Death"
PERFORMER "Xavier Feat. George Clinton & Bootsy"
INDEX 00 07:25:49
FILE "06. Work That Sucker To Death.wav" WAVE
INDEX 01 00:00:00
TRACK 07 AUDIO
TITLE "Rapp Payback"
PERFORMER "James Brown & The JB's"
INDEX 00 05:50:57
FILE "07. Rapp Payback.wav" WAVE
INDEX 01 00:00:00
TRACK 08 AUDIO
TITLE "Bangin' The Boogie"
PERFORMER "Rene & Angela"
INDEX 00 04:57:46
FILE "08. Bangin' The Boogie.wav" WAVE
INDEX 01 00:00:00
TRACK 09 AUDIO
TITLE "The Sound Of Music"
PERFORMER "Dayton"
INDEX 00 03:42:60
FILE "09. The Sound Of Music.wav" WAVE
INDEX 01 00:00:00
TRACK 10 AUDIO
TITLE "Brown"
PERFORMER "Kool & The Gang"
INDEX 00 03:38:02
FILE "10. Brown.wav" WAVE
INDEX 01 00:00:00
TRACK 11 AUDIO
TITLE "On The Beat"
PERFORMER "BB & Q Band"
INDEX 00 05:49:48
FILE "11. On The Beat.wav" WAVE
INDEX 01 00:00:00
TRACK 12 AUDIO
TITLE "Would I Lie To You?"
PERFORMER "Charles & Eddie"
INDEX 00 06:59:17
FILE "12. Would I Lie To You.wav" WAVE
INDEX 01 00:00:00
TRACK 13 AUDIO
TITLE "Here We Go Again! (Extended)"
PERFORMER "Portrait"
INDEX 00 04:35:34
FILE "13. Here We Go Again! (Extended).wav" WAVE
INDEX 01 00:00:00
TRACK 14 AUDIO
TITLE "Passionate Breezes"
PERFORMER "Charles Jackson"
INDEX 00 05:16:67
FILE "14. Passionate Breezes.wav" WAVE
INDEX 01 00:00:00
TRACK 15 AUDIO
TITLE "Could It Be I'm Falling In Love"
PERFORMER "David Grant & Jaki Graham"
INDEX 00 04:22:43
FILE "15. Could It Be I'm Falling In Love.wav" WAVE
INDEX 01 00:00:00
Приватный:
Нет (DHT включён)
Размер:
3.27 Гб (3,506,805,876 байт) » файлов: 151
Участники:
0 раздают, 0 качают (0 участников всего)
Внешние участники:
5 раздают, 2 качают (7 участников всего) [ Обновить ]
Есть вопросы - пишите личное сообщение пользователю M0p94ok.
10:37
57
Нет комментариев. Ваш будет первым!