Поиск

(R&B, Soul) [CD] VA - Soulsville, U.S.A.: Stax Classics 1965-1973 - 2008, FLAC (image+.cue), lossless

(R&B, Soul) [CD] VA - Soulsville, U.S.A.: Stax Classics 1965-1973 - 2008, FLAC (image+.cue), lossless
Треклист:
.Soulsville, U.S.A.: Stax Classics 1965-1973
(CD, Compilation).Жанр: R&B, Soul
Носитель: CD
Страна-производитель диска (релиза): United States
Год издания: 2008
Издатель (лейбл): Starbucks Entertainment
Номер по каталогу: CDS-074
Аудиокодек: FLAC (*.flac)
Тип рипа: image+.cue
Битрейт аудио: lossless
Продолжительность: 00:45:22
Источник (релизер): stas64
Наличие сканов в содержимом раздачи: да - 600 dpi.
Треклист:
01. Sam & Dave - Hold On I’m Comin’.
02. Booker T. & The MG’s - Soul Limbo.
03. Otis Redding - Respect.
04. Linda Lyndell - What a Man.
05. Mel & Tim - Starting All Over Again.
06. The Staple Singers - If You’re Ready (Come Go With Me).
07. Albert King - Breaking Up Somebody’s Home.
08. Eddie Floyd - Knock on Wood.
09. Jean Knight - Mr. Big Stuff.
10. Booker T. & The MG’s - Groovin’.
11. Otis Redding - I’ve Been Loving You Too Long (To Stop Now).
12. Johnnie Taylor - Who’s Making Love.
13. Carla Thomas - B.A.B.Y.
14. The Temprees - Dedicated to the One I Love.
15. Isaac Hayes - Walk On By.
 
Booklet

 
Лог создания рипа
Exact Audio Copy V1.1 from 23. June 2015
Отчёт EAC об извлечении, выполненном 12. апреля 2016, 9:22
Various Artists / Soulsville, USA - Stax Classics 1965–1973
Дисковод: PLEXTOR DVDR PX-712A Adapter: 6 ID: 0
Режим чтения : Достоверность
Использование точного потока : Да
Отключение кэша аудио : Да
Использование указателей C2 : Нет
Коррекция смещения при чтении : 30
Способность читать области Lead-in и Lead-out : Нет
Заполнение пропущенных сэмплов тишиной : Да
Удаление блоков с тишиной в начале и конце : Нет
При вычислениях CRC использовались нулевые сэмплы : Да
Интерфейс : Установленный внешний ASPI-интерфейс
Выходной формат : Пользовательский кодировщик
Выбранный битрейт : 128 kBit/s
Качество : Высокий
Добавление ID3-тега : Нет
Утилита сжатия : C:\Program Files\Exact Audio Copy\Flac\flac.exe
Дополнительные параметры : -V -8 -T "Genre=%genre%" -T "Artist=%artist%" -T "Title=%title%" -T "Album=%albumtitle%" -T "Date=%year%" -T "Tracknumber=%tracknr%" -T "Comment=%comment%" %source%
TOC извлечённого CD
Трек | Старт | Длительность | Начальный сектор | Конечный сектор
---------------------------------------------------------------------
1 | 0:00.00 | 2:28.41 | 0 | 11140
2 | 2:28.41 | 2:23.71 | 11141 | 21936
3 | 4:52.37 | 2:08.50 | 21937 | 31586
4 | 7:01.12 | 2:40.71 | 31587 | 43657
5 | 9:42.08 | 3:29.32 | 43658 | 59364
6 | 13:11.40 | 3:21.40 | 59365 | 74479
7 | 16:33.05 | 3:40.72 | 74480 | 91051
8 | 20:14.02 | 3:03.31 | 91052 | 104807
9 | 23:17.33 | 2:33.38 | 104808 | 116320
10 | 25:50.71 | 2:43.59 | 116321 | 128604
11 | 28:34.55 | 2:55.10 | 128605 | 141739
12 | 31:29.65 | 2:49.21 | 141740 | 154435
13 | 34:19.11 | 2:55.22 | 154436 | 167582
14 | 37:14.33 | 3:34.15 | 167583 | 183647
15 | 40:48.48 | 4:34.14 | 183648 | 204211
Характеристики диапазона извлечения и сообщения об ошибках
Выбранный диапазон
Имя файла I:\MOI_RAZDACI\VA_Soulsville.U.S.A.Stax.Classics.1965.1973_2008\VA_Soulsville.U.S.A.Stax.Classics.1965.1973_2008\Various Artists - Soulsville, USA - Stax Classics 1965–1973.wav
Пиковый уровень 100.0 %
Скорость извлечения 9.8 X
Качество диапазона 99.9 %
CRC теста D1438FBA
CRC копии D1438FBA
Копирование... OK
Ошибок не произошло
AccurateRip: сводка
Трек 1 отсутствует в базе данных
Трек 2 отсутствует в базе данных
Трек 3 отсутствует в базе данных
Трек 4 отсутствует в базе данных
Трек 5 отсутствует в базе данных
Трек 6 отсутствует в базе данных
Трек 7 отсутствует в базе данных
Трек 8 отсутствует в базе данных
Трек 9 отсутствует в базе данных
Трек 10 отсутствует в базе данных
Трек 11 отсутствует в базе данных
Трек 12 отсутствует в базе данных
Трек 13 отсутствует в базе данных
Трек 14 отсутствует в базе данных
Трек 15 отсутствует в базе данных
Ни одного трека нет в базе AccurateRip
Конец отчёта
---- CUETools DB Plugin V2.1.6
[CTDB TOCID: 9P5mE0oHIPWkGpNhmAHB97dEl4Q-] found
Submit result: already submitted
Track | CTDB Status
1 | (11/11) Accurately ripped
2 | (11/11) Accurately ripped
3 | (11/11) Accurately ripped
4 | (11/11) Accurately ripped
5 | (11/11) Accurately ripped
6 | (11/11) Accurately ripped
7 | (11/11) Accurately ripped
8 | (11/11) Accurately ripped
9 | (11/11) Accurately ripped
10 | (11/11) Accurately ripped
11 | (11/11) Accurately ripped
12 | (11/11) Accurately ripped
13 | (11/11) Accurately ripped
14 | (11/11) Accurately ripped
15 | (11/11) Accurately ripped
==== Контрольная сумма отчёта 054FB046588D78AB855BE76B8B80C3C27BD9540C3BFB57DA2A78B98A76AF3489 ====
 
Содержание индексной карты (.CUE)
REM GENRE R&B
REM DATE 2008
REM DISCID CB0AA20F
REM COMMENT "ExactAudioCopy v1.1"
PERFORMER "Various Artists"
TITLE "Soulsville, USA - Stax Classics 1965–1973"
FILE "Various Artists - Soulsville, USA - Stax Classics 1965–1973.flac" WAVE
TRACK 01 AUDIO
TITLE "Hold On I’m Comin’"
PERFORMER "Sam & Dave"
ISRC USAT20001059
INDEX 01 00:00:00
TRACK 02 AUDIO
TITLE "Soul Limbo"
PERFORMER "Booker T. & The MG’s"
ISRC USFI86800043
INDEX 00 02:28:28
INDEX 01 02:28:41
TRACK 03 AUDIO
TITLE "Respect"
PERFORMER "Otis Redding"
ISRC USAT29901716
INDEX 01 04:52:37
TRACK 04 AUDIO
TITLE "What a Man"
PERFORMER "Linda Lyndell"
ISRC USFI86800061
INDEX 01 07:01:12
TRACK 05 AUDIO
TITLE "Starting All Over Again"
PERFORMER "Mel & Tim"
ISRC USFI87200426
INDEX 00 09:42:02
INDEX 01 09:42:08
TRACK 06 AUDIO
TITLE "If You’re Ready (Come Go With Me)"
PERFORMER "The Staple Singers"
ISRC USFI87300654
INDEX 01 13:11:40
TRACK 07 AUDIO
TITLE "Breaking Up Somebody’s Home"
PERFORMER "Albert King"
ISRC USFI87200443
INDEX 00 16:32:69
INDEX 01 16:33:05
TRACK 08 AUDIO
TITLE "Knock on Wood"
PERFORMER "Eddie Floyd"
ISRC USAT20001062
INDEX 01 20:14:02
TRACK 09 AUDIO
TITLE "Mr. Big Stuff"
PERFORMER "Jean Knight"
ISRC USFI87100077
INDEX 00 23:17:29
INDEX 01 23:17:33
TRACK 10 AUDIO
TITLE "Groovin’"
PERFORMER "Booker T. & The MG’s"
ISRC USAT20003981
INDEX 01 25:50:71
TRACK 11 AUDIO
TITLE "I’ve Been Loving You Too Long (To Stop Now)"
PERFORMER "Otis Redding"
ISRC USAT20302097
INDEX 00 28:34:45
INDEX 01 28:34:55
TRACK 12 AUDIO
TITLE "Who’s Making Love"
PERFORMER "Johnnie Taylor"
ISRC USFI86800093
INDEX 01 31:29:65
TRACK 13 AUDIO
TITLE "B.A.B.Y"
PERFORMER "Carla Thomas"
ISRC USAT20003961
INDEX 01 34:19:11
TRACK 14 AUDIO
TITLE "Dedicated to the One I Love"
PERFORMER "The Temprees"
ISRC USFI87200173
INDEX 01 37:14:33
TRACK 15 AUDIO
TITLE "Walk On By"
PERFORMER "Isaac Hayes"
ISRC USFI86900034
INDEX 00 40:48:45
INDEX 01 40:48:48
 
Лог проверки качества
-----------------------
DON'T MODIFY THIS FILE
-----------------------
PERFORMER: auCDtect Task Manager, ver. 1.5.1RC6 build 1.5.1.7
Copyright (c) 2008-2010 y-soft. All rights reserved
http://y-soft.org
ANALYZER: auCDtect: CD records authenticity detector, version 0.8.2
Copyright (c) 2004 Oleg Berngardt. All rights reserved.
Copyright (c) 2004 Alexander Djourik. All rights reserved.
FILE: Various Artists - Soulsville, USA - Stax Classics 1965–1973.flac
Size: 280435894 Hash: 1B94D0493772ED8E09ED5F89F3BE0E76 Accuracy: -m0
Conclusion: CDDA 100%
Signature: 6C07CBFFAE3080A90047318E496810C6699D247A
 
Скриншот спектра частот
 
МОИ РАЗДАЧИ - МУЗЫКА: / MY DISTRIBUTION - MUSIC:
 
Rock music:
Прямые кликабельные ссылки на раздачи.
Direct clickable links to hand.



























 
Pop music:
Прямые кликабельные ссылки на раздачи.
Direct clickable links to hand.































 
Other music including Electronic and Soundtracks:
Прямые кликабельные ссылки на раздачи.
Direct clickable links to hand.

























Приватный:
Нет (DHT включён)
Размер:
284.67 Мб (298,494,505 байт) » файлов: 8
Участники:
0 раздают, 0 качают (0 участников всего)
Внешние участники:
2 раздают, 1 качают (3 участников всего) [ Обновить ]
No seeders - write a personal message to user M0p94ok. Нет сидеров - пишите личное сообщение пользователю M0p94ok.
10:33
49
Нет комментариев. Ваш будет первым!