Поиск

(Deep Funk, Rare Grooves, Psychedelic Soul) [CD] VA - California Funk: Rare Funk 45's From The Golden State ( '60s - '70s) - 2010, FLAC (tracks+.cue), lossless

(Deep Funk, Rare Grooves, Psychedelic Soul) [CD] VA - California Funk: Rare Funk 45's From The Golden State ( '60s - '70s) - 2010, FLAC (tracks+.cue), lossless
Треклист:
California Funk: Rare Funk 45's From The Golden State
Жанр: Deep Funk, Rare Grooves, Psychedelic Soul
Носитель: CD
Год издания: 2010
Издатель (лейбл): Now-Again Records
Номер по каталогу: NA5063
Аудиокодек: FLAC (*.flac)
Тип рипа: tracks+.cue
Битрейт аудио: lossless
Продолжительность: 01:04:15
Источник (релизер): SeaMonkey
Наличие сканов в содержимом раздачи: нет
Треклист:
1. Water Color – All Bundled Into One (4:50)
2. The 4th Coming – Cruising Down Sunset (3:06)
3. Apple And The Three Oranges – Curse Upon The World (2:59)
4. L.A. Bare Faxx – Super Cool Brother (3:06)
5. Arthur Monday – What Goes Around Comes Around (Part 1) (2:52)
6. Chucky Thurmon – Turn It Over (2:48)
7. California Gold Notes – W.B. 302 (3:21)
8. Ray Frazier & The Shades Of Madness – I Who Have Nothing (Am Somebody) (2:55)
9. Rhon Silva – Get It Right (2:30)
10. Enrique Olivarez & Los Vampiros – Al's Place (2:22)
11. J.G.D. & The New Breed – North Richmond Breakaway (3:06)
12. John Heartsman & Circles – Talking About My Baby (3:33)
13. King Solomon – Politician Rag (2:49)
14. Billy Larkin & The Delegates – Funky Fire (3:36)
15. Leon Gardner – Farm Song (2:37)
16. Lil Lavair & The Fabulous Jades – Cold Heat (2:43)
17. Delores Ealy & The Kenyattas – Honeydripper (2:24)
18. Enrique Olivarez & Los Vampiros – Arriba Tipo (2:21)
19. Winter – Bones (2:43)
20. The Edwards Generation – Smokin' Tidbits (3:06)
21. Mr. Clean & The Soul Inc. – What's Going On (4:19)
 
Лог создания рипа
X Lossless Decoder version 20100417 (117.4)
XLD extraction logfile from 2010-04-23 18:15:23 -0500
Various / California Funk: Rare Funk 45s From the Golden State
Used drive : MATSHITA DVD-R UJ-868 (revision KB19)
Use cdparanoia mode : YES (CDParanoia III 10.2 engine)
Disable audio cache : OK for the drive with cache less than 2750KB
Make use of C2 pointers : NO
Read offset correction : 102
Max retry count : 100
TOC of the extracted CD
Track | Start | Length | Start sector | End sector
---------------------------------------------------------
1 | 00:00:00 | 04:50:04 | 0 | 21753
2 | 04:50:04 | 03:06:16 | 21754 | 35719
3 | 07:56:20 | 02:59:22 | 35720 | 49166
4 | 10:55:42 | 03:06:13 | 49167 | 63129
5 | 14:01:55 | 02:52:08 | 63130 | 76037
6 | 16:53:63 | 02:48:39 | 76038 | 88676
7 | 19:42:27 | 03:21:28 | 88677 | 103779
8 | 23:03:55 | 02:55:01 | 103780 | 116905
9 | 25:58:56 | 02:30:58 | 116906 | 128213
10 | 28:29:39 | 02:22:50 | 128214 | 138913
11 | 30:52:14 | 03:06:32 | 138914 | 152895
12 | 33:58:46 | 03:33:30 | 152896 | 168900
13 | 37:32:01 | 02:49:69 | 168901 | 181644
14 | 40:21:70 | 03:36:54 | 181645 | 197898
15 | 43:58:49 | 02:37:53 | 197899 | 209726
16 | 46:36:27 | 02:43:59 | 209727 | 222010
17 | 49:20:11 | 02:24:26 | 222011 | 232836
18 | 51:44:37 | 02:21:05 | 232837 | 243416
19 | 54:05:42 | 02:43:29 | 243417 | 255670
20 | 56:48:71 | 03:06:58 | 255671 | 269678
21 | 59:55:54 | 04:19:50 | 269679 | 289153
Track 01
Filename : /Various - California Funk- Rare Funk 45s From the Golden State (2010) [FLAC]/01 - All Bundled Into One.flac
/Various - California Funk- Rare Funk 45s From the Golden State (2010) [FLAC]/01 - All Bundled Into One.mp3
Pre-gap length : 00:02:00
CRC32 hash (test run) : 78178528
CRC32 hash : 78178528
CRC32 hash (skip zero) : F13BB3FC
AccurateRip signature : B038AB54
->Track not present in AccurateRip database.
Statistics
Read error : 0
Skipped (treated as error) : 0
Edge jitter error (maybe fixed) : 0
Atom jitter error (maybe fixed) : 0
Drift error (maybe fixed) : 0
Dropped bytes error (maybe fixed) : 0
Duplicated bytes error (maybe fixed) : 0
Inconsistency in error sectors : 0
Track 02
Filename : /Various - California Funk- Rare Funk 45s From the Golden State (2010) [FLAC]/02 - Cruising Down Sunset.flac
/Various - California Funk- Rare Funk 45s From the Golden State (2010) [FLAC]/02 - Cruising Down Sunset.mp3
CRC32 hash (test run) : 409F260A
CRC32 hash : 409F260A
CRC32 hash (skip zero) : 15B5AA0B
AccurateRip signature : A8E688BE
->Track not present in AccurateRip database.
Statistics
Read error : 0
Skipped (treated as error) : 0
Edge jitter error (maybe fixed) : 0
Atom jitter error (maybe fixed) : 0
Drift error (maybe fixed) : 0
Dropped bytes error (maybe fixed) : 0
Duplicated bytes error (maybe fixed) : 0
Inconsistency in error sectors : 0
Track 03
Filename : /Various - California Funk- Rare Funk 45s From the Golden State (2010) [FLAC]/03 - Curse Upon the World.flac
/Various - California Funk- Rare Funk 45s From the Golden State (2010) [FLAC]/03 - Curse Upon the World.mp3
CRC32 hash (test run) : 9F15859C
CRC32 hash : 9F15859C
CRC32 hash (skip zero) : B7EEADED
AccurateRip signature : 562DCD1F
->Track not present in AccurateRip database.
Statistics
Read error : 0
Skipped (treated as error) : 0
Edge jitter error (maybe fixed) : 0
Atom jitter error (maybe fixed) : 0
Drift error (maybe fixed) : 0
Dropped bytes error (maybe fixed) : 0
Duplicated bytes error (maybe fixed) : 0
Inconsistency in error sectors : 0
Track 04
Filename : /Various - California Funk- Rare Funk 45s From the Golden State (2010) [FLAC]/04 - Super Cool Brother.flac
/Various - California Funk- Rare Funk 45s From the Golden State (2010) [FLAC]/04 - Super Cool Brother.mp3
CRC32 hash (test run) : 182ADEC0
CRC32 hash : 182ADEC0
CRC32 hash (skip zero) : B5235F4B
AccurateRip signature : 5B30715B
->Track not present in AccurateRip database.
Statistics
Read error : 0
Skipped (treated as error) : 0
Edge jitter error (maybe fixed) : 0
Atom jitter error (maybe fixed) : 0
Drift error (maybe fixed) : 0
Dropped bytes error (maybe fixed) : 0
Duplicated bytes error (maybe fixed) : 0
Inconsistency in error sectors : 0
Track 05
Filename : /Various - California Funk- Rare Funk 45s From the Golden State (2010) [FLAC]/05 - What Goes Around Comes Around (Part 1).flac
/Various - California Funk- Rare Funk 45s From the Golden State (2010) [FLAC]/05 - What Goes Around Comes Around (Part 1).mp3
CRC32 hash (test run) : D87D88D0
CRC32 hash : D87D88D0
CRC32 hash (skip zero) : 74F64EF4
AccurateRip signature : 1C8BD4F0
->Track not present in AccurateRip database.
Statistics
Read error : 0
Skipped (treated as error) : 0
Edge jitter error (maybe fixed) : 0
Atom jitter error (maybe fixed) : 0
Drift error (maybe fixed) : 0
Dropped bytes error (maybe fixed) : 0
Duplicated bytes error (maybe fixed) : 0
Inconsistency in error sectors : 0
Track 06
Filename : /Various - California Funk- Rare Funk 45s From the Golden State (2010) [FLAC]/06 - Turn It Over.flac
/Various - California Funk- Rare Funk 45s From the Golden State (2010) [FLAC]/06 - Turn It Over.mp3
CRC32 hash (test run) : 1BDE5FC2
CRC32 hash : 1BDE5FC2
CRC32 hash (skip zero) : BC1E07AA
AccurateRip signature : 4BE61401
->Track not present in AccurateRip database.
Statistics
Read error : 0
Skipped (treated as error) : 0
Edge jitter error (maybe fixed) : 0
Atom jitter error (maybe fixed) : 0
Drift error (maybe fixed) : 0
Dropped bytes error (maybe fixed) : 0
Duplicated bytes error (maybe fixed) : 0
Inconsistency in error sectors : 0
Track 07
Filename : /Various - California Funk- Rare Funk 45s From the Golden State (2010) [FLAC]/07 - W.B. 302.flac
/Various - California Funk- Rare Funk 45s From the Golden State (2010) [FLAC]/07 - W.B. 302.mp3
CRC32 hash (test run) : 0C88B6D1
CRC32 hash : 0C88B6D1
CRC32 hash (skip zero) : 8107768B
AccurateRip signature : 12CB99F6
->Track not present in AccurateRip database.
Statistics
Read error : 0
Skipped (treated as error) : 0
Edge jitter error (maybe fixed) : 0
Atom jitter error (maybe fixed) : 0
Drift error (maybe fixed) : 0
Dropped bytes error (maybe fixed) : 0
Duplicated bytes error (maybe fixed) : 0
Inconsistency in error sectors : 0
Track 08
Filename : /Various - California Funk- Rare Funk 45s From the Golden State (2010) [FLAC]/08 - I Who Have Nothing (Am Somebody).flac
/Various - California Funk- Rare Funk 45s From the Golden State (2010) [FLAC]/08 - I Who Have Nothing (Am Somebody).mp3
CRC32 hash (test run) : 66C19D81
CRC32 hash : 66C19D81
CRC32 hash (skip zero) : 2A25A646
AccurateRip signature : 4E6B9C26
->Track not present in AccurateRip database.
Statistics
Read error : 0
Skipped (treated as error) : 0
Edge jitter error (maybe fixed) : 0
Atom jitter error (maybe fixed) : 0
Drift error (maybe fixed) : 0
Dropped bytes error (maybe fixed) : 0
Duplicated bytes error (maybe fixed) : 0
Inconsistency in error sectors : 0
Track 09
Filename : /Various - California Funk- Rare Funk 45s From the Golden State (2010) [FLAC]/09 - Get It Right.flac
/Various - California Funk- Rare Funk 45s From the Golden State (2010) [FLAC]/09 - Get It Right.mp3
CRC32 hash (test run) : 69260F2D
CRC32 hash : 69260F2D
CRC32 hash (skip zero) : 8E491971
AccurateRip signature : 119A05B3
->Track not present in AccurateRip database.
Statistics
Read error : 0
Skipped (treated as error) : 0
Edge jitter error (maybe fixed) : 0
Atom jitter error (maybe fixed) : 0
Drift error (maybe fixed) : 0
Dropped bytes error (maybe fixed) : 0
Duplicated bytes error (maybe fixed) : 0
Inconsistency in error sectors : 0
Track 10
Filename : /Various - California Funk- Rare Funk 45s From the Golden State (2010) [FLAC]/10 - Al's Place.flac
/Various - California Funk- Rare Funk 45s From the Golden State (2010) [FLAC]/10 - Al's Place.mp3
CRC32 hash (test run) : 7E091BF5
CRC32 hash : 7E091BF5
CRC32 hash (skip zero) : 753CBE34
AccurateRip signature : DC44BFCB
->Track not present in AccurateRip database.
Statistics
Read error : 0
Skipped (treated as error) : 0
Edge jitter error (maybe fixed) : 0
Atom jitter error (maybe fixed) : 0
Drift error (maybe fixed) : 0
Dropped bytes error (maybe fixed) : 0
Duplicated bytes error (maybe fixed) : 0
Inconsistency in error sectors : 0
Track 11
Filename : /Various - California Funk- Rare Funk 45s From the Golden State (2010) [FLAC]/11 - North Richmond Breakaway.flac
/Various - California Funk- Rare Funk 45s From the Golden State (2010) [FLAC]/11 - North Richmond Breakaway.mp3
CRC32 hash (test run) : 9EDEE13B
CRC32 hash : 9EDEE13B
CRC32 hash (skip zero) : 269B9C66
AccurateRip signature : 6E46EF50
->Track not present in AccurateRip database.
Statistics
Read error : 0
Skipped (treated as error) : 0
Edge jitter error (maybe fixed) : 0
Atom jitter error (maybe fixed) : 0
Drift error (maybe fixed) : 0
Dropped bytes error (maybe fixed) : 0
Duplicated bytes error (maybe fixed) : 0
Inconsistency in error sectors : 0
Track 12
Filename : /Various - California Funk- Rare Funk 45s From the Golden State (2010) [FLAC]/12 - Talking About My Baby.flac
/Various - California Funk- Rare Funk 45s From the Golden State (2010) [FLAC]/12 - Talking About My Baby.mp3
CRC32 hash (test run) : ECDA1612
CRC32 hash : ECDA1612
CRC32 hash (skip zero) : 7CB778FC
AccurateRip signature : 09F6B526
->Track not present in AccurateRip database.
Statistics
Read error : 0
Skipped (treated as error) : 0
Edge jitter error (maybe fixed) : 0
Atom jitter error (maybe fixed) : 0
Drift error (maybe fixed) : 0
Dropped bytes error (maybe fixed) : 0
Duplicated bytes error (maybe fixed) : 0
Inconsistency in error sectors : 0
Track 13
Filename : /Various - California Funk- Rare Funk 45s From the Golden State (2010) [FLAC]/13 - Politician Rag.flac
/Various - California Funk- Rare Funk 45s From the Golden State (2010) [FLAC]/13 - Politician Rag.mp3
CRC32 hash (test run) : AD3F6F2D
CRC32 hash : AD3F6F2D
CRC32 hash (skip zero) : C33D8F27
AccurateRip signature : F57D293A
->Track not present in AccurateRip database.
Statistics
Read error : 0
Skipped (treated as error) : 0
Edge jitter error (maybe fixed) : 0
Atom jitter error (maybe fixed) : 0
Drift error (maybe fixed) : 0
Dropped bytes error (maybe fixed) : 0
Duplicated bytes error (maybe fixed) : 0
Inconsistency in error sectors : 0
Track 14
Filename : /Various - California Funk- Rare Funk 45s From the Golden State (2010) [FLAC]/14 - Funky Fire.flac
/Various - California Funk- Rare Funk 45s From the Golden State (2010) [FLAC]/14 - Funky Fire.mp3
CRC32 hash (test run) : B302A9E5
CRC32 hash : B302A9E5
CRC32 hash (skip zero) : 5D66792D
AccurateRip signature : 96698345
->Track not present in AccurateRip database.
Statistics
Read error : 0
Skipped (treated as error) : 0
Edge jitter error (maybe fixed) : 0
Atom jitter error (maybe fixed) : 0
Drift error (maybe fixed) : 0
Dropped bytes error (maybe fixed) : 0
Duplicated bytes error (maybe fixed) : 0
Inconsistency in error sectors : 0
Track 15
Filename : /Various - California Funk- Rare Funk 45s From the Golden State (2010) [FLAC]/15 - Farm Song.flac
/Various - California Funk- Rare Funk 45s From the Golden State (2010) [FLAC]/15 - Farm Song.mp3
CRC32 hash (test run) : 3B4D90E5
CRC32 hash : 3B4D90E5
CRC32 hash (skip zero) : A75A79D8
AccurateRip signature : 1025B3B4
->Track not present in AccurateRip database.
Statistics
Read error : 0
Skipped (treated as error) : 0
Edge jitter error (maybe fixed) : 0
Atom jitter error (maybe fixed) : 0
Drift error (maybe fixed) : 0
Dropped bytes error (maybe fixed) : 0
Duplicated bytes error (maybe fixed) : 0
Inconsistency in error sectors : 0
Track 16
Filename : /Various - California Funk- Rare Funk 45s From the Golden State (2010) [FLAC]/16 - Cold Heat.flac
/Various - California Funk- Rare Funk 45s From the Golden State (2010) [FLAC]/16 - Cold Heat.mp3
CRC32 hash (test run) : 42CEF9A2
CRC32 hash : 42CEF9A2
CRC32 hash (skip zero) : A214B1CA
AccurateRip signature : 80B3F522
->Track not present in AccurateRip database.
Statistics
Read error : 0
Skipped (treated as error) : 0
Edge jitter error (maybe fixed) : 0
Atom jitter error (maybe fixed) : 0
Drift error (maybe fixed) : 0
Dropped bytes error (maybe fixed) : 0
Duplicated bytes error (maybe fixed) : 0
Inconsistency in error sectors : 0
Track 17
Filename : /Various - California Funk- Rare Funk 45s From the Golden State (2010) [FLAC]/17 - Honeydripper.flac
/Various - California Funk- Rare Funk 45s From the Golden State (2010) [FLAC]/17 - Honeydripper.mp3
CRC32 hash (test run) : 41A25C75
CRC32 hash : 41A25C75
CRC32 hash (skip zero) : E193C903
AccurateRip signature : C32D6CA8
->Track not present in AccurateRip database.
Statistics
Read error : 0
Skipped (treated as error) : 0
Edge jitter error (maybe fixed) : 0
Atom jitter error (maybe fixed) : 0
Drift error (maybe fixed) : 0
Dropped bytes error (maybe fixed) : 0
Duplicated bytes error (maybe fixed) : 0
Inconsistency in error sectors : 0
Track 18
Filename : /Various - California Funk- Rare Funk 45s From the Golden State (2010) [FLAC]/18 - Arriba Tipo.flac
/Various - California Funk- Rare Funk 45s From the Golden State (2010) [FLAC]/18 - Arriba Tipo.mp3
CRC32 hash (test run) : 128EF198
CRC32 hash : 128EF198
CRC32 hash (skip zero) : E4432F36
AccurateRip signature : 5B04F964
->Track not present in AccurateRip database.
Statistics
Read error : 0
Skipped (treated as error) : 0
Edge jitter error (maybe fixed) : 0
Atom jitter error (maybe fixed) : 0
Drift error (maybe fixed) : 0
Dropped bytes error (maybe fixed) : 0
Duplicated bytes error (maybe fixed) : 0
Inconsistency in error sectors : 0
Track 19
Filename : /Various - California Funk- Rare Funk 45s From the Golden State (2010) [FLAC]/19 - Bones.flac
/Various - California Funk- Rare Funk 45s From the Golden State (2010) [FLAC]/19 - Bones.mp3
CRC32 hash (test run) : 36686C2D
CRC32 hash : 36686C2D
CRC32 hash (skip zero) : 8F161FB8
AccurateRip signature : FD33BB19
->Track not present in AccurateRip database.
Statistics
Read error : 0
Skipped (treated as error) : 0
Edge jitter error (maybe fixed) : 0
Atom jitter error (maybe fixed) : 0
Drift error (maybe fixed) : 0
Dropped bytes error (maybe fixed) : 0
Duplicated bytes error (maybe fixed) : 0
Inconsistency in error sectors : 0
Track 20
Filename : /Various - California Funk- Rare Funk 45s From the Golden State (2010) [FLAC]/20 - Smokin' Tidbits.flac
/Various - California Funk- Rare Funk 45s From the Golden State (2010) [FLAC]/20 - Smokin' Tidbits.mp3
CRC32 hash (test run) : FB14C121
CRC32 hash : FB14C121
CRC32 hash (skip zero) : 9A78E4C8
AccurateRip signature : 3501036C
->Track not present in AccurateRip database.
Statistics
Read error : 0
Skipped (treated as error) : 0
Edge jitter error (maybe fixed) : 0
Atom jitter error (maybe fixed) : 0
Drift error (maybe fixed) : 0
Dropped bytes error (maybe fixed) : 0
Duplicated bytes error (maybe fixed) : 0
Inconsistency in error sectors : 0
Track 21
Filename : /Various - California Funk- Rare Funk 45s From the Golden State (2010) [FLAC]/21 - What's Going On.flac
/Various - California Funk- Rare Funk 45s From the Golden State (2010) [FLAC]/21 - What's Going On.mp3
CRC32 hash (test run) : 45F02081
CRC32 hash : 45F02081
CRC32 hash (skip zero) : 6DF3683F
AccurateRip signature : 06742A6E
->Track not present in AccurateRip database.
Statistics
Read error : 0
Skipped (treated as error) : 0
Edge jitter error (maybe fixed) : 0
Atom jitter error (maybe fixed) : 0
Drift error (maybe fixed) : 0
Dropped bytes error (maybe fixed) : 0
Duplicated bytes error (maybe fixed) : 0
Inconsistency in error sectors : 0
No errors occurred
End of status report
 
Содержание индексной карты (.CUE)
REM GENRE
REM DATE
REM DISCID 230F0F15
REM COMMENT "XLD"
REM COMMENT "Cue Created at http://eachelper.okamihost.com/"
PERFORMER "Various Artists"
TITLE "California Funk"
FILE "01 - Water Color - All Bundled Into One.flac" WAVE
TRACK 01 AUDIO
TITLE "All Bundled Into One"
PERFORMER "Water Color"
INDEX 01 00:00:00
FILE "02 - The 4th Coming - Cruising Down Sunset.flac" WAVE
TRACK 02 AUDIO
TITLE "Cruising Down Sunset"
PERFORMER "The 4th Coming"
INDEX 01 00:00:00
FILE "03 - Apple & The Three Oranges - Curse Upon the World.flac" WAVE
TRACK 03 AUDIO
TITLE "Curse Upon the World"
PERFORMER "Apple & The Three Oranges"
INDEX 01 00:00:00
FILE "04 - L.A. Bare Faxx - Super Cool Brother.flac" WAVE
TRACK 04 AUDIO
TITLE "Super Cool Brother"
PERFORMER "L.A. Bare Faxx"
INDEX 01 00:00:00
FILE "05 - Arthur Monday - What Goes Around Comes Around (Part 1).flac" WAVE
TRACK 05 AUDIO
TITLE "What Goes Around Comes Around (Part 1)"
PERFORMER "Arthur Monday"
INDEX 01 00:00:00
FILE "06 - Chucky Thurmon - Turn It Over.flac" WAVE
TRACK 06 AUDIO
TITLE "Turn It Over"
PERFORMER "Chucky Thurmon"
INDEX 01 00:00:00
FILE "07 - California Gold Notes - W.B. 302.flac" WAVE
TRACK 07 AUDIO
TITLE "W.B. 302"
PERFORMER "California Gold Notes"
INDEX 01 00:00:00
FILE "08 - Ray Frazier & The Shades Of Madness - I Who Have Nothing (Am Somebody).flac" WAVE
TRACK 08 AUDIO
TITLE "I Who Have Nothing (Am Somebody)"
PERFORMER "Ray Frazier & The Shades Of Madness"
INDEX 01 00:00:00
FILE "09 - Rhon Silva - Get It Right.flac" WAVE
TRACK 09 AUDIO
TITLE "Get It Right"
PERFORMER "Rhon Silva"
INDEX 01 00:00:00
FILE "10 - Enrique Olivarez Y Los Vampiros - Al's Place.flac" WAVE
TRACK 10 AUDIO
TITLE "Al's Place"
PERFORMER "Enrique Olivarez Y Los Vampiros"
INDEX 01 00:00:00
FILE "11 - J.G.D. & The New Breed - North Richmond Breakaway.flac" WAVE
TRACK 11 AUDIO
TITLE "North Richmond Breakaway"
PERFORMER "J.G.D. & The New Breed"
INDEX 01 00:00:00
FILE "12 - John Heartsman & Circles - Talking About My Baby.flac" WAVE
TRACK 12 AUDIO
TITLE "Talking About My Baby"
PERFORMER "John Heartsman & Circles"
INDEX 01 00:00:00
FILE "13 - King Solomon - Politician Rag.flac" WAVE
TRACK 13 AUDIO
TITLE "Politician Rag"
PERFORMER "King Solomon"
INDEX 01 00:00:00
FILE "14 - Billy Larkin & The Delegates - Funky Fire.flac" WAVE
TRACK 14 AUDIO
TITLE "Funky Fire"
PERFORMER "Billy Larkin & The Delegates"
INDEX 01 00:00:00
FILE "15 - Leon Gardner - Farm Song.flac" WAVE
TRACK 15 AUDIO
TITLE "Farm Song"
PERFORMER "Leon Gardner"
INDEX 01 00:00:00
FILE "16 - Lil Lavair & The Fabulous Jades - Cold Heat.flac" WAVE
TRACK 16 AUDIO
TITLE "Cold Heat"
PERFORMER "Lil Lavair & The Fabulous Jades"
INDEX 01 00:00:00
FILE "17 - Delores Ealy & The Kenyattas - Honeydripper.flac" WAVE
TRACK 17 AUDIO
TITLE "Honeydripper"
PERFORMER "Delores Ealy & The Kenyattas"
INDEX 01 00:00:00
FILE "18 - Enrique Olivarez Y Los Vampiros - Arriba Tipo.flac" WAVE
TRACK 18 AUDIO
TITLE "Arriba Tipo"
PERFORMER "Enrique Olivarez Y Los Vampiros"
INDEX 01 00:00:00
FILE "19 - Winter - Bones.flac" WAVE
TRACK 19 AUDIO
TITLE "Bones"
PERFORMER "Winter"
INDEX 01 00:00:00
FILE "20 - The Edwards Generation - Smokin' Tidbits.flac" WAVE
TRACK 20 AUDIO
TITLE "Smokin' Tidbits"
PERFORMER "The Edwards Generation"
INDEX 01 00:00:00
FILE "21 - Mr. Clean & The Soul Inc. - What's Going On.flac" WAVE
TRACK 21 AUDIO
TITLE "What's Going On"
PERFORMER "Mr. Clean & The Soul Inc."
INDEX 01 00:00:00
 
Об альбоме (сборнике)
allmusic.com
Description
At last! After several years of extensive work and painstaking research the latest in our explorations into regional US funk obscurities is finally here. Has the wait for California Funk been worth it? Well, let's see what we have: 21 of the finest, rarest and most desirable funk recordings from the Sunshine state, put together for the first time with the personal blessing of each and every artist represented herein - shoddy bootleg this is not! Both the LP and CD contain in-depth sleeve notes detailing the history of funk and R&B in California and the social conditions which led to the funk explosion of the late '60s. In addition there are thoroughly researched notes for every individual track, revealing for the first time the hidden stories behind such revered and enigmatic artists as Leon Gardner, Arthur Monday and Delores Ealy. The double LP is presented on two pieces of 180g virgin vinyl, lavishly housed in a double gatefold sleeve with full colour inners, label scans and extensive liner notes featuring many previously unseen photos of the bands and musicians involved. The CD houses the same in a 24 page colour booklet.
Whereas the musical profiles of cities such as Detroit and New Orleans are well established and much celebrated, the vast cities of Los Angeles and the San Francisco Bay Area have been mostly skimmed over and not given nearly enough attention. The black music from California of the '60s and '70s is especially under-appreciated, seemingly unable to stamp its own musical identity on the world.
Yet during this time, many artists were busily plying their trade at a grass roots level in LA and the Bay, releasing 45s literally by hand or through small independents. Today many of those very 45s fetch hundreds and sometimes thousands of pounds at online auction with lovers of real soul and funk desperate to get hold of them. Following on from our previous funk collections of Texas, Florida, the Midwest and the Carolinas, we applied ourselves to what proved to be our most ambitious and far-reaching project yet - to source and compile the best vintage funk that California had to offer. From the rugged street funk of Arthur Monday to the Latino flavours of Enrique Olivarez, from the soulful jazz grooves of blues legend Johnny Heartsman to the aggressive politicising of King Solomon, there is real diversity on offer – these aren't mere JB sound-a-likes but talented individuals who brought their own voice to the funk sound.
- 21 of the rarest, hardest and most coveted funk sounds from California, recorded 1968-77
- 24 page CD booklet with photographs, label scans and liner notes from our own original research and interviews
- RARE and FINE music reissued only with Jazzman - all because WE DIG DEEPER!
Приватный:
Нет (DHT включён)
Размер:
379.72 Мб (398,160,609 байт) » файлов: 27
Участники:
0 раздают, 1 качают (1 участников всего)
Внешние участники:
7 раздают, 2 качают (9 участников всего) [ Обновить ]
Скорость:
1.56 Мб/c 0/c
No seeders - write a personal message to user M0p94ok. Нет сидеров - пишите личное сообщение пользователю M0p94ok.
09:53
76
Нет комментариев. Ваш будет первым!