Поиск

(Soul, R&B) [CD] VA - Atlantic Rhythm And Blues 1947-1974, Vols. 1-8 (8 CD Set) - 1991, FLAC (image+.cue), lossless

(Soul, R&B) [CD] VA - Atlantic Rhythm And Blues 1947-1974, Vols. 1-8 (8 CD Set) - 1991, FLAC (image+.cue), lossless
Треклист:
Various - Atlantic Rhythm And Blues 1947-1974, Vols. 1-8

Жанр: Soul, R&B
Носитель: CD
Год издания: 1991
Издатель (лейбл): Atlantic Records
Номер по каталогу: 7 82305-2
Аудиокодек: FLAC (*.flac)
Тип рипа: image+.cue
Битрейт аудио: lossless
Продолжительность: 09:52:31
Rip by firepower
Наличие сканов в содержимом раздачи: да 
 
 
Volume 1 - 1947-1952
Продолжительность: 75:36
Треклист:
01. Lowe Groovin' (Joe Morris) (2:47)
02. That Old Black Magic (Tiny Grimes) (2:40)
03. Annie Laurie (Tiny Grimes) (3:00)
04. Midnight Special (Tiny Grimes) (2:45)
05. The Applejack (Joe Morris) (3:09)
06. Cole Slaw (Frank Culley) (3:08)
07. Drinkin' Wine Spo-Dee-O-Dee (Stick McGhee) (3:15)
08. So Long (Ruth Brown) (2:39)
09. I'll Get Along Somehow (Ruth Brown) (2:37)
10. Hey Little Girl (Professor Longhair) (3:03)
11. Mardi Gras In New Orleans (Professor Longhair) (2:53)
12. Tee Nah Nah (Harry Van Walls) (2:36)
13. Danny Boy (Al Hibbler) (3:13)
14. Anytime, Anyplace, Anywhere (Joe Morris) (3:03)
15. Teardrops From My Eyes (Ruth Brown) (2:53)
16. One Monkey Don't Stop No Show (Stick McGhee) (2:41)
17. Don't You Know I Love You (Clovers) (3:14)
18. Shouldn't I Know (Cardinals) (3:11)
19. The Chill Is On (Big Joe Turner) (2:46)
20. Chains Of Love (Joe Turner) (3:23)
21. Fool, Fool, Fool (Clovers) (2:34)
22. One Mint Julep (Clovers) (2:29)
23. Wheel Of Fortune (Cardinals) (2:52)
24. Sweet Sixteen (Joe Turner) (2:55)
25. 5-10-15 Hours (Ruth Brown) (3:12)
26. Gator's Groove (Willis 'Gator' Jackson) (2:37)
 
 
Лог создания рипа
Exact Audio Copy V1.0 beta 2 from 29. April 2011
EAC extraction logfile from 15. January 2013, 18:26
Various / Atlantic Rhythm & Blues 1947-1974, Vol 1
Used drive : LITE-ON LTR-52327S Adapter: 0 ID: 1
Read mode : Secure
Utilize accurate stream : Yes
Defeat audio cache : Yes
Make use of C2 pointers : No
Read offset correction : 6
Overread into Lead-In and Lead-Out : No
Fill up missing offset samples with silence : Yes
Delete leading and trailing silent blocks : No
Null samples used in CRC calculations : Yes
Used interface : Native Win32 interface for Win NT & 2000
Used output format : Internal WAV Routines
Sample format : 44.100 Hz; 16 Bit; Stereo
TOC of the extracted CD
Track | Start | Length | Start sector | End sector
---------------------------------------------------------
1 | 0:00.33 | 2:46.47 | 33 | 12529
2 | 2:47.05 | 2:39.55 | 12530 | 24509
3 | 5:26.60 | 2:59.43 | 24510 | 37977
4 | 8:26.28 | 2:45.25 | 37978 | 50377
5 | 11:11.53 | 3:09.02 | 50378 | 64554
6 | 14:20.55 | 3:07.63 | 64555 | 78642
7 | 17:28.43 | 3:15.30 | 78643 | 93297
8 | 20:43.73 | 2:38.45 | 93298 | 105192
9 | 23:22.43 | 2:37.37 | 105193 | 117004
10 | 26:00.05 | 3:02.65 | 117005 | 130719
11 | 29:02.70 | 2:52.43 | 130720 | 143662
12 | 31:55.38 | 2:36.20 | 143663 | 155382
13 | 34:31.58 | 3:12.65 | 155383 | 169847
14 | 37:44.48 | 3:03.15 | 169848 | 183587
15 | 40:47.63 | 2:52.70 | 183588 | 196557
16 | 43:40.58 | 2:40.47 | 196558 | 208604
17 | 46:21.30 | 3:14.23 | 208605 | 223177
18 | 49:35.53 | 3:10.60 | 223178 | 237487
19 | 52:46.38 | 2:46.35 | 237488 | 249972
20 | 55:32.73 | 3:23.25 | 249973 | 265222
21 | 58:56.23 | 2:34.10 | 265223 | 276782
22 | 61:30.33 | 2:29.37 | 276783 | 287994
23 | 63:59.70 | 2:52.28 | 287995 | 300922
24 | 66:52.23 | 2:55.37 | 300923 | 314084
25 | 69:47.60 | 3:12.00 | 314085 | 328484
26 | 72:59.60 | 2:36.38 | 328485 | 340222
Range status and errors
Selected range
Filename D:\My Rips\Various - Atlantic Rhythm & Blues 1947-1974, Vol 1.wav
Peak level 98.0 %
Extraction speed 9.2 X
Range quality 100.0 %
Test CRC F2A07E8C
Copy CRC F2A07E8C
Copy OK
No errors occurred
AccurateRip summary
Track 1 accurately ripped (confidence 5) [3A7C6F18] (AR v1)
Track 2 accurately ripped (confidence 5) [93AA9569] (AR v1)
Track 3 accurately ripped (confidence 5) [05218A50] (AR v1)
Track 4 accurately ripped (confidence 5) [757C16A3] (AR v1)
Track 5 accurately ripped (confidence 5) [4205AB3B] (AR v1)
Track 6 accurately ripped (confidence 5) [70C78A82] (AR v1)
Track 7 accurately ripped (confidence 5) [4F0AF075] (AR v1)
Track 8 accurately ripped (confidence 5) [B2B567EB] (AR v1)
Track 9 accurately ripped (confidence 5) [F68FAED0] (AR v1)
Track 10 accurately ripped (confidence 5) [145DC8AB] (AR v1)
Track 11 accurately ripped (confidence 5) [995FA0F4] (AR v1)
Track 12 accurately ripped (confidence 5) [F65E3EB0] (AR v1)
Track 13 accurately ripped (confidence 5) [9C69BC8D] (AR v1)
Track 14 accurately ripped (confidence 5) [1F3BEB3B] (AR v1)
Track 15 accurately ripped (confidence 6) [EEF2E006] (AR v1)
Track 16 accurately ripped (confidence 6) [58E90326] (AR v1)
Track 17 accurately ripped (confidence 5) [35B4FABB] (AR v1)
Track 18 accurately ripped (confidence 5) [EC6A9125] (AR v1)
Track 19 accurately ripped (confidence 5) [2B7F27CC] (AR v1)
Track 20 accurately ripped (confidence 5) [BE5ECF6D] (AR v1)
Track 21 accurately ripped (confidence 6) [6906F83D] (AR v1)
Track 22 accurately ripped (confidence 6) [AF25701A] (AR v1)
Track 23 accurately ripped (confidence 5) [DDC6FDB1] (AR v1)
Track 24 accurately ripped (confidence 5) [BC2AE03A] (AR v1)
Track 25 accurately ripped (confidence 6) [3045D95C] (AR v1)
Track 26 accurately ripped (confidence 5) [C88AD975] (AR v1)
All tracks accurately ripped
End of status report
==== Log checksum 2D775D6866FF92087BB5A497C959A4D37381E17F90FFC301ACBC813CC0973A49 ====
 
Содержание индексной карты (.CUE)
REM GENRE Rhythm & Blues
REM DATE 1991
REM DISCID 8511B81A
REM COMMENT "ExactAudioCopy v1.0b2"
PERFORMER "Various"
TITLE "Atlantic Rhythm & Blues 1947-1974, Vol 1"
FILE "Various - Atlantic Rhythm & Blues 1947-1974, Vol 1.flac" WAVE
TRACK 01 AUDIO
TITLE "Lowe Groovin'"
PERFORMER "Joe Morris"
INDEX 00 00:00:00
INDEX 01 00:00:33
TRACK 02 AUDIO
TITLE "That Old Black Magic"
PERFORMER "Tiny Grimes"
INDEX 00 02:45:53
INDEX 01 02:47:05
TRACK 03 AUDIO
TITLE "Annie Laurie"
PERFORMER "Tiny Grimes"
INDEX 00 05:24:55
INDEX 01 05:26:60
TRACK 04 AUDIO
TITLE "Midnight Special"
PERFORMER "Tiny Grimes"
INDEX 00 08:24:03
INDEX 01 08:26:28
TRACK 05 AUDIO
TITLE "The Applejack"
PERFORMER "Joe Morris"
INDEX 00 11:09:58
INDEX 01 11:11:53
TRACK 06 AUDIO
TITLE "Cole Slaw"
PERFORMER "Frank Culley"
INDEX 00 14:18:45
INDEX 01 14:20:55
TRACK 07 AUDIO
TITLE "Drinkin' Wine Spo-Dee-O-Dee"
PERFORMER "Stick McGhee"
INDEX 00 17:26:13
INDEX 01 17:28:43
TRACK 08 AUDIO
TITLE "So Long"
PERFORMER "Ruth Brown"
INDEX 00 20:42:45
INDEX 01 20:43:73
TRACK 09 AUDIO
TITLE "I'll Get Along Somehow"
PERFORMER "Ruth Brown"
INDEX 00 23:20:20
INDEX 01 23:22:43
TRACK 10 AUDIO
TITLE "Hey Little Girl"
PERFORMER "Professor Longhair"
INDEX 00 25:57:50
INDEX 01 26:00:05
TRACK 11 AUDIO
TITLE "Mardi Gras In New Orleans"
PERFORMER "Professor Longhair"
INDEX 00 29:00:63
INDEX 01 29:02:70
TRACK 12 AUDIO
TITLE "Tee Nah Nah"
PERFORMER "Harry Van Walls"
INDEX 00 31:54:00
INDEX 01 31:55:38
TRACK 13 AUDIO
TITLE "Danny Boy"
PERFORMER "Al Hibbler"
INDEX 00 34:29:73
INDEX 01 34:31:58
TRACK 14 AUDIO
TITLE "Anytime, Anyplace, Anywhere"
PERFORMER "Joe Morris"
INDEX 00 37:42:35
INDEX 01 37:44:48
TRACK 15 AUDIO
TITLE "Teardrops From My Eyes"
PERFORMER "Ruth Brown"
INDEX 00 40:45:50
INDEX 01 40:47:63
TRACK 16 AUDIO
TITLE "One Monkey Don't Stop No Show"
PERFORMER "Stick McGhee"
INDEX 00 43:38:45
INDEX 01 43:40:58
TRACK 17 AUDIO
TITLE "Don't You Know I Love You"
PERFORMER "Clovers"
INDEX 00 46:19:58
INDEX 01 46:21:30
TRACK 18 AUDIO
TITLE "Shouldn't I Know"
PERFORMER "Cardinals"
INDEX 00 49:33:65
INDEX 01 49:35:53
TRACK 19 AUDIO
TITLE "The Chill Is On"
PERFORMER "Big Joe Turner"
INDEX 00 52:45:05
INDEX 01 52:46:38
TRACK 20 AUDIO
TITLE "Chains Of Love"
PERFORMER "Joe Turner"
INDEX 00 55:30:63
INDEX 01 55:32:73
TRACK 21 AUDIO
TITLE "Fool, Fool, Fool"
PERFORMER "Clovers"
INDEX 00 58:54:13
INDEX 01 58:56:23
TRACK 22 AUDIO
TITLE "One Mint Julep"
PERFORMER "Clovers"
INDEX 00 61:28:03
INDEX 01 61:30:33
TRACK 23 AUDIO
TITLE "Wheel Of Fortune"
PERFORMER "Cardinals"
INDEX 00 63:57:60
INDEX 01 63:59:70
TRACK 24 AUDIO
TITLE "Sweet Sixteen"
PERFORMER "Joe Turner"
INDEX 00 66:50:40
INDEX 01 66:52:23
TRACK 25 AUDIO
TITLE "5-10-15 Hours"
PERFORMER "Ruth Brown"
INDEX 00 69:46:03
INDEX 01 69:47:60
TRACK 26 AUDIO
TITLE "Gator's Groove"
PERFORMER "Willis 'Gator' Jackson"
INDEX 00 72:58:50
INDEX 01 72:59:60
 
Volume 2 - 1952-1954
Продолжительность: 73:30
Треклист:
01. Ting-A-Ling (The Clovers) (3:08)
02. Daddy Daddy (Ruth Brown) (2:56)
03. The Midnight Hour (Ray Charles) (3:00)
04. A Beggar For Your Kisses (Diamonds) (2:59)
05. Mama, He Treats Your Daughter Mean (Ruth Brown) (2:55)
06. Good Lovin' (Clovers) (2:59)
07. Wild Wild Young Men (Ruth Brown) (2:32)
08. Mess Around (Ray Charles) (2:41)
09. Honey Hush (Joe Turner) (2:40)
10. Soul On Fire (LaVern Baker) (3:05)
11. Money Honey (Clyde McPhatter & The Drifters) (2:58)
12. Lovey Dovey (Clovers) (2:44)
13. Such A Night (Clyde McPhatter & The Drifters) (2:30)
14. Tipitina (Professor Longhair) (2:40)
15. White Christmas (Clyde McPhatter & The Drifters) (2:39)
16. Honey Love (Clyde McPhatter & The Drifters) (2:26)
17. Whatcha Gonna Do (Clyde McPhatter & The Drifters) (2:47)
18. Shake, Rattle And Roll (Joe Turner) (3:00)
19. Sh-Boom (Chords) (2:26)
20. Oh, What A Dream (Ruth Brown) (2:55)
21. Jam Up (Tommy Ridgley) (2:46)
22. After The Lights Go Down Low (Al Hibbler) (2:41)
23. Tomorrow Night (LaVern Baker) (3:14)
24. Tweedlee Dee (LaVern Baker) (3:10)
25. I Got A Woman (Ray Charles) (2:50)
26. Greenbacks (Ray Charles) (2:49)
 
 
Лог создания рипа
Exact Audio Copy V1.0 beta 2 from 29. April 2011
EAC extraction logfile from 15. January 2013, 18:50
Various / Atlantic Rhythm & Blues 1947-1974, Vol 2
Used drive : LITE-ON LTR-52327S Adapter: 0 ID: 1
Read mode : Secure
Utilize accurate stream : Yes
Defeat audio cache : Yes
Make use of C2 pointers : No
Read offset correction : 6
Overread into Lead-In and Lead-Out : No
Fill up missing offset samples with silence : Yes
Delete leading and trailing silent blocks : No
Null samples used in CRC calculations : Yes
Used interface : Native Win32 interface for Win NT & 2000
Used output format : Internal WAV Routines
Sample format : 44.100 Hz; 16 Bit; Stereo
TOC of the extracted CD
Track | Start | Length | Start sector | End sector
---------------------------------------------------------
1 | 0:00.33 | 3:07.55 | 33 | 14112
2 | 3:08.13 | 2:56.05 | 14113 | 27317
3 | 6:04.18 | 3:00.30 | 27318 | 40847
4 | 9:04.48 | 2:59.05 | 40848 | 54277
5 | 12:03.53 | 2:55.15 | 54278 | 67417
6 | 14:58.68 | 2:59.20 | 67418 | 80862
7 | 17:58.13 | 2:31.47 | 80863 | 92234
8 | 20:29.60 | 2:40.43 | 92235 | 104277
9 | 23:10.28 | 2:39.67 | 104278 | 116269
10 | 25:50.20 | 3:04.58 | 116270 | 130127
11 | 28:55.03 | 2:57.65 | 130128 | 143467
12 | 31:52.68 | 2:43.62 | 143468 | 155754
13 | 34:36.55 | 2:30.33 | 155755 | 167037
14 | 37:07.13 | 2:39.47 | 167038 | 179009
15 | 39:46.60 | 2:39.30 | 179010 | 190964
16 | 42:26.15 | 2:25.65 | 190965 | 201904
17 | 44:52.05 | 2:46.70 | 201905 | 214424
18 | 47:39.00 | 2:59.70 | 214425 | 227919
19 | 50:38.70 | 2:25.53 | 227920 | 238847
20 | 53:04.48 | 2:55.17 | 238848 | 251989
21 | 55:59.65 | 2:46.23 | 251990 | 264462
22 | 58:46.13 | 2:41.17 | 264463 | 276554
23 | 61:27.30 | 3:13.68 | 276555 | 291097
24 | 64:41.23 | 3:09.72 | 291098 | 305344
25 | 67:51.20 | 2:50.20 | 305345 | 318114
26 | 70:41.40 | 2:48.60 | 318115 | 330774
Range status and errors
Selected range
Filename D:\My Rips\Various - Atlantic Rhythm & Blues 1947-1974, Vol 2.wav
Peak level 100.0 %
Extraction speed 9.1 X
Range quality 100.0 %
Test CRC 6D34893E
Copy CRC 6D34893E
Copy OK
No errors occurred
AccurateRip summary
Track 1 accurately ripped (confidence 16) [18EBD07B] (AR v1)
Track 2 accurately ripped (confidence 15) [35289805] (AR v1)
Track 3 accurately ripped (confidence 16) [624ADBC6] (AR v1)
Track 4 accurately ripped (confidence 16) [A6949C48] (AR v1)
Track 5 accurately ripped (confidence 16) [F73B1279] (AR v1)
Track 6 accurately ripped (confidence 16) [03512E58] (AR v1)
Track 7 accurately ripped (confidence 16) [9B4974BD] (AR v1)
Track 8 accurately ripped (confidence 16) [29CA3796] (AR v1)
Track 9 accurately ripped (confidence 16) [90B35142] (AR v1)
Track 10 accurately ripped (confidence 16) [35F0B546] (AR v1)
Track 11 accurately ripped (confidence 16) [1EA796E7] (AR v1)
Track 12 accurately ripped (confidence 16) [C0A1E9F6] (AR v1)
Track 13 accurately ripped (confidence 16) [94650C29] (AR v1)
Track 14 accurately ripped (confidence 16) [45E50D19] (AR v1)
Track 15 accurately ripped (confidence 16) [F4147C4E] (AR v1)
Track 16 accurately ripped (confidence 16) [A657043C] (AR v1)
Track 17 accurately ripped (confidence 16) [B28623EA] (AR v1)
Track 18 accurately ripped (confidence 16) [0730EBA8] (AR v1)
Track 19 accurately ripped (confidence 16) [2A622AB4] (AR v1)
Track 20 accurately ripped (confidence 16) [7D3F4424] (AR v1)
Track 21 accurately ripped (confidence 16) [3CE3EABB] (AR v1)
Track 22 accurately ripped (confidence 16) [841D46EA] (AR v1)
Track 23 accurately ripped (confidence 16) [84C8BF23] (AR v1)
Track 24 accurately ripped (confidence 16) [E435C7F9] (AR v1)
Track 25 accurately ripped (confidence 15) [46A0D522] (AR v1)
Track 26 accurately ripped (confidence 16) [A1F3803D] (AR v1)
All tracks accurately ripped
End of status report
==== Log checksum 5B12C40B5D5F9488D0254431311BCAFDD1B63E2365E1D6DB6F6D01B001350537 ====
 
Содержание индексной карты (.CUE)
REM GENRE Rhythm & Blues
REM DATE 1991
REM DISCID 80113A1A
REM COMMENT "ExactAudioCopy v1.0b2"
PERFORMER "Various"
TITLE "Atlantic Rhythm & Blues 1947-1974, Vol 2"
FILE "Various - Atlantic Rhythm & Blues 1947-1974, Vol 2.flac" WAVE
TRACK 01 AUDIO
TITLE "Ting-A-Ling"
PERFORMER "The Clovers"
INDEX 00 00:00:00
INDEX 01 00:00:33
TRACK 02 AUDIO
TITLE "Daddy Daddy"
PERFORMER "Ruth Brown"
INDEX 00 03:06:38
INDEX 01 03:08:13
TRACK 03 AUDIO
TITLE "The Midnight Hour"
PERFORMER "Ray Charles"
INDEX 00 06:02:63
INDEX 01 06:04:18
TRACK 04 AUDIO
TITLE "A Beggar For Your Kisses"
PERFORMER "Diamonds"
INDEX 00 09:03:20
INDEX 01 09:04:48
TRACK 05 AUDIO
TITLE "Mama, He Treats Your Daughter Mean"
PERFORMER "Ruth Brown"
INDEX 00 12:02:35
INDEX 01 12:03:53
TRACK 06 AUDIO
TITLE "Good Lovin'"
PERFORMER "Clovers"
INDEX 00 14:56:18
INDEX 01 14:58:68
TRACK 07 AUDIO
TITLE "Wild Wild Young Men"
PERFORMER "Ruth Brown"
INDEX 00 17:56:43
INDEX 01 17:58:13
TRACK 08 AUDIO
TITLE "Mess Around"
PERFORMER "Ray Charles"
INDEX 00 20:28:18
INDEX 01 20:29:60
TRACK 09 AUDIO
TITLE "Honey Hush"
PERFORMER "Joe Turner"
INDEX 00 23:08:38
INDEX 01 23:10:28
TRACK 10 AUDIO
TITLE "Soul On Fire"
PERFORMER "LaVern Baker"
INDEX 00 25:47:73
INDEX 01 25:50:20
TRACK 11 AUDIO
TITLE "Money Honey"
PERFORMER "Clyde McPhatter & The Drifters"
INDEX 00 28:52:70
INDEX 01 28:55:03
TRACK 12 AUDIO
TITLE "Lovey Dovey"
PERFORMER "Clovers"
INDEX 00 31:50:65
INDEX 01 31:52:68
TRACK 13 AUDIO
TITLE "Such A Night"
PERFORMER "Clyde McPhatter & The Drifters"
INDEX 00 34:34:28
INDEX 01 34:36:55
TRACK 14 AUDIO
TITLE "Tipitina"
PERFORMER "Professor Longhair"
INDEX 00 37:05:28
INDEX 01 37:07:13
TRACK 15 AUDIO
TITLE "White Christmas"
PERFORMER "Clyde McPhatter & The Drifters"
INDEX 00 39:44:25
INDEX 01 39:46:60
TRACK 16 AUDIO
TITLE "Honey Love"
PERFORMER "Clyde McPhatter & The Drifters"
INDEX 00 42:25:08
INDEX 01 42:26:15
TRACK 17 AUDIO
TITLE "Whatcha Gonna Do"
PERFORMER "Clyde McPhatter & The Drifters"
INDEX 00 44:49:70
INDEX 01 44:52:05
TRACK 18 AUDIO
TITLE "Shake, Rattle And Roll"
PERFORMER "Joe Turner"
INDEX 00 47:36:50
INDEX 01 47:39:00
TRACK 19 AUDIO
TITLE "Sh-Boom"
PERFORMER "Chords"
INDEX 00 50:36:50
INDEX 01 50:38:70
TRACK 20 AUDIO
TITLE "Oh, What A Dream"
PERFORMER "Ruth Brown"
INDEX 00 53:03:18
INDEX 01 53:04:48
TRACK 21 AUDIO
TITLE "Jam Up"
PERFORMER "Tommy Ridgley"
INDEX 00 55:58:00
INDEX 01 55:59:65
TRACK 22 AUDIO
TITLE "After The Lights Go Down Low"
PERFORMER "Al Hibbler"
INDEX 00 58:45:58
INDEX 01 58:46:13
TRACK 23 AUDIO
TITLE "Tomorrow Night"
PERFORMER "LaVern Baker"
INDEX 00 61:25:25
INDEX 01 61:27:30
TRACK 24 AUDIO
TITLE "Tweedlee Dee"
PERFORMER "LaVern Baker"
INDEX 00 64:40:08
INDEX 01 64:41:23
TRACK 25 AUDIO
TITLE "I Got A Woman"
PERFORMER "Ray Charles"
INDEX 00 67:50:28
INDEX 01 67:51:20
TRACK 26 AUDIO
TITLE "Greenbacks"
PERFORMER "Ray Charles"
INDEX 00 70:41:18
INDEX 01 70:41:40
 
Volume 3 - 1955-1957
Продолжительность: 74:37
Треклист:
01. The Door Is Still Open (Cardinals) (3:00)
02. Flip, Flop And Fly (Joe Turner) (2:48)
03. A Fool For You (Ray Charles) (3:02)
04. This Little Girl Of Mine (Ray Charles) (2:32)
05. Play It Fair (LaVern Baker) (2:58)
06. Adorable (Drifters) (2:42)
07. Smokey Joe's Cafe (Robins) (2:47)
08. Ruby Baby (Drifters) (2:25)
09. In Paradise (Cookies) (2:34)
10. The Chicken And The Hawk (Joe Turner) (2:39)
11. Devil Or Angel (Clovers) (2:26)
12. Drown In My Own Tears (Ray Charles) (3:21)
13. Hallelujah I Love Her So (Ray Charles) (2:36)
14. Jim Dandy (LaVern Baker) (2:13)
15. Down In Mexico (Coasters) (3:16)
16. Corrine Corrina (Joe Turner) (2:54)
17. Treasure Of Love (Clyde McPhatter) (2:10)
18. Love Love Love (Clovers) (2:04)
19. It's Too Late (Chuck Willis) (2:36)
20. Lonely Avenue (Ray Charles) (2:36)
21. Since I Met You Baby (Ivory Joe Hunter) (2:44)
22. Lucky Lips (Ruth Brown) (2:09)
23. Without Love (There Is Nothing) (Clyde McPhatter) (2:57)
24. Fools Fall In Love (Drifters) (2:32)
25. Midnight Special Train (Joe Turner) (2:39)
26. Empty Arms (Ivory Joe Hunter) (2:42)
27. C.C. Rider (Chuck Willis) (2:35)
28. Searchin' (Coasters) (2:40)
 
 
Лог создания рипа
Exact Audio Copy V1.0 beta 2 from 29. April 2011
EAC extraction logfile from 15. January 2013, 19:10
Various / Atlantic Rhythm & Blues 1947-1974, Vol 3
Used drive : LITE-ON LTR-52327S Adapter: 0 ID: 1
Read mode : Secure
Utilize accurate stream : Yes
Defeat audio cache : Yes
Make use of C2 pointers : No
Read offset correction : 6
Overread into Lead-In and Lead-Out : No
Fill up missing offset samples with silence : Yes
Delete leading and trailing silent blocks : No
Null samples used in CRC calculations : Yes
Used interface : Native Win32 interface for Win NT & 2000
Used output format : Internal WAV Routines
Sample format : 44.100 Hz; 16 Bit; Stereo
TOC of the extracted CD
Track | Start | Length | Start sector | End sector
---------------------------------------------------------
1 | 0:00.32 | 3:00.03 | 32 | 13534
2 | 3:00.35 | 2:48.05 | 13535 | 26139
3 | 5:48.40 | 3:01.52 | 26140 | 39766
4 | 8:50.17 | 2:32.05 | 39767 | 51171
5 | 11:22.22 | 2:57.45 | 51172 | 64491
6 | 14:19.67 | 2:41.63 | 64492 | 76629
7 | 17:01.55 | 2:46.42 | 76630 | 89121
8 | 19:48.22 | 2:24.73 | 89122 | 99994
9 | 22:13.20 | 2:34.05 | 99995 | 111549
10 | 24:47.25 | 2:39.27 | 111550 | 123501
11 | 27:26.52 | 2:25.60 | 123502 | 134436
12 | 29:52.37 | 3:20.60 | 134437 | 149496
13 | 33:13.22 | 2:35.40 | 149497 | 161161
14 | 35:48.62 | 2:13.08 | 161162 | 171144
15 | 38:01.70 | 3:16.30 | 171145 | 185874
16 | 41:18.25 | 2:53.55 | 185875 | 198904
17 | 44:12.05 | 2:10.30 | 198905 | 208684
18 | 46:22.35 | 2:03.47 | 208685 | 217956
19 | 48:26.07 | 2:36.05 | 217957 | 229661
20 | 51:02.12 | 2:35.43 | 229662 | 241329
21 | 53:37.55 | 2:44.25 | 241330 | 253654
22 | 56:22.05 | 2:08.60 | 253655 | 263314
23 | 58:30.65 | 2:57.15 | 263315 | 276604
24 | 61:28.05 | 2:31.60 | 276605 | 287989
25 | 63:59.65 | 2:39.37 | 287990 | 299951
26 | 66:39.27 | 2:42.35 | 299952 | 312136
27 | 69:21.62 | 2:34.70 | 312137 | 323756
28 | 71:56.57 | 2:40.15 | 323757 | 335771
Range status and errors
Selected range
Filename D:\My Rips\Various - Atlantic Rhythm & Blues 1947-1974, Vol 3.wav
Peak level 100.0 %
Extraction speed 9.3 X
Range quality 100.0 %
Test CRC F7FAE591
Copy CRC F7FAE591
Copy OK
No errors occurred
AccurateRip summary
Track 1 accurately ripped (confidence 2) [957E9661] (AR v2)
Track 2 accurately ripped (confidence 2) [47AB85FE] (AR v2)
Track 3 accurately ripped (confidence 2) [541DC10A] (AR v2)
Track 4 accurately ripped (confidence 2) [D56063DE] (AR v2)
Track 5 accurately ripped (confidence 2) [22095F53] (AR v2)
Track 6 accurately ripped (confidence 2) [78A280C4] (AR v2)
Track 7 accurately ripped (confidence 2) [4900FFDE] (AR v2)
Track 8 accurately ripped (confidence 2) [E5F5D3D6] (AR v2)
Track 9 accurately ripped (confidence 2) [0F049999] (AR v2)
Track 10 accurately ripped (confidence 2) [22EB0898] (AR v2)
Track 11 accurately ripped (confidence 2) [636152D3] (AR v2)
Track 12 accurately ripped (confidence 2) [F89FEF18] (AR v2)
Track 13 accurately ripped (confidence 2) [0ECC34AE] (AR v2)
Track 14 accurately ripped (confidence 2) [9B7BB642] (AR v2)
Track 15 accurately ripped (confidence 2) [2A90A698] (AR v2)
Track 16 accurately ripped (confidence 2) [0611087F] (AR v2)
Track 17 accurately ripped (confidence 2) [97D72E76] (AR v2)
Track 18 accurately ripped (confidence 2) [1667FDAF] (AR v2)
Track 19 accurately ripped (confidence 2) [46726872] (AR v2)
Track 20 accurately ripped (confidence 2) [7B42E4AA] (AR v2)
Track 21 accurately ripped (confidence 2) [A781015F] (AR v2)
Track 22 accurately ripped (confidence 2) [FAE32A8B] (AR v2)
Track 23 accurately ripped (confidence 2) [7227743F] (AR v2)
Track 24 accurately ripped (confidence 2) [E851F8F9] (AR v2)
Track 25 accurately ripped (confidence 2) [70EE6B30] (AR v2)
Track 26 accurately ripped (confidence 2) [4799BD67] (AR v2)
Track 27 accurately ripped (confidence 2) [E79B153A] (AR v2)
Track 28 accurately ripped (confidence 19) [54F77DED] (AR v1)
All tracks accurately ripped
End of status report
==== Log checksum 2E3F103F386AD9776572CA98A1510BED30B7E5A7D9025882EDC0DAB614BE0B42 ====
 
Содержание индексной карты (.CUE)
REM GENRE R&B
REM DATE 1991
REM DISCID 90117C1C
REM COMMENT "ExactAudioCopy v1.0b2"
PERFORMER "Various"
TITLE "Atlantic Rhythm & Blues 1947-1974, Vol 3"
FILE "Various - Atlantic Rhythm & Blues 1947-1974, Vol 3.flac" WAVE
TRACK 01 AUDIO
TITLE "The Door Is Still Open"
PERFORMER "Cardinals"
INDEX 00 00:00:00
INDEX 01 00:00:32
TRACK 02 AUDIO
TITLE "Flip, Flop And Fly"
PERFORMER "Joe Turner"
INDEX 00 02:58:57
INDEX 01 03:00:35
TRACK 03 AUDIO
TITLE "A Fool For You"
PERFORMER "Ray Charles"
INDEX 00 05:46:35
INDEX 01 05:48:40
TRACK 04 AUDIO
TITLE "This Little Girl Of Mine"
PERFORMER "Ray Charles"
INDEX 00 08:48:50
INDEX 01 08:50:17
TRACK 05 AUDIO
TITLE "Play It Fair"
PERFORMER "LaVern Baker"
INDEX 00 11:20:27
INDEX 01 11:22:22
TRACK 06 AUDIO
TITLE "Adorable"
PERFORMER "Drifters"
INDEX 00 14:18:52
INDEX 01 14:19:67
TRACK 07 AUDIO
TITLE "Smokey Joe's Cafe"
PERFORMER "Robins"
INDEX 00 17:00:47
INDEX 01 17:01:55
TRACK 08 AUDIO
TITLE "Ruby Baby"
PERFORMER "Drifters"
INDEX 00 19:46:12
INDEX 01 19:48:22
TRACK 09 AUDIO
TITLE "In Paradise"
PERFORMER "Cookies"
INDEX 00 22:11:30
INDEX 01 22:13:20
TRACK 10 AUDIO
TITLE "The Chicken And The Hawk"
PERFORMER "Joe Turner"
INDEX 00 24:46:32
INDEX 01 24:47:25
TRACK 11 AUDIO
TITLE "Devil Or Angel"
PERFORMER "Clovers"
INDEX 00 27:25:30
INDEX 01 27:26:52
TRACK 12 AUDIO
TITLE "Drown In My Own Tears"
PERFORMER "Ray Charles"
INDEX 00 29:50:72
INDEX 01 29:52:37
TRACK 13 AUDIO
TITLE "Hallelujah I Love Her So"
PERFORMER "Ray Charles"
INDEX 00 33:12:00
INDEX 01 33:13:22
TRACK 14 AUDIO
TITLE "Jim Dandy"
PERFORMER "LaVern Baker"
INDEX 00 35:47:50
INDEX 01 35:48:62
TRACK 15 AUDIO
TITLE "Down In Mexico"
PERFORMER "Coasters"
INDEX 00 38:00:30
INDEX 01 38:01:70
TRACK 16 AUDIO
TITLE "Corrine Corrina"
PERFORMER "Joe Turner"
INDEX 00 41:16:70
INDEX 01 41:18:25
TRACK 17 AUDIO
TITLE "Treasure Of Love"
PERFORMER "Clyde McPhatter"
INDEX 00 44:11:00
INDEX 01 44:12:05
TRACK 18 AUDIO
TITLE "Love Love Love"
PERFORMER "Clovers"
INDEX 00 46:20:67
INDEX 01 46:22:35
TRACK 19 AUDIO
TITLE "It's Too Late"
PERFORMER "Chuck Willis"
INDEX 00 48:24:72
INDEX 01 48:26:07
TRACK 20 AUDIO
TITLE "Lonely Avenue"
PERFORMER "Ray Charles"
INDEX 00 51:00:45
INDEX 01 51:02:12
TRACK 21 AUDIO
TITLE "Since I Met You Baby"
PERFORMER "Ivory Joe Hunter"
INDEX 00 53:35:42
INDEX 01 53:37:55
TRACK 22 AUDIO
TITLE "Lucky Lips"
PERFORMER "Ruth Brown"
INDEX 00 56:20:25
INDEX 01 56:22:05
TRACK 23 AUDIO
TITLE "Without Love (There Is Nothing)"
PERFORMER "Clyde McPhatter"
INDEX 00 58:29:50
INDEX 01 58:30:65
TRACK 24 AUDIO
TITLE "Fools Fall In Love"
PERFORMER "Drifters"
INDEX 00 61:26:40
INDEX 01 61:28:05
TRACK 25 AUDIO
TITLE "Midnight Special Train"
PERFORMER "Joe Turner"
INDEX 00 63:58:40
INDEX 01 63:59:65
TRACK 26 AUDIO
TITLE "Empty Arms"
PERFORMER "Ivory Joe Hunter"
INDEX 00 66:37:65
INDEX 01 66:39:27
TRACK 27 AUDIO
TITLE "C.C. Rider"
PERFORMER "Chuck Willis"
INDEX 00 69:21:27
INDEX 01 69:21:62
TRACK 28 AUDIO
TITLE "Searchin'"
PERFORMER "Coasters"
INDEX 00 71:55:65
INDEX 01 71:56:57
 
Volume 4 - 1957-1960
Продолжительность: 73:10
Треклист:
01. Young Blood (Coasters) (2:21)
02. Mr. Lee (Bobbettes) (2:14)
03. Long Lonely Nights (Clyde McPhatter) (2:25)
04. Betty And Dupree (Chuck Willis) (2:26)
05. What Am I Living For (Chuck Willis) (2:28)
06. Hang Up My Rock And Roll Shoes (Chuck Willis) (2:20)
07. Yakety Yak (Coasters) (1:50)
08. A Lover's Question (Clyde McPhatter) (2:36)
09. I Cried A Tear (LaVern Baker) (2:36)
10. (Night Time Is) The Right Time (Ray Charles) (3:25)
11. Charlie Brown (Coasters) (2:20)
12. What'd I Say (Parts 1 & 2) (Ray Charles) (5:07)
13. There Goes My Baby (Drifters) (2:11)
14. Along Came Jones (Coasters) (2:57)
15. Let The Good Times Roll (Ray Charles) (2:52)
16. Poison Ivy (Coasters) (2:42)
17. Dance With Me (Drifters) (2:25)
18. Just For A Thrill (Ray Charles) (3:25)
19. This Magic Moment (Drifters) (2:34)
20. Save The Last Dance For Me (Drifters) (2:29)
21. Shopping For Clothes (Coasters) (3:00)
22. Spanish Harlem (Ben E. King) (2:59)
23. Young Boy Blues (Ben E. King) (2:20)
24. Stand By Me (Ben E. King) (3:00)
25. Gee Whiz (Carla Thomas) (2:22)
26. Saved (LaVern Baker) (2:58)
27. Just Out Of Reach (Of My Two Empty Arms) (Solomon Burke) (2:47)
 
 
Лог создания рипа
Exact Audio Copy V1.0 beta 2 from 29. April 2011
EAC extraction logfile from 15. January 2013, 19:32
Various / Atlantic Rhythm & Blues 1947-1974, Vol 4
Used drive : LITE-ON LTR-52327S Adapter: 0 ID: 1
Read mode : Secure
Utilize accurate stream : Yes
Defeat audio cache : Yes
Make use of C2 pointers : No
Read offset correction : 6
Overread into Lead-In and Lead-Out : No
Fill up missing offset samples with silence : Yes
Delete leading and trailing silent blocks : No
Null samples used in CRC calculations : Yes
Used interface : Native Win32 interface for Win NT & 2000
Used output format : Internal WAV Routines
Sample format : 44.100 Hz; 16 Bit; Stereo
TOC of the extracted CD
Track | Start | Length | Start sector | End sector
---------------------------------------------------------
1 | 0:00.32 | 2:20.70 | 32 | 10601
2 | 2:21.27 | 2:13.63 | 10602 | 20639
3 | 4:35.15 | 2:25.17 | 20640 | 31531
4 | 7:00.32 | 2:25.53 | 31532 | 42459
5 | 9:26.10 | 2:28.10 | 42460 | 53569
6 | 11:54.20 | 2:20.05 | 53570 | 64074
7 | 14:14.25 | 1:50.25 | 64075 | 72349
8 | 16:04.50 | 2:35.55 | 72350 | 84029
9 | 18:40.30 | 2:36.15 | 84030 | 95744
10 | 21:16.45 | 3:24.55 | 95745 | 111099
11 | 24:41.25 | 2:19.57 | 111100 | 121581
12 | 27:01.07 | 5:07.00 | 121582 | 144606
13 | 32:08.07 | 2:11.20 | 144607 | 154451
14 | 34:19.27 | 2:57.23 | 154452 | 167749
15 | 37:16.50 | 2:52.30 | 167750 | 180679
16 | 40:09.05 | 2:42.07 | 180680 | 192836
17 | 42:51.12 | 2:25.35 | 192837 | 203746
18 | 45:16.47 | 3:24.73 | 203747 | 219119
19 | 48:41.45 | 2:33.50 | 219120 | 230644
20 | 51:15.20 | 2:29.22 | 230645 | 241841
21 | 53:44.42 | 2:59.58 | 241842 | 255324
22 | 56:44.25 | 2:59.05 | 255325 | 268754
23 | 59:43.30 | 2:20.25 | 268755 | 279279
24 | 62:03.55 | 2:59.72 | 279280 | 292776
25 | 65:03.52 | 2:21.53 | 292777 | 303404
26 | 67:25.30 | 2:57.42 | 303405 | 316721
27 | 70:22.72 | 2:47.25 | 316722 | 329271
Range status and errors
Selected range
Filename D:\My Rips\Various - Atlantic Rhythm & Blues 1947-1974, Vol 4.wav
Peak level 100.0 %
Extraction speed 9.1 X
Range quality 100.0 %
Test CRC 809586D2
Copy CRC 809586D2
Copy OK
No errors occurred
AccurateRip summary
Track 1 accurately ripped (confidence 17) [EFC72399] (AR v1)
Track 2 accurately ripped (confidence 17) [00EF29F2] (AR v1)
Track 3 accurately ripped (confidence 17) [936B8A19] (AR v1)
Track 4 accurately ripped (confidence 16) [9A10D546] (AR v1)
Track 5 accurately ripped (confidence 16) [A6212C4D] (AR v1)
Track 6 accurately ripped (confidence 17) [486113D2] (AR v1)
Track 7 accurately ripped (confidence 17) [90574674] (AR v1)
Track 8 accurately ripped (confidence 17) [0A176D0D] (AR v1)
Track 9 accurately ripped (confidence 17) [536DEA8D] (AR v1)
Track 10 accurately ripped (confidence 17) [07BE40E3] (AR v1)
Track 11 accurately ripped (confidence 17) [8DDF9947] (AR v1)
Track 12 accurately ripped (confidence 17) [84E3ED57] (AR v1)
Track 13 accurately ripped (confidence 17) [C70D4F99] (AR v1)
Track 14 accurately ripped (confidence 17) [5E411FFD] (AR v1)
Track 15 accurately ripped (confidence 17) [C09CE3FB] (AR v1)
Track 16 accurately ripped (confidence 17) [02B5A200] (AR v1)
Track 17 accurately ripped (confidence 16) [68DAE60D] (AR v1)
Track 18 accurately ripped (confidence 17) [8B2B9B2D] (AR v1)
Track 19 accurately ripped (confidence 17) [18B0D540] (AR v1)
Track 20 accurately ripped (confidence 17) [B41B5431] (AR v1)
Track 21 accurately ripped (confidence 17) [274AF037] (AR v1)
Track 22 accurately ripped (confidence 17) [2EBB1C3E] (AR v1)
Track 23 accurately ripped (confidence 17) [D08B75B8] (AR v1)
Track 24 accurately ripped (confidence 2) [D71B6C43] (AR v2)
Track 25 accurately ripped (confidence 16) [57B7654C] (AR v1)
Track 26 accurately ripped (confidence 16) [71EE5EEC] (AR v1)
Track 27 accurately ripped (confidence 17) [9E5B2C2F] (AR v1)
All tracks accurately ripped
End of status report
==== Log checksum D1E89C6BAC236CC97F3ADBA7C551C64DE5195E9EA8377E0A4973DB1D52AE5C21 ====
 
Содержание индексной карты (.CUE)
REM GENRE R&B
REM DATE 1991
REM DISCID 7D11261B
REM COMMENT "ExactAudioCopy v1.0b2"
PERFORMER "Various"
TITLE "Atlantic Rhythm & Blues 1947-1974, Vol 4"
FILE "Various - Atlantic Rhythm & Blues 1947-1974, Vol 4.flac" WAVE
TRACK 01 AUDIO
TITLE "Young Blood"
PERFORMER "Coasters"
INDEX 00 00:00:00
INDEX 01 00:00:32
TRACK 02 AUDIO
TITLE "Mr. Lee"
PERFORMER "Bobbettes"
INDEX 00 02:20:12
INDEX 01 02:21:27
TRACK 03 AUDIO
TITLE "Long Lonely Nights"
PERFORMER "Clyde McPhatter"
INDEX 00 04:34:32
INDEX 01 04:35:15
TRACK 04 AUDIO
TITLE "Betty And Dupree"
PERFORMER "Chuck Willis"
INDEX 00 06:58:57
INDEX 01 07:00:32
TRACK 05 AUDIO
TITLE "What Am I Living For"
PERFORMER "Chuck Willis"
INDEX 00 09:24:70
INDEX 01 09:26:10
TRACK 06 AUDIO
TITLE "Hang Up My Rock And Roll Shoes"
PERFORMER "Chuck Willis"
INDEX 00 11:52:50
INDEX 01 11:54:20
TRACK 07 AUDIO
TITLE "Yakety Yak"
PERFORMER "Coasters"
INDEX 00 14:13:25
INDEX 01 14:14:25
TRACK 08 AUDIO
TITLE "A Lover's Question"
PERFORMER "Clyde McPhatter"
INDEX 00 16:03:30
INDEX 01 16:04:50
TRACK 09 AUDIO
TITLE "I Cried A Tear"
PERFORMER "LaVern Baker"
INDEX 00 18:38:52
INDEX 01 18:40:30
TRACK 10 AUDIO
TITLE "(Night Time Is) The Right Time"
PERFORMER "Ray Charles"
INDEX 00 21:14:67
INDEX 01 21:16:45
TRACK 11 AUDIO
TITLE "Charlie Brown"
PERFORMER "Coasters"
INDEX 00 24:39:42
INDEX 01 24:41:25
TRACK 12 AUDIO
TITLE "What'd I Say (Parts 1 & 2)"
PERFORMER "Ray Charles"
INDEX 00 27:00:02
INDEX 01 27:01:07
TRACK 13 AUDIO
TITLE "There Goes My Baby"
PERFORMER "Drifters"
INDEX 00 32:06:12
INDEX 01 32:08:07
TRACK 14 AUDIO
TITLE "Along Came Jones"
PERFORMER "Coasters"
INDEX 00 34:18:15
INDEX 01 34:19:27
TRACK 15 AUDIO
TITLE "Let The Good Times Roll"
PERFORMER "Ray Charles"
INDEX 00 37:15:42
INDEX 01 37:16:50
TRACK 16 AUDIO
TITLE "Poison Ivy"
PERFORMER "Coasters"
INDEX 00 40:07:45
INDEX 01 40:09:05
TRACK 17 AUDIO
TITLE "Dance With Me"
PERFORMER "Drifters"
INDEX 00 42:50:42
INDEX 01 42:51:12
TRACK 18 AUDIO
TITLE "Just For A Thrill"
PERFORMER "Ray Charles"
INDEX 00 45:16:42
INDEX 01 45:16:47
TRACK 19 AUDIO
TITLE "This Magic Moment"
PERFORMER "Drifters"
INDEX 00 48:39:52
INDEX 01 48:41:45
TRACK 20 AUDIO
TITLE "Save The Last Dance For Me"
PERFORMER "Drifters"
INDEX 00 51:13:25
INDEX 01 51:15:20
TRACK 21 AUDIO
TITLE "Shopping For Clothes"
PERFORMER "Coasters"
INDEX 00 53:42:25
INDEX 01 53:44:42
TRACK 22 AUDIO
TITLE "Spanish Harlem"
PERFORMER "Ben E. King"
INDEX 00 56:42:40
INDEX 01 56:44:25
TRACK 23 AUDIO
TITLE "Young Boy Blues"
PERFORMER "Ben E. King"
INDEX 00 59:41:62
INDEX 01 59:43:30
TRACK 24 AUDIO
TITLE "Stand By Me"
PERFORMER "Ben E. King"
INDEX 00 62:02:22
INDEX 01 62:03:55
TRACK 25 AUDIO
TITLE "Gee Whiz"
PERFORMER "Carla Thomas"
INDEX 00 65:03:47
INDEX 01 65:03:52
TRACK 26 AUDIO
TITLE "Saved"
PERFORMER "LaVern Baker"
INDEX 00 67:23:10
INDEX 01 67:25:30
TRACK 27 AUDIO
TITLE "Just Out Of Reach (Of My Two Empty Arms)"
PERFORMER "Solomon Burke"
INDEX 00 70:21:02
INDEX 01 70:22:72
 
Volume 5 - 1961-1965
Продолжительность: 74:11
Треклист:
01. Little Egypt (Coasters) (2:47)
02. Amor (Ben E. King) (3:05)
03. Last Night (Mar-Keys) (2:39)
04. I'm Blue (Ikettes) (2:32)
05. You Don't Miss Your Water (William Bell) (3:01)
06. I Found A Love (Falcons) (2:59)
07. Cry To Me (Solomon Burke) (2:36)
08. Don't Play That Song (You Lied) (Ben E. King) (2:49)
09. Green Onions (Booker T. & The MG's) (2:54)
10. Up On The Roof (Drifters) (2:37)
11. See See Rider (LaVern Baker) (2:29)
12. I (Who Have Nothing) (Ben E. King) (2:27)
13. If You Need Me (Solomon Burke) (2:33)
14. These Arms Of Mine (Otis Redding) (2:31)
15. Hello Stranger (Barbara Lewis) (2:41)
16. On Broadway (Drifters) (3:00)
17. Just One Look (Doris Troy) (2:31)
18. Mashed Potatoes (Nat Kendrick & The Swans) (3:29)
19. Land Of 1000 Dances (Chris Kenner) (2:29)
20. Walking The Dog (Rufus Thomas) (2:34)
21. Release Me (Esther Phillips) (3:18)
22. Mercy Mercy (Don Covay) (2:27)
23. Under The Boardwalk (Drifters) (2:42)
24. And I Love Him (Esther Phillips) (2:42)
25. Hold What You've Got (Joe Tex) (3:07)
26. Mr. Pitiful (Otis Redding) (2:42)
27. Baby I'm Yours (Barbara Lewis) (2:30)
 
 
Лог создания рипа
Exact Audio Copy V1.0 beta 2 from 29. April 2011
EAC extraction logfile from 15. January 2013, 19:57
Various / Atlantic Rhythm & Blues 1947-1974, Vol 5
Used drive : LITE-ON LTR-52327S Adapter: 0 ID: 1
Read mode : Secure
Utilize accurate stream : Yes
Defeat audio cache : Yes
Make use of C2 pointers : No
Read offset correction : 6
Overread into Lead-In and Lead-Out : No
Fill up missing offset samples with silence : Yes
Delete leading and trailing silent blocks : No
Null samples used in CRC calculations : Yes
Used interface : Native Win32 interface for Win NT & 2000
Used output format : Internal WAV Routines
Sample format : 44.100 Hz; 16 Bit; Stereo
TOC of the extracted CD
Track | Start | Length | Start sector | End sector
---------------------------------------------------------
1 | 0:00.33 | 2:47.35 | 33 | 12592
2 | 2:47.68 | 3:05.25 | 12593 | 26492
3 | 5:53.18 | 2:38.45 | 26493 | 38387
4 | 8:31.63 | 2:31.47 | 38388 | 49759
5 | 11:03.35 | 3:00.53 | 49760 | 63312
6 | 14:04.13 | 2:58.47 | 63313 | 76709
7 | 17:02.60 | 2:36.35 | 76710 | 88444
8 | 19:39.20 | 2:49.28 | 88445 | 101147
9 | 22:28.48 | 2:54.00 | 101148 | 114197
10 | 25:22.48 | 2:36.72 | 114198 | 125969
11 | 27:59.45 | 2:28.43 | 125970 | 137112
12 | 30:28.13 | 2:26.62 | 137113 | 148124
13 | 32:55.00 | 2:33.03 | 148125 | 159602
14 | 35:28.03 | 2:31.37 | 159603 | 170964
15 | 37:59.40 | 2:41.25 | 170965 | 183064
16 | 40:40.65 | 3:00.15 | 183065 | 196579
17 | 43:41.05 | 2:30.40 | 196580 | 207869
18 | 46:11.45 | 3:28.45 | 207870 | 223514
19 | 49:40.15 | 2:29.08 | 223515 | 234697
20 | 52:09.23 | 2:34.35 | 234698 | 246282
21 | 54:43.58 | 3:18.12 | 246283 | 261144
22 | 58:01.70 | 2:26.40 | 261145 | 272134
23 | 60:28.35 | 2:41.43 | 272135 | 284252
24 | 63:10.03 | 2:41.45 | 284253 | 296372
25 | 65:51.48 | 3:07.27 | 296373 | 310424
26 | 68:59.00 | 2:42.33 | 310425 | 322607
27 | 71:41.33 | 2:30.10 | 322608 | 333867
Range status and errors
Selected range
Filename D:\My Rips\Various - Atlantic Rhythm & Blues 1947-1974, Vol 5.wav
Peak level 99.6 %
Extraction speed 9.3 X
Range quality 100.0 %
Test CRC 2CC9869D
Copy CRC 2CC9869D
Copy OK
No errors occurred
AccurateRip summary
Track 1 accurately ripped (confidence 20) [9777D354] (AR v1)
Track 2 accurately ripped (confidence 18) [2236E568] (AR v1)
Track 3 accurately ripped (confidence 18) [7497B085] (AR v1)
Track 4 accurately ripped (confidence 18) [C0CBB348] (AR v1)
Track 5 accurately ripped (confidence 18) [9B733F16] (AR v1)
Track 6 accurately ripped (confidence 18) [22CD607E] (AR v1)
Track 7 accurately ripped (confidence 19) [1B6DF31D] (AR v1)
Track 8 accurately ripped (confidence 18) [C411ADF9] (AR v1)
Track 9 accurately ripped (confidence 19) [FDD42131] (AR v1)
Track 10 accurately ripped (confidence 19) [EAF34820] (AR v1)
Track 11 accurately ripped (confidence 19) [3C8AA0DA] (AR v1)
Track 12 accurately ripped (confidence 21) [B078026D] (AR v1)
Track 13 accurately ripped (confidence 20) [E21AB484] (AR v1)
Track 14 accurately ripped (confidence 18) [14654EAA] (AR v1)
Track 15 accurately ripped (confidence 20) [07F1A30D] (AR v1)
Track 16 accurately ripped (confidence 20) [C62291CF] (AR v1)
Track 17 accurately ripped (confidence 20) [80980C00] (AR v1)
Track 18 accurately ripped (confidence 19) [34DF8866] (AR v1)
Track 19 accurately ripped (confidence 18) [EC0EECB3] (AR v1)
Track 20 accurately ripped (confidence 18) [9AAD370E] (AR v1)
Track 21 accurately ripped (confidence 19) [CA8253BA] (AR v1)
Track 22 accurately ripped (confidence 20) [0A6FD32A] (AR v1)
Track 23 accurately ripped (confidence 18) [733326D0] (AR v1)
Track 24 accurately ripped (confidence 18) [C29C80C3] (AR v1)
Track 25 accurately ripped (confidence 19) [28741F2E] (AR v1)
Track 26 accurately ripped (confidence 19) [640FA55A] (AR v1)
Track 27 accurately ripped (confidence 19) [289874A9] (AR v1)
All tracks accurately ripped
End of status report
==== Log checksum 31B6B1BA56A9689049C0C63168B9FF3751296BD519F2D88CF7915EB85EDF473D ====
 
Содержание индексной карты (.CUE)
REM GENRE R&B
REM DATE 1991
REM DISCID 7011631B
REM COMMENT "ExactAudioCopy v1.0b2"
PERFORMER "Various"
TITLE "Atlantic Rhythm & Blues 1947-1974, Vol 5"
FILE "Various - Atlantic Rhythm & Blues 1947-1974, Vol 5.flac" WAVE
TRACK 01 AUDIO
TITLE "Little Egypt"
PERFORMER "Coasters"
INDEX 00 00:00:00
INDEX 01 00:00:33
TRACK 02 AUDIO
TITLE "Amor"
PERFORMER "Ben E. King"
INDEX 00 02:46:38
INDEX 01 02:47:68
TRACK 03 AUDIO
TITLE "Last Night"
PERFORMER "Mar-Keys"
INDEX 00 05:52:70
INDEX 01 05:53:18
TRACK 04 AUDIO
TITLE "I'm Blue"
PERFORMER "Ikettes"
INDEX 00 08:30:45
INDEX 01 08:31:63
TRACK 05 AUDIO
TITLE "You Don't Miss Your Water"
PERFORMER "William Bell"
INDEX 00 11:01:53
INDEX 01 11:03:35
TRACK 06 AUDIO
TITLE "I Found A Love"
PERFORMER "Falcons"
INDEX 00 14:03:13
INDEX 01 14:04:13
TRACK 07 AUDIO
TITLE "Cry To Me"
PERFORMER "Solomon Burke"
INDEX 00 17:00:35
INDEX 01 17:02:60
TRACK 08 AUDIO
TITLE "Don't Play That Song (You Lied)"
PERFORMER "Ben E. King"
INDEX 00 19:38:03
INDEX 01 19:39:20
TRACK 09 AUDIO
TITLE "Green Onions"
PERFORMER "Booker T. & The MG's"
INDEX 00 22:27:20
INDEX 01 22:28:48
TRACK 10 AUDIO
TITLE "Up On The Roof"
PERFORMER "Drifters"
INDEX 00 25:20:68
INDEX 01 25:22:48
TRACK 11 AUDIO
TITLE "See See Rider"
PERFORMER "LaVern Baker"
INDEX 00 27:58:58
INDEX 01 27:59:45
TRACK 12 AUDIO
TITLE "I (Who Have Nothing)"
PERFORMER "Ben E. King"
INDEX 00 30:27:55
INDEX 01 30:28:13
TRACK 13 AUDIO
TITLE "If You Need Me"
PERFORMER "Solomon Burke"
INDEX 01 32:55:00
TRACK 14 AUDIO
TITLE "These Arms Of Mine"
PERFORMER "Otis Redding"
INDEX 00 35:26:20
INDEX 01 35:28:03
TRACK 15 AUDIO
TITLE "Hello Stranger"
PERFORMER "Barbara Lewis"
INDEX 00 37:59:03
INDEX 01 37:59:40
TRACK 16 AUDIO
TITLE "On Broadway"
PERFORMER "Drifters"
INDEX 00 40:40:45
INDEX 01 40:40:65
TRACK 17 AUDIO
TITLE "Just One Look"
PERFORMER "Doris Troy"
INDEX 00 43:40:00
INDEX 01 43:41:05
TRACK 18 AUDIO
TITLE "Mashed Potatoes"
PERFORMER "Nat Kendrick & The Swans"
INDEX 01 46:11:45
TRACK 19 AUDIO
TITLE "Land Of 1000 Dances"
PERFORMER "Chris Kenner"
INDEX 00 49:38:65
INDEX 01 49:40:15
TRACK 20 AUDIO
TITLE "Walking The Dog"
PERFORMER "Rufus Thomas"
INDEX 00 52:08:03
INDEX 01 52:09:23
TRACK 21 AUDIO
TITLE "Release Me"
PERFORMER "Esther Phillips"
INDEX 00 54:43:45
INDEX 01 54:43:58
TRACK 22 AUDIO
TITLE "Mercy Mercy"
PERFORMER "Don Covay"
INDEX 00 58:01:08
INDEX 01 58:01:70
TRACK 23 AUDIO
TITLE "Under The Boardwalk"
PERFORMER "Drifters"
INDEX 00 60:26:65
INDEX 01 60:28:35
TRACK 24 AUDIO
TITLE "And I Love Him"
PERFORMER "Esther Phillips"
INDEX 00 63:08:70
INDEX 01 63:10:03
TRACK 25 AUDIO
TITLE "Hold What You've Got"
PERFORMER "Joe Tex"
INDEX 00 65:50:25
INDEX 01 65:51:48
TRACK 26 AUDIO
TITLE "Mr. Pitiful"
PERFORMER "Otis Redding"
INDEX 00 68:57:08
INDEX 01 68:59:00
TRACK 27 AUDIO
TITLE "Baby I'm Yours"
PERFORMER "Barbara Lewis"
INDEX 00 71:40:20
INDEX 01 71:41:33
 
Volume 6 - 1965-1967
Продолжительность: 74:45
Треклист:
01. Teasin' You (Willie Tee) (2:47)
02. Got To Get You Off My Mind (Solomon Burke) (1:59)
03. I Want To Do Everything For You (Joe Tex) (2:11)
04. I've Been Loving You Too Long (Otis Redding) (3:14)
05. A Sweet Woman Like You (Joe Tex) (2:39)
06. In The Midnight Hour (Wilson Pickett) (2:40)
07. See Saw (Don Covay) (3:02)
08. Respect (Otis Redding) (2:08)
09. You Don't Know Like I Know (Sam & Dave) (2:32)
10. When A Man Loves A Woman (Percy Sledge) (2:53)
11. 634-5789 (Soulsville U.S.A.) (Wilson Pickett) (2:58)
12. Hold On I'm Comin' (Sam & Dave) (2:33)
13. Cool Jerk (Capitols) (2:36)
14. Neighbor Neighbor (Jimmy Hughes) (2:41)
15. Land Of 1000 Dances (Wilson Pickett) (2:26)
16. Knock On Wood (Eddie Floyd) (3:06)
17. Try A Little Tenderness (Otis Redding) (3:51)
18. Mustang Sally (Wilson Pickett) (3:07)
19. When Something Is Wrong With My Baby (Sam & Dave) (3:18)
20. Sweet Soul Music (Arthur Conley) (2:23)
21. I Never Loved A Man (The Way I Love You) (Aretha Franklin) (2:45)
22. Do Right Woman, Do Right Man (Aretha Franklin) (3:17)
23. Show Me (Joe Tex) (2:57)
24. Tramp (Otis Redding & Carla Thomas) (3:02)
25. Funky Broadway (Wilson Pickett) (2:37)
26. Hip Hug-Her (Booker T. & The MG's) (2:25)
27. Soul Man (Sam & Dave) (2:37)
 
 
Лог создания рипа
Exact Audio Copy V1.0 beta 2 from 29. April 2011
EAC extraction logfile from 15. January 2013, 20:20
Various / Atlantic Rhythm & Blues 1947-1974, Vol 6
Used drive : LITE-ON LTR-52327S Adapter: 0 ID: 1
Read mode : Secure
Utilize accurate stream : Yes
Defeat audio cache : Yes
Make use of C2 pointers : No
Read offset correction : 6
Overread into Lead-In and Lead-Out : No
Fill up missing offset samples with silence : Yes
Delete leading and trailing silent blocks : No
Null samples used in CRC calculations : Yes
Used interface : Native Win32 interface for Win NT & 2000
Used output format : Internal WAV Routines
Sample format : 44.100 Hz; 16 Bit; Stereo
TOC of the extracted CD
Track | Start | Length | Start sector | End sector
---------------------------------------------------------
1 | 0:00.32 | 2:46.38 | 32 | 12519
2 | 2:46.70 | 1:59.05 | 12520 | 21449
3 | 4:46.00 | 2:11.25 | 21450 | 31299
4 | 6:57.25 | 3:14.35 | 31300 | 45884
5 | 10:11.60 | 2:39.02 | 45885 | 57811
6 | 12:50.62 | 2:39.53 | 57812 | 69789
7 | 15:30.40 | 3:02.02 | 69790 | 83441
8 | 18:32.42 | 2:07.63 | 83442 | 93029
9 | 20:40.30 | 2:32.32 | 93030 | 104461
10 | 23:12.62 | 2:53.03 | 104462 | 117439
11 | 26:05.65 | 2:58.35 | 117440 | 130824
12 | 29:04.25 | 2:33.02 | 130825 | 142301
13 | 31:37.27 | 2:36.00 | 142302 | 154001
14 | 34:13.27 | 2:40.73 | 154002 | 166074
15 | 36:54.25 | 2:26.07 | 166075 | 177031
16 | 39:20.32 | 3:05.65 | 177032 | 190971
17 | 42:26.22 | 3:50.48 | 190972 | 208269
18 | 46:16.70 | 3:07.35 | 208270 | 222329
19 | 49:24.30 | 3:18.07 | 222330 | 237186
20 | 52:42.37 | 2:23.03 | 237187 | 247914
21 | 55:05.40 | 2:44.47 | 247915 | 260261
22 | 57:50.12 | 3:17.05 | 260262 | 275041
23 | 61:07.17 | 2:57.13 | 275042 | 288329
24 | 64:04.30 | 3:02.15 | 288330 | 301994
25 | 67:06.45 | 2:36.40 | 301995 | 313734
26 | 69:43.10 | 2:25.32 | 313735 | 324641
27 | 72:08.42 | 2:36.63 | 324642 | 336404
Range status and errors
Selected range
Filename D:\My Rips\Various - Atlantic Rhythm & Blues 1947-1974, Vol 6.wav
Peak level 97.9 %
Extraction speed 9.2 X
Range quality 100.0 %
Test CRC E1D37B66
Copy CRC E1D37B66
Copy OK
No errors occurred
AccurateRip summary
Track 1 accurately ripped (confidence 16) [59750FC4] (AR v1)
Track 2 accurately ripped (confidence 17) [F6A8131E] (AR v1)
Track 3 accurately ripped (confidence 17) [C89CA2E6] (AR v1)
Track 4 accurately ripped (confidence 18) [82680F8C] (AR v1)
Track 5 accurately ripped (confidence 17) [473DF13A] (AR v1)
Track 6 accurately ripped (confidence 2) [055031CB] (AR v2)
Track 7 accurately ripped (confidence 18) [B0D7256F] (AR v1)
Track 8 accurately ripped (confidence 18) [378B0991] (AR v1)
Track 9 accurately ripped (confidence 17) [8E969356] (AR v1)
Track 10 accurately ripped (confidence 18) [63E83090] (AR v1)
Track 11 accurately ripped (confidence 2) [B6C6DBEE] (AR v2)
Track 12 accurately ripped (confidence 18) [F513C8E0] (AR v1)
Track 13 accurately ripped (confidence 18) [B2886432] (AR v1)
Track 14 accurately ripped (confidence 17) [F4D2DEE1] (AR v1)
Track 15 accurately ripped (confidence 17) [FE3F0D85] (AR v1)
Track 16 accurately ripped (confidence 18) [EC919DCB] (AR v1)
Track 17 accurately ripped (confidence 18) [D5F1C49C] (AR v1)
Track 18 accurately ripped (confidence 17) [04F25A15] (AR v1)
Track 19 accurately ripped (confidence 18) [67105445] (AR v1)
Track 20 accurately ripped (confidence 18) [34C8A70B] (AR v1)
Track 21 accurately ripped (confidence 18) [2774F787] (AR v1)
Track 22 accurately ripped (confidence 18) [EF2DF0A8] (AR v1)
Track 23 accurately ripped (confidence 18) [100D8033] (AR v1)
Track 24 accurately ripped (confidence 18) [76CE25E0] (AR v1)
Track 25 accurately ripped (confidence 17) [81E4C8AE] (AR v1)
Track 26 accurately ripped (confidence 18) [CC7B4AC6] (AR v1)
Track 27 accurately ripped (confidence 2) [69223986] (AR v2)
All tracks accurately ripped
End of status report
==== Log checksum 659445CB3C0EB462C536E5CFEA05AD59B6D312C5152D08B70894C86CE278BE1C ====
 
Содержание индексной карты (.CUE)
REM GENRE R&B
REM DATE 1991
REM DISCID A311851B
REM COMMENT "ExactAudioCopy v1.0b2"
PERFORMER "Various"
TITLE "Atlantic Rhythm & Blues 1947-1974, Vol 6"
FILE "Various - Atlantic Rhythm & Blues 1947-1974, Vol 6.flac" WAVE
TRACK 01 AUDIO
TITLE "Teasin' You"
PERFORMER "Willie Tee"
INDEX 00 00:00:00
INDEX 01 00:00:32
TRACK 02 AUDIO
TITLE "Got To Get You Off My Mind"
PERFORMER "Solomon Burke"
INDEX 00 02:44:20
INDEX 01 02:46:70
TRACK 03 AUDIO
TITLE "I Want To Do Everything For You"
PERFORMER "Joe Tex"
INDEX 00 04:43:22
INDEX 01 04:46:00
TRACK 04 AUDIO
TITLE "I've Been Loving You Too Long"
PERFORMER "Otis Redding"
INDEX 00 06:54:50
INDEX 01 06:57:25
TRACK 05 AUDIO
TITLE "A Sweet Woman Like You"
PERFORMER "Joe Tex"
INDEX 00 10:09:10
INDEX 01 10:11:60
TRACK 06 AUDIO
TITLE "In The Midnight Hour"
PERFORMER "Wilson Pickett"
INDEX 00 12:48:12
INDEX 01 12:50:62
TRACK 07 AUDIO
TITLE "See Saw"
PERFORMER "Don Covay"
INDEX 00 15:27:65
INDEX 01 15:30:40
TRACK 08 AUDIO
TITLE "Respect"
PERFORMER "Otis Redding"
INDEX 00 18:29:65
INDEX 01 18:32:42
TRACK 09 AUDIO
TITLE "You Don't Know Like I Know"
PERFORMER "Sam & Dave"
INDEX 00 20:37:55
INDEX 01 20:40:30
TRACK 10 AUDIO
TITLE "When A Man Loves A Woman"
PERFORMER "Percy Sledge"
INDEX 00 23:10:12
INDEX 01 23:12:62
TRACK 11 AUDIO
TITLE "634-5789 (Soulsville U.S.A.)"
PERFORMER "Wilson Pickett"
INDEX 00 26:03:12
INDEX 01 26:05:65
TRACK 12 AUDIO
TITLE "Hold On I'm Comin'"
PERFORMER "Sam & Dave"
INDEX 00 29:01:47
INDEX 01 29:04:25
TRACK 13 AUDIO
TITLE "Cool Jerk"
PERFORMER "Capitols"
INDEX 00 31:34:52
INDEX 01 31:37:27
TRACK 14 AUDIO
TITLE "Neighbor Neighbor"
PERFORMER "Jimmy Hughes"
INDEX 00 34:10:50
INDEX 01 34:13:27
TRACK 15 AUDIO
TITLE "Land Of 1000 Dances"
PERFORMER "Wilson Pickett"
INDEX 00 36:51:47
INDEX 01 36:54:25
TRACK 16 AUDIO
TITLE "Knock On Wood"
PERFORMER "Eddie Floyd"
INDEX 00 39:17:55
INDEX 01 39:20:32
TRACK 17 AUDIO
TITLE "Try A Little Tenderness"
PERFORMER "Otis Redding"
INDEX 00 42:23:15
INDEX 01 42:26:22
TRACK 18 AUDIO
TITLE "Mustang Sally"
PERFORMER "Wilson Pickett"
INDEX 00 46:15:12
INDEX 01 46:16:70
TRACK 19 AUDIO
TITLE "When Something Is Wrong With My Baby"
PERFORMER "Sam & Dave"
INDEX 00 49:21:55
INDEX 01 49:24:30
TRACK 20 AUDIO
TITLE "Sweet Soul Music"
PERFORMER "Arthur Conley"
INDEX 00 52:39:60
INDEX 01 52:42:37
TRACK 21 AUDIO
TITLE "I Never Loved A Man (The Way I Love You)"
PERFORMER "Aretha Franklin"
INDEX 00 55:02:65
INDEX 01 55:05:40
TRACK 22 AUDIO
TITLE "Do Right Woman, Do Right Man"
PERFORMER "Aretha Franklin"
INDEX 00 57:47:35
INDEX 01 57:50:12
TRACK 23 AUDIO
TITLE "Show Me"
PERFORMER "Joe Tex"
INDEX 00 61:04:17
INDEX 01 61:07:17
TRACK 24 AUDIO
TITLE "Tramp"
PERFORMER "Otis Redding & Carla Thomas"
INDEX 00 64:01:32
INDEX 01 64:04:30
TRACK 25 AUDIO
TITLE "Funky Broadway"
PERFORMER "Wilson Pickett"
INDEX 00 67:04:20
INDEX 01 67:06:45
TRACK 26 AUDIO
TITLE "Hip Hug-Her"
PERFORMER "Booker T. & The MG's"
INDEX 00 69:40:35
INDEX 01 69:43:10
TRACK 27 AUDIO
TITLE "Soul Man"
PERFORMER "Sam & Dave"
INDEX 00 72:05:67
INDEX 01 72:08:42
 
Volume 7 - 1967-1969
Продолжительность: 73:18
Треклист:
01. Respect (Aretha Franklin) (2:28)
02. (You Make Me Feel Like) A Natural Woman (Aretha Franklin) (2:44)
03. Soul Finger (Bar-Kays) (2:23)
04. Baby I Love You (Aretha Franklin) (2:40)
05. Skinny Legs And All (Joe Tex) (3:13)
06. Chain Of Fools (Aretha Franklin) (2:48)
07. I'm In Love (Wilson Pickett) (2:31)
08. Memphis Soul Stew (King Curtis) (3:00)
09. (Sweet Sweet Baby) Since You've Been Gone (Aretha Franklin) (2:26)
10. (Sittin' On) The Dock Of The Bay (Otis Redding) (2:45)
11. Tighten Up (Archie Bell & The Drells) (3:14)
12. Slip Away (Clarence Carter) (2:31)
13. Think (Aretha Franklin) (2:19)
14. Too Weak To Fight (Clarence Carter) (2:18)
15. Can I Change My Mind (Tyrone Davis) (2:49)
16. The First Time Ever I Saw Your Face (Roberta Flack) (4:22)
17. Take A Letter Maria (R.B. Greaves) (2:44)
18. Rainy Night In Georgia (Brook Benton) (3:53)
19. The Ghetto (Donny Hathaway) (6:54)
20. Turn Back The Hands Of Time (Tyrone Davis) (2:41)
21. Compared To What (Les McCann & Eddie Harris) (8:43)
22. Call Me (Aretha Franklin) (3:52)
 
 
Лог создания рипа
Exact Audio Copy V1.0 beta 2 from 29. April 2011
EAC extraction logfile from 15. January 2013, 20:47
Various / Atlantic Rhythm & Blues 1947-1974, Vol 7
Used drive : LITE-ON LTR-52327S Adapter: 0 ID: 1
Read mode : Secure
Utilize accurate stream : Yes
Defeat audio cache : Yes
Make use of C2 pointers : No
Read offset correction : 6
Overread into Lead-In and Lead-Out : No
Fill up missing offset samples with silence : Yes
Delete leading and trailing silent blocks : No
Null samples used in CRC calculations : Yes
Used interface : Native Win32 interface for Win NT & 2000
Used output format : Internal WAV Routines
Sample format : 44.100 Hz; 16 Bit; Stereo
TOC of the extracted CD
Track | Start | Length | Start sector | End sector
---------------------------------------------------------
1 | 0:00.32 | 2:27.48 | 32 | 11104
2 | 2:28.05 | 2:43.40 | 11105 | 23369
3 | 5:11.45 | 2:22.62 | 23370 | 34081
4 | 7:34.32 | 2:39.68 | 34082 | 46074
5 | 10:14.25 | 3:12.55 | 46075 | 60529
6 | 13:27.05 | 2:48.27 | 60530 | 73156
7 | 16:15.32 | 2:31.00 | 73157 | 84481
8 | 18:46.32 | 2:59.63 | 84482 | 97969
9 | 21:46.20 | 2:25.70 | 97970 | 108914
10 | 24:12.15 | 2:44.55 | 108915 | 121269
11 | 26:56.70 | 3:14.17 | 121270 | 135836
12 | 30:11.12 | 2:31.28 | 135837 | 147189
13 | 32:42.40 | 2:19.10 | 147190 | 157624
14 | 35:01.50 | 2:18.27 | 157625 | 168001
15 | 37:20.02 | 2:49.35 | 168002 | 180711
16 | 40:09.37 | 4:21.48 | 180712 | 200334
17 | 44:31.10 | 2:44.17 | 200335 | 212651
18 | 47:15.27 | 3:52.55 | 212652 | 230106
19 | 51:08.07 | 6:53.60 | 230107 | 261141
20 | 58:01.67 | 2:41.03 | 261142 | 273219
21 | 60:42.70 | 8:42.60 | 273220 | 312429
22 | 69:25.55 | 3:52.37 | 312430 | 329866
Range status and errors
Selected range
Filename D:\My Rips\Various - Atlantic Rhythm & Blues 1947-1974, Vol 7.wav
Peak level 96.2 %
Extraction speed 7.1 X
Range quality 100.0 %
Test CRC 57985F0C
Copy CRC 57985F0C
Copy OK
No errors occurred
AccurateRip summary
Track 1 accurately ripped (confidence 16) [1AA16195] (AR v1)
Track 2 accurately ripped (confidence 17) [17BF30EC] (AR v1)
Track 3 accurately ripped (confidence 18) [1E669A64] (AR v1)
Track 4 accurately ripped (confidence 18) [6EF504A9] (AR v1)
Track 5 accurately ripped (confidence 18) [3E825CD3] (AR v1)
Track 6 accurately ripped (confidence 18) [FA548600] (AR v1)
Track 7 accurately ripped (confidence 18) [8C9BFE62] (AR v1)
Track 8 accurately ripped (confidence 18) [EF860EBB] (AR v1)
Track 9 accurately ripped (confidence 18) [983EBCBA] (AR v1)
Track 10 accurately ripped (confidence 2) [CD90A39E] (AR v2)
Track 11 accurately ripped (confidence 18) [F2A8DBC9] (AR v1)
Track 12 accurately ripped (confidence 18) [AB1C012F] (AR v1)
Track 13 accurately ripped (confidence 18) [6DBC49CC] (AR v1)
Track 14 accurately ripped (confidence 18) [5FE8510A] (AR v1)
Track 15 accurately ripped (confidence 18) [524C6B91] (AR v1)
Track 16 accurately ripped (confidence 18) [E73A7005] (AR v1)
Track 17 accurately ripped (confidence 18) [531E9BEC] (AR v1)
Track 18 accurately ripped (confidence 18) [CFC84C68] (AR v1)
Track 19 accurately ripped (confidence 18) [4AAED12C] (AR v1)
Track 20 accurately ripped (confidence 17) [7FB6F72F] (AR v1)
Track 21 accurately ripped (confidence 17) [B1621D0B] (AR v1)
Track 22 accurately ripped (confidence 16) [C11B3C14] (AR v1)
All tracks accurately ripped
End of status report
==== Log checksum EC95F5DACD1C4360F77E520B9D213FC3EC1D5F2A52D10F5AB021E723FB939C20 ====
 
Содержание индексной карты (.CUE)
REM GENRE R&B
REM DATE 1991
REM DISCID 28112E16
REM COMMENT "ExactAudioCopy v1.0b2"
PERFORMER "Various"
TITLE "Atlantic Rhythm & Blues 1947-1974, Vol 7"
FILE "Various - Atlantic Rhythm & Blues 1947-1974, Vol 7.flac" WAVE
TRACK 01 AUDIO
TITLE "Respect"
PERFORMER "Aretha Franklin"
INDEX 00 00:00:00
INDEX 01 00:00:32
TRACK 02 AUDIO
TITLE "(You Make Me Feel Like) A Natural Woman"
PERFORMER "Aretha Franklin"
INDEX 00 02:25:30
INDEX 01 02:28:05
TRACK 03 AUDIO
TITLE "Soul Finger"
PERFORMER "Bar-Kays"
INDEX 00 05:08:47
INDEX 01 05:11:45
TRACK 04 AUDIO
TITLE "Baby I Love You"
PERFORMER "Aretha Franklin"
INDEX 00 07:31:47
INDEX 01 07:34:32
TRACK 05 AUDIO
TITLE "Skinny Legs And All"
PERFORMER "Joe Tex"
INDEX 00 10:11:52
INDEX 01 10:14:25
TRACK 06 AUDIO
TITLE "Chain Of Fools"
PERFORMER "Aretha Franklin"
INDEX 00 13:24:20
INDEX 01 13:27:05
TRACK 07 AUDIO
TITLE "I'm In Love"
PERFORMER "Wilson Pickett"
INDEX 00 16:12:00
INDEX 01 16:15:32
TRACK 08 AUDIO
TITLE "Memphis Soul Stew"
PERFORMER "King Curtis"
INDEX 00 18:43:45
INDEX 01 18:46:32
TRACK 09 AUDIO
TITLE "(Sweet Sweet Baby) Since You've Been Gone"
PERFORMER "Aretha Franklin"
INDEX 00 21:43:32
INDEX 01 21:46:20
TRACK 10 AUDIO
TITLE "(Sittin' On) The Dock Of The Bay"
PERFORMER "Otis Redding"
INDEX 00 24:09:40
INDEX 01 24:12:15
TRACK 11 AUDIO
TITLE "Tighten Up"
PERFORMER "Archie Bell & The Drells"
INDEX 00 26:53:55
INDEX 01 26:56:70
TRACK 12 AUDIO
TITLE "Slip Away"
PERFORMER "Clarence Carter"
INDEX 00 30:08:00
INDEX 01 30:11:12
TRACK 13 AUDIO
TITLE "Think"
PERFORMER "Aretha Franklin"
INDEX 00 32:39:45
INDEX 01 32:42:40
TRACK 14 AUDIO
TITLE "Too Weak To Fight"
PERFORMER "Clarence Carter"
INDEX 00 34:58:72
INDEX 01 35:01:50
TRACK 15 AUDIO
TITLE "Can I Change My Mind"
PERFORMER "Tyrone Davis"
INDEX 00 37:17:30
INDEX 01 37:20:02
TRACK 16 AUDIO
TITLE "The First Time Ever I Saw Your Face"
PERFORMER "Roberta Flack"
INDEX 00 40:07:12
INDEX 01 40:09:37
TRACK 17 AUDIO
TITLE "Take A Letter Maria"
PERFORMER "R.B. Greaves"
INDEX 00 44:27:50
INDEX 01 44:31:10
TRACK 18 AUDIO
TITLE "Rainy Night In Georgia"
PERFORMER "Brook Benton"
INDEX 00 47:12:20
INDEX 01 47:15:27
TRACK 19 AUDIO
TITLE "The Ghetto"
PERFORMER "Donny Hathaway"
INDEX 00 51:05:17
INDEX 01 51:08:07
TRACK 20 AUDIO
TITLE "Turn Back The Hands Of Time"
PERFORMER "Tyrone Davis"
INDEX 00 57:58:67
INDEX 01 58:01:67
TRACK 21 AUDIO
TITLE "Compared To What"
PERFORMER "Les McCann & Eddie Harris"
INDEX 00 60:40:10
INDEX 01 60:42:70
TRACK 22 AUDIO
TITLE "Call Me"
PERFORMER "Aretha Franklin"
INDEX 00 69:22:47
INDEX 01 69:25:55
 
Volume 8 - 1970-1974
Продолжительность: 73:25
Треклист:
01. Don't Play That Song (Aretha Franklin) (3:00)
02. Precious, Precious (Jackie Moore) (3:29)
03. Groove Me (King Floyd) (3:04)
04. Patches (Clarence Carter) (3:13)
05. Don't Knock My Love (Part 1) (Wilson Pickett) (2:25)
06. Funky Nassau (Parts 1 & 2) (Beginning Of The End) (5:14)
07. Thin Line Between Love And Hate (Persuaders) (3:27)
08. Rock Steady (Aretha Franklin) (3:14)
09. Day Dreaming (Aretha Franklin) (4:02)
10. You've Got A Friend (Roberta Flack & Donny Hathaway) (3:26)
11. Clean Up Woman (Betty Wright) (2:49)
12. Could It Be I'm Falling In Love (Spinners) (4:13)
13. Killing Me Softly With His Song (Roberta Flack) (4:49)
14. Where Is The Love (Roberta Flack & Donny Hathaway) (2:47)
15. I'll Be Around (Spinners) (3:12)
16. Feel Like Makin' Love (Roberta Flack) (2:57)
17. One Of A Kind (Love Affair) (Spinners) (3:23)
18. Sideshow (Blue Magic) (4:12)
19. Mighty Love (Spinners) (4:59)
20. Love Won't Let Me Wait (Major Harris) (5:31)
 
 
Лог создания рипа
Exact Audio Copy V1.0 beta 2 from 29. April 2011
EAC extraction logfile from 15. January 2013, 21:10
Various / Atlantic Rhythm & Blues 1947-1974, Vol 8
Used drive : LITE-ON LTR-52327S Adapter: 0 ID: 1
Read mode : Secure
Utilize accurate stream : Yes
Defeat audio cache : Yes
Make use of C2 pointers : No
Read offset correction : 6
Overread into Lead-In and Lead-Out : No
Fill up missing offset samples with silence : Yes
Delete leading and trailing silent blocks : No
Null samples used in CRC calculations : Yes
Used interface : Native Win32 interface for Win NT & 2000
Used output format : Internal WAV Routines
Sample format : 44.100 Hz; 16 Bit; Stereo
TOC of the extracted CD
Track | Start | Length | Start sector | End sector
---------------------------------------------------------
1 | 0:00.32 | 3:00.20 | 32 | 13551
2 | 3:00.52 | 3:29.03 | 13552 | 29229
3 | 6:29.55 | 3:03.62 | 29230 | 43016
4 | 9:33.42 | 3:12.68 | 43017 | 57484
5 | 12:46.35 | 2:24.42 | 57485 | 68326
6 | 15:11.02 | 5:13.45 | 68327 | 91846
7 | 20:24.47 | 3:26.58 | 91847 | 107354
8 | 23:51.30 | 3:13.55 | 107355 | 121884
9 | 27:05.10 | 4:02.15 | 121885 | 140049
10 | 31:07.25 | 3:26.37 | 140050 | 155536
11 | 34:33.62 | 2:48.60 | 155537 | 168196
12 | 37:22.47 | 4:12.60 | 168197 | 187156
13 | 41:35.32 | 4:49.10 | 187157 | 208841
14 | 46:24.42 | 2:46.38 | 208842 | 221329
15 | 49:11.05 | 3:11.55 | 221330 | 235709
16 | 52:22.60 | 2:57.30 | 235710 | 249014
17 | 55:20.15 | 3:23.20 | 249015 | 264259
18 | 58:43.35 | 4:11.45 | 264260 | 283129
19 | 62:55.05 | 4:59.35 | 283130 | 305589
20 | 67:54.40 | 5:30.52 | 305590 | 330391
Range status and errors
Selected range
Filename D:\My Rips\Various - Atlantic Rhythm & Blues 1947-1974, Vol 8.wav
Peak level 100.0 %
Extraction speed 10.4 X
Range quality 99.9 %
Test CRC 66461A32
Copy CRC 66461A32
Copy OK
No errors occurred
AccurateRip summary
Track 1 accurately ripped (confidence 13) [DFE4C3F0] (AR v1)
Track 2 accurately ripped (confidence 14) [252FEB49] (AR v1)
Track 3 accurately ripped (confidence 14) [D4F5116C] (AR v1)
Track 4 accurately ripped (confidence 14) [9EA22D05] (AR v1)
Track 5 accurately ripped (confidence 14) [FD72611D] (AR v1)
Track 6 accurately ripped (confidence 14) [A2D54D99] (AR v1)
Track 7 accurately ripped (confidence 15) [DFF057AD] (AR v1)
Track 8 accurately ripped (confidence 15) [C3EE316A] (AR v1)
Track 9 accurately ripped (confidence 15) [AD9AEED6] (AR v1)
Track 10 accurately ripped (confidence 15) [AA7A40DF] (AR v1)
Track 11 accurately ripped (confidence 15) [5E0C74B5] (AR v1)
Track 12 accurately ripped (confidence 15) [22462775] (AR v1)
Track 13 accurately ripped (confidence 15) [42B81360] (AR v1)
Track 14 accurately ripped (confidence 15) [107E588A] (AR v1)
Track 15 accurately ripped (confidence 15) [BB592497] (AR v1)
Track 16 accurately ripped (confidence 15) [45446F3B] (AR v1)
Track 17 accurately ripped (confidence 15) [ECA0AA82] (AR v1)
Track 18 accurately ripped (confidence 15) [D7279483] (AR v1)
Track 19 accurately ripped (confidence 15) [6C2B0336] (AR v1)
Track 20 accurately ripped (confidence 15) [6731F275] (AR v1)
All tracks accurately ripped
End of status report
==== Log checksum 97391EFB8563026C8FF347C0492387C70AAF2A6B54A4B0EEAFDEE56208D20D40 ====
 
Содержание индексной карты (.CUE)
REM GENRE R&B
REM DATE 1991
REM DISCID 34113514
REM COMMENT "ExactAudioCopy v1.0b2"
PERFORMER "Various"
TITLE "Atlantic Rhythm & Blues 1947-1974, Vol 8"
FILE "Various - Atlantic Rhythm & Blues 1947-1974, Vol 8.flac" WAVE
TRACK 01 AUDIO
TITLE "Don't Play That Song"
PERFORMER "Aretha Franklin"
INDEX 00 00:00:00
INDEX 01 00:00:32
TRACK 02 AUDIO
TITLE "Precious, Precious"
PERFORMER "Jackie Moore"
INDEX 00 02:58:02
INDEX 01 03:00:52
TRACK 03 AUDIO
TITLE "Groove Me"
PERFORMER "King Floyd"
INDEX 00 06:27:02
INDEX 01 06:29:55
TRACK 04 AUDIO
TITLE "Patches"
PERFORMER "Clarence Carter"
INDEX 00 09:29:65
INDEX 01 09:33:42
TRACK 05 AUDIO
TITLE "Don't Knock My Love (Part 1)"
PERFORMER "Wilson Pickett"
INDEX 00 12:43:60
INDEX 01 12:46:35
TRACK 06 AUDIO
TITLE "Funky Nassau (Parts 1 & 2)"
PERFORMER "Beginning Of The End"
INDEX 00 15:08:27
INDEX 01 15:11:02
INDEX 02 18:23:32
TRACK 07 AUDIO
TITLE "Thin Line Between Love And Hate"
PERFORMER "Persuaders"
INDEX 00 20:21:73
INDEX 01 20:24:47
TRACK 08 AUDIO
TITLE "Rock Steady"
PERFORMER "Aretha Franklin"
INDEX 00 23:47:35
INDEX 01 23:51:30
TRACK 09 AUDIO
TITLE "Day Dreaming"
PERFORMER "Aretha Franklin"
INDEX 00 27:02:35
INDEX 01 27:05:10
TRACK 10 AUDIO
TITLE "You've Got A Friend"
PERFORMER "Roberta Flack & Donny Hathaway"
INDEX 00 31:04:50
INDEX 01 31:07:25
TRACK 11 AUDIO
TITLE "Clean Up Woman"
PERFORMER "Betty Wright"
INDEX 00 34:31:12
INDEX 01 34:33:62
TRACK 12 AUDIO
TITLE "Could It Be I'm Falling In Love"
PERFORMER "Spinners"
INDEX 00 37:20:00
INDEX 01 37:22:47
TRACK 13 AUDIO
TITLE "Killing Me Softly With His Song"
PERFORMER "Roberta Flack"
INDEX 00 41:32:37
INDEX 01 41:35:32
TRACK 14 AUDIO
TITLE "Where Is The Love"
PERFORMER "Roberta Flack & Donny Hathaway"
INDEX 00 46:20:72
INDEX 01 46:24:42
TRACK 15 AUDIO
TITLE "I'll Be Around"
PERFORMER "Spinners"
INDEX 00 49:08:30
INDEX 01 49:11:05
TRACK 16 AUDIO
TITLE "Feel Like Makin' Love"
PERFORMER "Roberta Flack"
INDEX 00 52:20:10
INDEX 01 52:22:60
TRACK 17 AUDIO
TITLE "One Of A Kind (Love Affair)"
PERFORMER "Spinners"
INDEX 00 55:17:40
INDEX 01 55:20:15
TRACK 18 AUDIO
TITLE "Sideshow"
PERFORMER "Blue Magic"
INDEX 00 58:40:60
INDEX 01 58:43:35
TRACK 19 AUDIO
TITLE "Mighty Love"
PERFORMER "Spinners"
INDEX 00 62:52:30
INDEX 01 62:55:05
TRACK 20 AUDIO
TITLE "Love Won't Let Me Wait"
PERFORMER "Major Harris"
INDEX 00 67:51:65
INDEX 01 67:54:40
Приватный:
Нет (DHT включён)
Размер:
6.03 Гб (6,472,921,820 байт) » файлов: 121
Участники:
0 раздают, 0 качают (0 участников всего)
Внешние участники:
5 раздают, 2 качают (7 участников всего) [ Обновить ]
Есть вопросы - пишите личное сообщение пользователю M0p94ok.
09:33
56
Нет комментариев. Ваш будет первым!