Поиск

(Soul, Funk, R&B) [CD] Don Covay - Travelin' In Heavy Traffic (1976) - 1998, FLAC (tracks+.cue), lossless

(Soul, Funk, R&B) [CD] Don Covay - Travelin' In Heavy Traffic (1976) - 1998, FLAC (tracks+.cue), lossless
Треклист:
Don Covay - Travelin' In Heavy Traffic (1976)
Жанр: Soul, Funk, R&B
Носитель: CD
Год издания: 1998
Издатель (лейбл): Sony Records
Аудиокодек: FLAC (*.flac)
Тип рипа: tracks+.cue
Битрейт аудио: lossless
Продолжительность: 40:21
Rip by JET 1
Наличие сканов в содержимом раздачи: да
Треклист:
01. No Tell Motel (6:39)
02. Chocolate Honey (5:36)
03. You Owe It To Your Body (4:05)
04. Travelin' In Heavy Traffic (5:09)
05. Feelings (6:02)
06. Right Time For Love (3:46)
07. Six Million Dollar Fish (4:58)
08. Swet (And You Shall Be Rewarded) (4:06)
 
 
Лог создания рипа
Exact Audio Copy V1.0 beta 3 from 29. August 2011
EAC extraction logfile from 16. January 2015, 9:45
Don Covay / Travelin' In Heavy Traffic
Used drive : GENERIC CDRCB05 Adapter: 4 ID: 0
Read mode : Secure
Utilize accurate stream : Yes
Defeat audio cache : Yes
Make use of C2 pointers : No
Read offset correction : 102
Overread into Lead-In and Lead-Out : No
Fill up missing offset samples with silence : Yes
Delete leading and trailing silent blocks : No
Null samples used in CRC calculations : Yes
Used interface : Native Win32 interface for Win NT & 2000
Gap handling : Appended to previous track
Used output format : User Defined Encoder
Selected bitrate : 1024 kBit/s
Quality : High
Add ID3 tag : No
Command line compressor : C:\Program Files\FLAC\flac.exe
Additional command line options : -8 -V -T "ARTIST=%artist%" -T "TITLE=%title%" -T "ALBUM=%albumtitle%" -T "DATE=%year%" -T "TRACKNUMBER=%tracknr%" -T "GENRE=%genre%" -T "PERFORMER=%albuminterpret%" -T "COMPOSER=%composer%" %haslyrics%--tag-from-file=LYRICS="%lyricsfile%"%haslyrics% -T "ALBUMARTIST=%albumartist%" -T "DISCNUMBER=%cdnumber%" -T "TOTALDISCS=%totalcds%" -T "TOTALTRACKS=%numtracks%" -T "COMMENT=%comment%" %source% -o %dest%
TOC of the extracted CD
Track | Start | Length | Start sector | End sector
---------------------------------------------------------
1 | 0:00.00 | 6:38.39 | 0 | 29888
2 | 6:38.39 | 5:36.18 | 29889 | 55106
3 | 12:14.57 | 4:05.22 | 55107 | 73503
4 | 16:20.04 | 5:08.45 | 73504 | 96648
5 | 21:28.49 | 6:01.47 | 96649 | 123770
6 | 27:30.21 | 3:46.07 | 123771 | 140727
7 | 31:16.28 | 4:58.22 | 140728 | 163099
8 | 36:14.50 | 4:06.01 | 163100 | 181550
Track 1
Filename F:\0\!!!!!POST!!!!\Don Covay - Travelin' In Heavy Traffic (1976) [1998]\01 - No Tell Motel.wav
Pre-gap length 0:00:02.00
Peak level 99.9 %
Extraction speed 2.6 X
Track quality 100.0 %
Test CRC 60FC33EC
Copy CRC 60FC33EC
Track not present in AccurateRip database
Copy OK
Track 2
Filename F:\0\!!!!!POST!!!!\Don Covay - Travelin' In Heavy Traffic (1976) [1998]\02 - Chocolate Honey.wav
Peak level 99.9 %
Extraction speed 2.8 X
Track quality 100.0 %
Test CRC 616FE67F
Copy CRC 616FE67F
Track not present in AccurateRip database
Copy OK
Track 3
Filename F:\0\!!!!!POST!!!!\Don Covay - Travelin' In Heavy Traffic (1976) [1998]\03 - You Owe It To Your Body.wav
Peak level 99.9 %
Extraction speed 3.0 X
Track quality 100.0 %
Test CRC A94B4CB9
Copy CRC A94B4CB9
Track not present in AccurateRip database
Copy OK
Track 4
Filename F:\0\!!!!!POST!!!!\Don Covay - Travelin' In Heavy Traffic (1976) [1998]\04 - Travelin' In Heavy Traffic.wav
Peak level 99.9 %
Extraction speed 3.2 X
Track quality 100.0 %
Test CRC 39FFE168
Copy CRC 39FFE168
Track not present in AccurateRip database
Copy OK
Track 5
Filename F:\0\!!!!!POST!!!!\Don Covay - Travelin' In Heavy Traffic (1976) [1998]\05 - Feelings.wav
Peak level 99.9 %
Extraction speed 3.5 X
Track quality 100.0 %
Test CRC 2F7A1E7F
Copy CRC 2F7A1E7F
Track not present in AccurateRip database
Copy OK
Track 6
Filename F:\0\!!!!!POST!!!!\Don Covay - Travelin' In Heavy Traffic (1976) [1998]\06 - Right Time For Love.wav
Peak level 99.9 %
Extraction speed 2.9 X
Track quality 99.9 %
Test CRC 6CA58183
Copy CRC 6CA58183
Track not present in AccurateRip database
Copy OK
Track 7
Filename F:\0\!!!!!POST!!!!\Don Covay - Travelin' In Heavy Traffic (1976) [1998]\07 - Six Million Dollar Fish.wav
Peak level 99.9 %
Extraction speed 3.8 X
Track quality 100.0 %
Test CRC 5E367192
Copy CRC 5E367192
Track not present in AccurateRip database
Copy OK
Track 8
Filename F:\0\!!!!!POST!!!!\Don Covay - Travelin' In Heavy Traffic (1976) [1998]\08 - SWET (And You Shall Be Rewarded).wav
Peak level 99.9 %
Extraction speed 3.5 X
Track quality 99.9 %
Test CRC FA6CC9D0
Copy CRC FA6CC9D0
Track not present in AccurateRip database
Copy OK
None of the tracks are present in the AccurateRip database
No errors occurred
End of status report
==== Log checksum C4CE891C65AE8125DC188F587C08339A7C98FD2833360AF5C17C97A2CBC0AA12 ====
 
Содержание индексной карты (.CUE)
REM GENRE Soul
REM DATE 1976
REM DISCID 6B097408
REM COMMENT "ExactAudioCopy v1.0b3"
PERFORMER "Don Covay"
TITLE "Travelin' In Heavy Traffic"
FILE "01 - No Tell Motel.wav" WAVE
TRACK 01 AUDIO
TITLE "No Tell Motel"
PERFORMER "Don Covay"
INDEX 01 00:00:00
FILE "02 - Chocolate Honey.wav" WAVE
TRACK 02 AUDIO
TITLE "Chocolate Honey"
PERFORMER "Don Covay"
INDEX 01 00:00:00
FILE "03 - You Owe It To Your Body.wav" WAVE
TRACK 03 AUDIO
TITLE "You Owe It To Your Body"
PERFORMER "Don Covay"
INDEX 01 00:00:00
FILE "04 - Travelin' In Heavy Traffic.wav" WAVE
TRACK 04 AUDIO
TITLE "Travelin' In Heavy Traffic"
PERFORMER "Don Covay"
INDEX 01 00:00:00
FILE "05 - Feelings.wav" WAVE
TRACK 05 AUDIO
TITLE "Feelings"
PERFORMER "Don Covay"
INDEX 01 00:00:00
FILE "06 - Right Time For Love.wav" WAVE
TRACK 06 AUDIO
TITLE "Right Time For Love"
PERFORMER "Don Covay"
INDEX 01 00:00:00
FILE "07 - Six Million Dollar Fish.wav" WAVE
TRACK 07 AUDIO
TITLE "Six Million Dollar Fish"
PERFORMER "Don Covay"
INDEX 01 00:00:00
FILE "08 - Swet (And You Shall Be Rewarded).wav" WAVE
TRACK 08 AUDIO
TITLE "Swet (And You Shall Be Rewarded)"
PERFORMER "Don Covay"
INDEX 01 00:00:00
Приватный:
Нет (DHT включён)
Размер:
298.49 Мб (312,985,071 байт) » файлов: 16
Участники:
0 раздают, 0 качают (0 участников всего)
Внешние участники:
1 раздают, 0 качают (1 участников всего) [ Обновить ]
Есть вопросы - пишите личное сообщение пользователю M0p94ok.
03:53
51
Нет комментариев. Ваш будет первым!