Поиск

(Funk, Soul) [CD] Eloise Laws - Eloise Laws (1980) + All In Time (1982) :: Two Classic Album On One CD - 2013, FLAC (tracks+.cue), lossless

(Funk, Soul) [CD] Eloise Laws - Eloise Laws (1980) + All In Time (1982) :: Two Classic Album On One CD - 2013, FLAC (tracks+.cue), lossless
Треклист:
Eloise Laws - Eloise Laws (1980) + All In Time (1982) Жанр: Funk, Soul
Носитель: CD
Год издания: 2013
Издатель (лейбл): Expansion Records
Номер по каталогу: EXP2CD29
Аудиокодек: FLAC (*.flac)
Тип рипа: tracks+.cue
Битрейт аудио: lossless
Продолжительность: 69:53
Rip by JET 1
Наличие сканов в содержимом раздачи: да
Треклист:
01. Let's Find Those Two People Again (3:34)
02. Strength Of A Woman (3:39)
03. Almost All The Way To Love (4:54)
04. I'm Just Warmin' Up (3:36)
05. You Are Everything (3:49)
06. Moment To Moment (5:28)
07. Got You Into My Life (4:35)
08. If I Don't Watch Out (4:06)
09. Search, Find (5:07)
10. Love Ain't Easy (3:31)
11. I Got Ya Covered (3:21)
12. I've Loved You Somewhere Before (3:18)
13. If I Had My Way (3:09)
14. While The City Sleeps (2:35)
15. I've Got The Rhythm, You've Got The Blues (4:20)
16. I Did It For Your Love (4:00)
17. If You Don't Love Me By Now (3:10)
18. Weekend (3:42)
 
 
Лог создания рипа
Exact Audio Copy V1.0 beta 3 from 29. August 2011
EAC extraction logfile from 20. January 2015, 14:52
Eloise Laws / Eloise Laws / All In Time
Used drive : GENERIC CDRCB05 Adapter: 4 ID: 0
Read mode : Secure
Utilize accurate stream : Yes
Defeat audio cache : Yes
Make use of C2 pointers : No
Read offset correction : 102
Overread into Lead-In and Lead-Out : No
Fill up missing offset samples with silence : Yes
Delete leading and trailing silent blocks : No
Null samples used in CRC calculations : Yes
Used interface : Native Win32 interface for Win NT & 2000
Gap handling : Appended to previous track
Used output format : User Defined Encoder
Selected bitrate : 1024 kBit/s
Quality : High
Add ID3 tag : No
Command line compressor : C:\Program Files\FLAC\flac.exe
Additional command line options : -8 -V -T "ARTIST=%artist%" -T "TITLE=%title%" -T "ALBUM=%albumtitle%" -T "DATE=%year%" -T "TRACKNUMBER=%tracknr%" -T "GENRE=%genre%" -T "PERFORMER=%albuminterpret%" -T "COMPOSER=%composer%" %haslyrics%--tag-from-file=LYRICS="%lyricsfile%"%haslyrics% -T "ALBUMARTIST=%albumartist%" -T "DISCNUMBER=%cdnumber%" -T "TOTALDISCS=%totalcds%" -T "TOTALTRACKS=%numtracks%" -T "COMMENT=%comment%" %source% -o %dest%
TOC of the extracted CD
Track | Start | Length | Start sector | End sector
---------------------------------------------------------
1 | 0:00.00 | 3:33.70 | 0 | 16044
2 | 3:33.70 | 3:38.69 | 16045 | 32463
3 | 7:12.64 | 4:53.58 | 32464 | 54496
4 | 12:06.47 | 3:35.48 | 54497 | 70669
5 | 15:42.20 | 3:49.19 | 70670 | 87863
6 | 19:31.39 | 5:27.38 | 87864 | 112426
7 | 24:59.02 | 4:35.05 | 112427 | 133056
8 | 29:34.07 | 4:06.02 | 133057 | 151508
9 | 33:40.09 | 5:07.28 | 151509 | 174561
10 | 38:47.37 | 3:31.12 | 174562 | 190398
11 | 42:18.49 | 3:20.72 | 190399 | 205470
12 | 45:39.46 | 3:17.57 | 205471 | 220302
13 | 48:57.28 | 3:09.24 | 220303 | 234501
14 | 52:06.52 | 2:35.16 | 234502 | 246142
15 | 54:41.68 | 4:19.53 | 246143 | 265620
16 | 59:01.46 | 3:59.64 | 265621 | 283609
17 | 63:01.35 | 3:10.16 | 283610 | 297875
18 | 66:11.51 | 3:41.48 | 297876 | 314498
Track 1
Filename F:\0\!!!!!POST!!!!\Eloise Laws - Eloise Laws '80 All In Time '82 (2013)\01 - Let's Find Those Two People Again.wav
Pre-gap length 0:00:02.00
Peak level 100.0 %
Extraction speed 1.4 X
Track quality 100.0 %
Test CRC 69019169
Copy CRC 69019169
Accurately ripped (confidence 1) [A0CC046F] (AR v2)
Copy OK
Track 2
Filename F:\0\!!!!!POST!!!!\Eloise Laws - Eloise Laws '80 All In Time '82 (2013)\02 - Strength Of A Woman.wav
Pre-gap length 0:00:00.18
Peak level 100.0 %
Extraction speed 1.5 X
Track quality 100.0 %
Test CRC DDCBAD5C
Copy CRC DDCBAD5C
Accurately ripped (confidence 1) [BA8C7FE3] (AR v2)
Copy OK
Track 3
Filename F:\0\!!!!!POST!!!!\Eloise Laws - Eloise Laws '80 All In Time '82 (2013)\03 - Almost All The Way To Love.wav
Pre-gap length 0:00:00.13
Peak level 100.0 %
Extraction speed 1.6 X
Track quality 99.9 %
Test CRC 6553776B
Copy CRC 6553776B
Accurately ripped (confidence 1) [7EE91583] (AR v2)
Copy OK
Track 4
Filename F:\0\!!!!!POST!!!!\Eloise Laws - Eloise Laws '80 All In Time '82 (2013)\04 - I'm Just Warmin' Up.wav
Pre-gap length 0:00:00.33
Peak level 100.0 %
Extraction speed 1.8 X
Track quality 100.0 %
Test CRC 27257D64
Copy CRC 27257D64
Accurately ripped (confidence 1) [92924C0C] (AR v2)
Copy OK
Track 5
Filename F:\0\!!!!!POST!!!!\Eloise Laws - Eloise Laws '80 All In Time '82 (2013)\05 - You Are Everything.wav
Pre-gap length 0:00:00.18
Peak level 99.8 %
Extraction speed 2.0 X
Track quality 100.0 %
Test CRC DBFF1CE5
Copy CRC DBFF1CE5
Accurately ripped (confidence 1) [495D755C] (AR v2)
Copy OK
Track 6
Filename F:\0\!!!!!POST!!!!\Eloise Laws - Eloise Laws '80 All In Time '82 (2013)\06 - Moment To Moment.wav
Peak level 99.6 %
Extraction speed 2.2 X
Track quality 100.0 %
Test CRC 2043AF5B
Copy CRC 2043AF5B
Accurately ripped (confidence 1) [5B78C904] (AR v2)
Copy OK
Track 7
Filename F:\0\!!!!!POST!!!!\Eloise Laws - Eloise Laws '80 All In Time '82 (2013)\07 - Got You Into My Life.wav
Pre-gap length 0:00:00.06
Peak level 100.0 %
Extraction speed 2.3 X
Track quality 100.0 %
Test CRC D30C9304
Copy CRC D30C9304
Accurately ripped (confidence 1) [83D349F2] (AR v2)
Copy OK
Track 8
Filename F:\0\!!!!!POST!!!!\Eloise Laws - Eloise Laws '80 All In Time '82 (2013)\08 - If I Don't Watch Out.wav
Pre-gap length 0:00:00.08
Peak level 99.7 %
Extraction speed 2.0 X
Track quality 99.9 %
Test CRC 3303BA7A
Copy CRC 3303BA7A
Accurately ripped (confidence 1) [9E463516] (AR v2)
Copy OK
Track 9
Filename F:\0\!!!!!POST!!!!\Eloise Laws - Eloise Laws '80 All In Time '82 (2013)\09 - Search, Find.wav
Pre-gap length 0:00:00.16
Peak level 100.0 %
Extraction speed 2.5 X
Track quality 100.0 %
Test CRC BEE775BA
Copy CRC BEE775BA
Accurately ripped (confidence 1) [1FF3FED5] (AR v2)
Copy OK
Track 10
Filename F:\0\!!!!!POST!!!!\Eloise Laws - Eloise Laws '80 All In Time '82 (2013)\10 - Love Ain't Easy.wav
Pre-gap length 0:00:00.27
Peak level 100.0 %
Extraction speed 2.1 X
Track quality 99.9 %
Test CRC 206AF5ED
Copy CRC 206AF5ED
Accurately ripped (confidence 1) [A595D6BF] (AR v2)
Copy OK
Track 11
Filename F:\0\!!!!!POST!!!!\Eloise Laws - Eloise Laws '80 All In Time '82 (2013)\11 - I Got Ya Covered.wav
Pre-gap length 0:00:00.17
Peak level 100.0 %
Extraction speed 2.5 X
Track quality 100.0 %
Test CRC 797D10A0
Copy CRC 797D10A0
Accurately ripped (confidence 1) [54155460] (AR v2)
Copy OK
Track 12
Filename F:\0\!!!!!POST!!!!\Eloise Laws - Eloise Laws '80 All In Time '82 (2013)\12 - I've Loved You Somewhere Before.wav
Pre-gap length 0:00:00.29
Peak level 99.7 %
Extraction speed 2.6 X
Track quality 100.0 %
Test CRC B62F0991
Copy CRC B62F0991
Accurately ripped (confidence 1) [863F49C5] (AR v2)
Copy OK
Track 13
Filename F:\0\!!!!!POST!!!!\Eloise Laws - Eloise Laws '80 All In Time '82 (2013)\13 - If I Had My Way.wav
Pre-gap length 0:00:00.25
Peak level 100.0 %
Extraction speed 2.6 X
Track quality 100.0 %
Test CRC F5F3EE15
Copy CRC F5F3EE15
Accurately ripped (confidence 1) [D480C7D1] (AR v2)
Copy OK
Track 14
Filename F:\0\!!!!!POST!!!!\Eloise Laws - Eloise Laws '80 All In Time '82 (2013)\14 - While The City Sleeps.wav
Peak level 100.0 %
Extraction speed 2.5 X
Track quality 100.0 %
Test CRC 87092383
Copy CRC 87092383
Accurately ripped (confidence 1) [5791391E] (AR v2)
Copy OK
Track 15
Filename F:\0\!!!!!POST!!!!\Eloise Laws - Eloise Laws '80 All In Time '82 (2013)\15 - I've Got The Rhythm, You've Got The Blues.wav
Pre-gap length 0:00:00.35
Peak level 100.0 %
Extraction speed 2.9 X
Track quality 100.0 %
Test CRC 99FE9549
Copy CRC 99FE9549
Accurately ripped (confidence 1) [3CF369A4] (AR v2)
Copy OK
Track 16
Filename F:\0\!!!!!POST!!!!\Eloise Laws - Eloise Laws '80 All In Time '82 (2013)\16 - I Did It For Your Love.wav
Pre-gap length 0:00:00.15
Peak level 100.0 %
Extraction speed 2.9 X
Track quality 100.0 %
Test CRC 67755D70
Copy CRC 67755D70
Accurately ripped (confidence 1) [7ADF2EAA] (AR v2)
Copy OK
Track 17
Filename F:\0\!!!!!POST!!!!\Eloise Laws - Eloise Laws '80 All In Time '82 (2013)\17 - If You Don't Love Me By Now.wav
Pre-gap length 0:00:00.16
Peak level 100.0 %
Extraction speed 0.7 X
Track quality 99.8 %
Test CRC B703F53F
Copy CRC B703F53F
Accurately ripped (confidence 1) [1BB2C19F] (AR v2)
Copy OK
Track 18
Filename F:\0\!!!!!POST!!!!\Eloise Laws - Eloise Laws '80 All In Time '82 (2013)\18 - Weekend.wav
Pre-gap length 0:00:00.17
Peak level 99.8 %
Extraction speed 0.5 X
Track quality 99.8 %
Test CRC 130E1973
Copy CRC 130E1973
Cannot be verified as accurate (confidence 1) [C71A2FB5], AccurateRip returned [7A2F7C99] (AR v2)
Copy OK
17 track(s) accurately ripped
1 track(s) could not be verified as accurate
Some tracks could not be verified as accurate
No errors occurred
End of status report
==== Log checksum 95A9D5CEFC77BB3EFEFA0DF1B3AF0A2B6CE9C6D13C6EA6BD589A678B0CC66061 ====
 
Содержание индексной карты (.CUE)
REM GENRE Soul
REM DATE 2013
REM DISCID FD106112
REM COMMENT "ExactAudioCopy v1.0b3"
PERFORMER "Eloise Laws"
TITLE "Eloise Laws / All In Time"
FILE "01 - Let's Find Those Two People Again.wav" WAVE
TRACK 01 AUDIO
TITLE "Let's Find Those Two People Again"
PERFORMER "Eloise Laws"
INDEX 01 00:00:00
TRACK 02 AUDIO
TITLE "Strength Of A Woman"
PERFORMER "Eloise Laws"
INDEX 00 03:33:52
FILE "02 - Strength Of A Woman.wav" WAVE
INDEX 01 00:00:00
TRACK 03 AUDIO
TITLE "Almost All The Way To Love"
PERFORMER "Eloise Laws"
INDEX 00 03:38:56
FILE "03 - Almost All The Way To Love.wav" WAVE
INDEX 01 00:00:00
TRACK 04 AUDIO
TITLE "I'm Just Warmin' Up"
PERFORMER "Eloise Laws"
INDEX 00 04:53:25
FILE "04 - I'm Just Warmin' Up.wav" WAVE
INDEX 01 00:00:00
TRACK 05 AUDIO
TITLE "You Are Everything"
PERFORMER "Eloise Laws"
INDEX 00 03:35:30
FILE "05 - You Are Everything.wav" WAVE
INDEX 01 00:00:00
FILE "06 - Moment To Moment.wav" WAVE
TRACK 06 AUDIO
TITLE "Moment To Moment"
PERFORMER "Eloise Laws"
INDEX 01 00:00:00
TRACK 07 AUDIO
TITLE "Got You Into My Life"
PERFORMER "Eloise Laws"
INDEX 00 05:27:32
FILE "07 - Got You Into My Life.wav" WAVE
INDEX 01 00:00:00
TRACK 08 AUDIO
TITLE "If I Don't Watch Out"
PERFORMER "Eloise Laws"
INDEX 00 04:34:72
FILE "08 - If I Don't Watch Out.wav" WAVE
INDEX 01 00:00:00
TRACK 09 AUDIO
TITLE "Search, Find"
PERFORMER "Eloise Laws"
INDEX 00 04:05:61
FILE "09 - Search, Find.wav" WAVE
INDEX 01 00:00:00
TRACK 10 AUDIO
TITLE "Love Ain't Easy"
PERFORMER "Eloise Laws"
INDEX 00 05:07:01
FILE "10 - Love Ain't Easy.wav" WAVE
INDEX 01 00:00:00
TRACK 11 AUDIO
TITLE "I Got Ya Covered"
PERFORMER "Eloise Laws"
INDEX 00 03:30:70
FILE "11 - I Got Ya Covered.wav" WAVE
INDEX 01 00:00:00
TRACK 12 AUDIO
TITLE "I've Loved You Somewhere Before"
PERFORMER "Eloise Laws"
INDEX 00 03:20:43
FILE "12 - I've Loved You Somewhere Before.wav" WAVE
INDEX 01 00:00:00
TRACK 13 AUDIO
TITLE "If I Had My Way"
PERFORMER "Eloise Laws"
INDEX 00 03:17:32
FILE "13 - If I Had My Way.wav" WAVE
INDEX 01 00:00:00
FILE "14 - While The City Sleeps.wav" WAVE
TRACK 14 AUDIO
TITLE "While The City Sleeps"
PERFORMER "Eloise Laws"
INDEX 01 00:00:00
TRACK 15 AUDIO
TITLE "I've Got The Rhythm, You've Got The Blues"
PERFORMER "Eloise Laws"
INDEX 00 02:34:56
FILE "15 - I've Got The Rhythm, You've Got The Blues.wav" WAVE
INDEX 01 00:00:00
TRACK 16 AUDIO
TITLE "I Did It For Your Love"
PERFORMER "Eloise Laws"
INDEX 00 04:19:38
FILE "16 - I Did It For Your Love.wav" WAVE
INDEX 01 00:00:00
TRACK 17 AUDIO
TITLE "If You Don't Love Me By Now"
PERFORMER "Eloise Laws"
INDEX 00 03:59:48
FILE "17 - If You Don't Love Me By Now.wav" WAVE
INDEX 01 00:00:00
TRACK 18 AUDIO
TITLE "Weekend"
PERFORMER "Eloise Laws"
INDEX 00 03:09:74
FILE "18 - Weekend.wav" WAVE
INDEX 01 00:00:00
Приватный:
Нет (DHT включён)
Размер:
662.78 Мб (694,974,128 байт) » файлов: 30
Участники:
0 раздают, 0 качают (0 участников всего)
Внешние участники:
2 раздают, 1 качают (3 участников всего) [ Обновить ]
Есть вопросы - пишите личное сообщение пользователю M0p94ok.
03:52
65
Нет комментариев. Ваш будет первым!