Поиск

(R&B, Soul) [CD] Ruby Turner - All That I Am - 2014, FLAC (tracks+.cue), lossless

(R&B, Soul) [CD] Ruby Turner - All That I Am - 2014, FLAC (tracks+.cue), lossless
Треклист:
Ruby Turner - All That I Am
Жанр: R&B, Soul
Носитель: CD
Год издания: 2014
Издатель (лейбл): RTR Productions
Номер по каталогу: RTR009
Аудиокодек: FLAC (*.flac)
Тип рипа: tracks+.cue
Битрейт аудио: lossless
Продолжительность: 58:16
Rip by JET 1
Наличие сканов в содержимом раздачи: да
Треклист:
01. Mighty Hard Time (A Prayer) (3:55)
02. Hello Baby (3:45)
03. Putting You First (4:38)
04. Fire In My Heart (ft. Passenger) (3:49)
05. Move On (4:25)
06. Master Plan (5:05)
07. I Didn't Know What Time It Was (4:24)
08. The Dark End Of The Street (4:32)
09. Kamikaze Waltz (5:19)
10. He Knows (4:41)
11. Trouble In Mind (4:00)
12. Ask Me (Acoustic Version) (3:28)
13. Fire In My Heart (Acoustic Version) (ft. Passenger) (2:54)
14. Move On (Soren Andersen Radio Mix) (3:20)
 
 
Лог создания рипа
Exact Audio Copy V1.0 beta 3 from 29. August 2011
EAC extraction logfile from 7. January 2015, 18:47
- / -
Used drive : ATAPI DVD A DH16A6L-C Adapter: 2 ID: 0
Read mode : Secure
Utilize accurate stream : Yes
Defeat audio cache : Yes
Make use of C2 pointers : No
Read offset correction : 6
Overread into Lead-In and Lead-Out : No
Fill up missing offset samples with silence : Yes
Delete leading and trailing silent blocks : No
Null samples used in CRC calculations : Yes
Used interface : Native Win32 interface for Win NT & 2000
Gap handling : Appended to previous track
Used output format : User Defined Encoder
Selected bitrate : 1024 kBit/s
Quality : High
Add ID3 tag : No
Command line compressor : C:\Program Files\FLAC\flac.exe
Additional command line options : -8 -V -T "ARTIST=%artist%" -T "TITLE=%title%" -T "ALBUM=%albumtitle%" -T "DATE=%year%" -T "TRACKNUMBER=%tracknr%" -T "GENRE=%genre%" -T "PERFORMER=%albuminterpret%" -T "COMPOSER=%composer%" %haslyrics%--tag-from-file=LYRICS="%lyricsfile%"%haslyrics% -T "ALBUMARTIST=%albumartist%" -T "DISCNUMBER=%cdnumber%" -T "TOTALDISCS=%totalcds%" -T "TOTALTRACKS=%numtracks%" -T "COMMENT=%comment%" %source% -o %dest%
TOC of the extracted CD
Track | Start | Length | Start sector | End sector
---------------------------------------------------------
1 | 0:00.00 | 3:55.36 | 0 | 17660
2 | 3:55.36 | 3:45.11 | 17661 | 34546
3 | 7:40.47 | 4:37.52 | 34547 | 55373
4 | 12:18.24 | 3:48.72 | 55374 | 72545
5 | 16:07.21 | 4:24.69 | 72546 | 92414
6 | 20:32.15 | 5:05.22 | 92415 | 115311
7 | 25:37.37 | 4:24.10 | 115312 | 135121
8 | 30:01.47 | 4:32.27 | 135122 | 155548
9 | 34:33.74 | 5:18.49 | 155549 | 179447
10 | 39:52.48 | 4:41.34 | 179448 | 200556
11 | 44:34.07 | 4:00.29 | 200557 | 218585
12 | 48:34.36 | 3:27.42 | 218586 | 234152
13 | 52:02.03 | 2:53.52 | 234153 | 247179
14 | 54:55.55 | 3:19.66 | 247180 | 262170
Track 1
Filename F:\0\!!!!!POST!!!!\Ruby Turner - All That I Am (2014)\01 - Ruby Turner - Mighty Hard Time (A Prayer).wav
Pre-gap length 0:00:02.00
Peak level 100.0 %
Extraction speed 3.2 X
Track quality 100.0 %
Test CRC 3D5E5276
Copy CRC 3D5E5276
Track not present in AccurateRip database
Copy OK
Track 2
Filename F:\0\!!!!!POST!!!!\Ruby Turner - All That I Am (2014)\02 - Ruby Turner - Hello Baby.wav
Peak level 100.0 %
Extraction speed 3.6 X
Track quality 100.0 %
Test CRC 42D9C7F9
Copy CRC 42D9C7F9
Track not present in AccurateRip database
Copy OK
Track 3
Filename F:\0\!!!!!POST!!!!\Ruby Turner - All That I Am (2014)\03 - Ruby Turner - Putting You First.wav
Pre-gap length 0:00:02.00
Peak level 100.0 %
Extraction speed 4.1 X
Track quality 100.0 %
Test CRC 0805F771
Copy CRC 0805F771
Track not present in AccurateRip database
Copy OK
Track 4
Filename F:\0\!!!!!POST!!!!\Ruby Turner - All That I Am (2014)\04 - Ruby Turner - Fire In My Heart (Feat.Passenger).wav
Pre-gap length 0:00:02.00
Peak level 100.0 %
Extraction speed 4.2 X
Track quality 100.0 %
Test CRC 3837A505
Copy CRC 3837A505
Track not present in AccurateRip database
Copy OK
Track 5
Filename F:\0\!!!!!POST!!!!\Ruby Turner - All That I Am (2014)\05 - Ruby Turner - Move On.wav
Pre-gap length 0:00:02.00
Peak level 100.0 %
Extraction speed 3.8 X
Track quality 99.9 %
Test CRC 2298E4C5
Copy CRC 2298E4C5
Track not present in AccurateRip database
Copy OK
Track 6
Filename F:\0\!!!!!POST!!!!\Ruby Turner - All That I Am (2014)\06 - Ruby Turner - Masterplan.wav
Pre-gap length 0:00:02.00
Peak level 97.9 %
Extraction speed 5.1 X
Track quality 100.0 %
Test CRC DC63D3F6
Copy CRC DC63D3F6
Track not present in AccurateRip database
Copy OK
Track 7
Filename F:\0\!!!!!POST!!!!\Ruby Turner - All That I Am (2014)\07 - Ruby Turner - I Didn't Know What Time It Was.wav
Pre-gap length 0:00:02.00
Peak level 100.0 %
Extraction speed 5.2 X
Track quality 100.0 %
Test CRC C0350FDA
Copy CRC C0350FDA
Track not present in AccurateRip database
Copy OK
Track 8
Filename F:\0\!!!!!POST!!!!\Ruby Turner - All That I Am (2014)\08 - Ruby Turner - The Dark End Of The Street.wav
Pre-gap length 0:00:02.00
Peak level 100.0 %
Extraction speed 5.5 X
Track quality 100.0 %
Test CRC F63488FF
Copy CRC F63488FF
Track not present in AccurateRip database
Copy OK
Track 9
Filename F:\0\!!!!!POST!!!!\Ruby Turner - All That I Am (2014)\09 - Ruby Turner - Kamikaze Waltz.wav
Pre-gap length 0:00:02.00
Peak level 99.8 %
Extraction speed 5.9 X
Track quality 100.0 %
Test CRC B6D133EA
Copy CRC B6D133EA
Track not present in AccurateRip database
Copy OK
Track 10
Filename F:\0\!!!!!POST!!!!\Ruby Turner - All That I Am (2014)\10 - Ruby Turner - He Knows.wav
Pre-gap length 0:00:02.00
Peak level 100.0 %
Extraction speed 6.1 X
Track quality 100.0 %
Test CRC 979BFC11
Copy CRC 979BFC11
Track not present in AccurateRip database
Copy OK
Track 11
Filename F:\0\!!!!!POST!!!!\Ruby Turner - All That I Am (2014)\11 - Ruby Turner - Trouble In Mind.wav
Pre-gap length 0:00:02.00
Peak level 100.0 %
Extraction speed 6.0 X
Track quality 100.0 %
Test CRC F6FAAE7F
Copy CRC F6FAAE7F
Track not present in AccurateRip database
Copy OK
Track 12
Filename F:\0\!!!!!POST!!!!\Ruby Turner - All That I Am (2014)\12 - Ruby Turner - Ask Me (Acoustic Version).wav
Pre-gap length 0:00:02.00
Peak level 100.0 %
Extraction speed 6.2 X
Track quality 100.0 %
Test CRC 73900007
Copy CRC 73900007
Track not present in AccurateRip database
Copy OK
Track 13
Filename F:\0\!!!!!POST!!!!\Ruby Turner - All That I Am (2014)\13 - Ruby Turner - Fire In My Heart (Acoustic Version) feat. Passenger.wav
Pre-gap length 0:00:02.00
Peak level 100.0 %
Extraction speed 5.8 X
Track quality 100.0 %
Test CRC 2DF140D1
Copy CRC 2DF140D1
Track not present in AccurateRip database
Copy OK
Track 14
Filename F:\0\!!!!!POST!!!!\Ruby Turner - All That I Am (2014)\14 - Ruby Turner - Move On (Soren Andersen Radio Mix).wav
Pre-gap length 0:00:02.00
Peak level 86.1 %
Extraction speed 4.9 X
Track quality 99.9 %
Test CRC 9A213536
Copy CRC 9A213536
Track not present in AccurateRip database
Copy OK
None of the tracks are present in the AccurateRip database
No errors occurred
End of status report
==== Log checksum 9D169C106641D0FC5931436C41224C0FCF1008796A068DFAB34E2DB2FE9B004F ====
 
Содержание индексной карты (.CUE)
REM GENRE Jazz
REM DATE 2014
REM DISCID CB0DA70E
REM COMMENT "ExactAudioCopy v1.0b3"
PERFORMER "Ruby Turner"
TITLE "All That I Am"
FILE "01. Mighty Hard Time (A Prayer).flac" WAVE
TRACK 01 AUDIO
TITLE "Mighty Hard Time (A Prayer)"
PERFORMER "Ruby Turner"
FLAGS DCP
INDEX 01 00:00:00
FILE "02. Hello Baby.flac" WAVE
TRACK 02 AUDIO
TITLE "Hello Baby"
PERFORMER "Ruby Turner"
FLAGS DCP
INDEX 01 00:00:00
TRACK 03 AUDIO
TITLE "Putting You First"
PERFORMER "Ruby Turner"
FLAGS DCP
INDEX 00 03:43:11
FILE "03. Putting You First.flac" WAVE
INDEX 01 00:00:00
TRACK 04 AUDIO
TITLE "Fire In My Heart (ft. Passenger)"
PERFORMER "Ruby Turner"
FLAGS DCP
INDEX 00 04:35:52
FILE "04. Fire In My Heart (ft. Passenger).flac" WAVE
INDEX 01 00:00:00
TRACK 05 AUDIO
TITLE "Move On"
PERFORMER "Ruby Turner"
FLAGS DCP
INDEX 00 03:46:72
FILE "05. Move On.flac" WAVE
INDEX 01 00:00:00
TRACK 06 AUDIO
TITLE "Master Plan"
PERFORMER "Ruby Turner"
FLAGS DCP
INDEX 00 04:22:69
FILE "06. Master Plan.flac" WAVE
INDEX 01 00:00:00
TRACK 07 AUDIO
TITLE "I Didn't Know What Time It Was"
PERFORMER "Ruby Turner"
FLAGS DCP
INDEX 00 05:03:22
FILE "07. I Didn't Know What Time It Was.flac" WAVE
INDEX 01 00:00:00
TRACK 08 AUDIO
TITLE "The Dark End Of The Street"
PERFORMER "Ruby Turner"
FLAGS DCP
INDEX 00 04:22:10
FILE "08. The Dark End Of The Street.flac" WAVE
INDEX 01 00:00:00
TRACK 09 AUDIO
TITLE "Kamikaze Waltz"
PERFORMER "Ruby Turner"
FLAGS DCP
INDEX 00 04:30:27
FILE "09. Kamikaze Waltz.flac" WAVE
INDEX 01 00:00:00
TRACK 10 AUDIO
TITLE "He Knows"
PERFORMER "Ruby Turner"
FLAGS DCP
INDEX 00 05:16:49
FILE "10. He Knows.flac" WAVE
INDEX 01 00:00:00
TRACK 11 AUDIO
TITLE "Trouble In Mind"
PERFORMER "Ruby Turner"
FLAGS DCP
INDEX 00 04:39:34
FILE "11. Trouble In Mind.flac" WAVE
INDEX 01 00:00:00
TRACK 12 AUDIO
TITLE "Ask Me (Acoustic Version)"
PERFORMER "Ruby Turner"
FLAGS DCP
INDEX 00 03:58:29
FILE "12. Ask Me (Acoustic Version).flac" WAVE
INDEX 01 00:00:00
TRACK 13 AUDIO
TITLE "Fire In My Heart (Acoustic Version) (ft. Passenger)"
PERFORMER "Ruby Turner"
FLAGS DCP
INDEX 00 03:25:42
FILE "13. Fire In My Heart (Acoustic Version) (ft. Passenger).flac" WAVE
INDEX 01 00:00:00
TRACK 14 AUDIO
TITLE "Move On (Soren Andersen Radio Mix)"
PERFORMER "Ruby Turner"
FLAGS DCP
INDEX 00 02:51:52
FILE "14. Move On (Soren Andersen Radio Mix).flac" WAVE
INDEX 01 00:00:00
Приватный:
Нет (DHT включён)
Размер:
609.10 Мб (638,683,171 байт) » файлов: 30
Участники:
0 раздают, 0 качают (0 участников всего)
Внешние участники:
3 раздают, 1 качают (4 участников всего) [ Обновить ]
Есть вопросы - пишите личное сообщение пользователю M0p94ok.
03:52
65
Нет комментариев. Ваш будет первым!