Поиск

(R'n'B, Soul, Jazz) [CD] Ray Charles - At the Olympia, November 22nd, 2000 - 2004, APE (image+.cue), lossless

(R'n'B, Soul, Jazz) [CD] Ray Charles - At the Olympia, November 22nd, 2000 - 2004, APE (image+.cue), lossless
Треклист:
Ray Charles - At the Olympia, November 22nd, 2000
Жанр: R'n'B, Soul, Jazz
Формат: CD, Album, Live
Страна-производитель диска (релиза): France
Год издания: 2004
Издатель (лейбл): XIII Bis Records
Номер по каталогу: 640543 2
Страна исполнителя (группы): US
Аудиокодек: APE (*.ape)
Тип рипа: image+.cue
Битрейт аудио: lossless
Продолжительность: 01:10:04
Источник (релизер): eD2k (sinziana)
Наличие сканов в содержимом раздачи: да
Треклист:
01. Blues For Big Scotia (Oscar Peterson) - 1:16
02. Just The Way You Look Tonight (D. Fields, G. Kern) - 7:05
03. Route 66 (Bobby Troup) - 4:51
04. Song For You (Leon Russel) - 6:15
05. Hallelujah I Love Her So (Ray Charles) - 3:10
06. Georgia On My Mind (H. Carmichael, S. Gorrel) - 6:13
07. Stranger In My Own Home Town (P. Mayfield) - 4:46
08. Angelina (Knut Koppang) - 5:52
09. I've Got A Woman (R. Charles) - 5:50
10. Hey Girl (C. King, G. Goffin) - 5:37
11. Almost Like Being In Love Again (Ron Demmans) - 2:18
12. Just For A Thrill (L. H. Armstrong, R. Charles) - 5:18
13. It Had To Be You (Khan, Jones) - 5:27
14. What'd I Say (R. Charles) - 6:07
 
Лог создания рипа
Exact Audio Copy V0.99 prebeta 5 from 4. May 2009
EAC extraction logfile from 15. January 2010, 17:47
Ray Charles / At The Olympia, 2000-11-22
Used drive : HL-DT-STDVDRAM GSA-T50L Adapter: 2 ID: 0
Read mode : Secure
Utilize accurate stream : Yes
Defeat audio cache : Yes
Make use of C2 pointers : No
Read offset correction : 667
Overread into Lead-In and Lead-Out : No
Fill up missing offset samples with silence : Yes
Delete leading and trailing silent blocks : No
Null samples used in CRC calculations : Yes
Used interface : Native Win32 interface for Win NT & 2000
Used output format : Internal WAV Routines
Sample format : 44.100 Hz; 16 Bit; Stereo
TOC of the extracted CD
Track | Start | Length | Start sector | End sector
---------------------------------------------------------
1 | 0:00.00 | 1:15.57 | 0 | 5681
2 | 1:15.57 | 7:05.24 | 5682 | 37580
3 | 8:21.06 | 4:51.16 | 37581 | 59421
4 | 13:12.22 | 6:14.44 | 59422 | 87515
5 | 19:26.66 | 3:09.71 | 87516 | 101761
6 | 22:36.62 | 6:12.47 | 101762 | 129708
7 | 28:49.34 | 4:45.52 | 129709 | 151135
8 | 33:35.11 | 5:52.29 | 151136 | 177564
9 | 39:27.40 | 5:50.19 | 177565 | 203833
10 | 45:17.59 | 5:36.39 | 203834 | 229072
11 | 50:54.23 | 2:17.73 | 229073 | 239420
12 | 53:12.21 | 5:18.14 | 239421 | 263284
13 | 58:30.35 | 5:27.22 | 263285 | 287831
14 | 63:57.57 | 6:06.53 | 287832 | 315334
Range status and errors
Selected range
Filename C:\Users\minodora\Desktop\Ray Charles - At The Olympia, 2000-11-22.wav
Peak level 99.8 %
Range quality 100.0 %
Copy CRC 54C1114C
Copy OK
No errors occurred
AccurateRip summary
Track 1 not present in database
Track 2 not present in database
Track 3 not present in database
Track 4 not present in database
Track 5 not present in database
Track 6 not present in database
Track 7 not present in database
Track 8 not present in database
Track 9 not present in database
Track 10 not present in database
Track 11 not present in database
Track 12 not present in database
Track 13 not present in database
Track 14 not present in database
None of the tracks are present in the AccurateRip database
End of status report
 
Содержание индексной карты (.CUE)
REM GENRE Blues
REM DATE 2000
REM DISCID CB106C0E
REM COMMENT "ExactAudioCopy v0.99pb5"
PERFORMER "Ray Charles"
TITLE "At The Olympia, 2000-11-22"
FILE "Ray Charles - At The Olympia, 2000-11-22.wav" WAVE
TRACK 01 AUDIO
TITLE "Blues For Big Scotia"
PERFORMER "Ray Charles"
INDEX 01 00:00:00
TRACK 02 AUDIO
TITLE "Just The Way You Look Tonight"
PERFORMER "Ray Charles"
INDEX 01 01:15:57
TRACK 03 AUDIO
TITLE "Route 66"
PERFORMER "Ray Charles"
INDEX 01 08:21:06
TRACK 04 AUDIO
TITLE "Song For You"
PERFORMER "Ray Charles"
INDEX 01 13:12:22
TRACK 05 AUDIO
TITLE "Hallelujah I Love Her So"
PERFORMER "Ray Charles"
INDEX 01 19:26:66
TRACK 06 AUDIO
TITLE "Georgia On My Mind"
PERFORMER "Ray Charles"
INDEX 01 22:36:62
TRACK 07 AUDIO
TITLE "Stranger In My Own Home Town"
PERFORMER "Ray Charles"
INDEX 01 28:49:34
TRACK 08 AUDIO
TITLE "Angelina"
PERFORMER "Ray Charles"
INDEX 01 33:35:11
TRACK 09 AUDIO
TITLE "I've Got A Woman"
PERFORMER "Ray Charles"
INDEX 01 39:27:40
TRACK 10 AUDIO
TITLE "Hey Girl"
PERFORMER "Ray Charles"
INDEX 01 45:17:59
TRACK 11 AUDIO
TITLE "Almost Like Being In Love Again"
PERFORMER "Ray Charles"
INDEX 01 50:54:23
TRACK 12 AUDIO
TITLE "Just For A Thrill"
PERFORMER "Ray Charles"
INDEX 01 53:12:21
TRACK 13 AUDIO
TITLE "It Had To Be You"
PERFORMER "Ray Charles"
INDEX 01 58:30:35
TRACK 14 AUDIO
TITLE "What'd I Say"
PERFORMER "Ray Charles"
INDEX 01 63:57:57
 
Лог проверки качества
AUDIOCHECKER v2.0 beta (build 457) - by Dester - opdester@freemail.hu
~~~~~~~~~~~~~~~~~~~~~~~~~~~~~~~~~~
-=== DO NOT EDIT THIS FILE! ===-
Path: ...\Ray Charles - At The Olympia 2000-11-22
1 -=- Ray Charles - At The Olympia, 2000-11-22.ape -=- CDDA (100%)
138857924
 
Скриншот спектра частот
 
Об альбоме (сборнике)
 
Состав
Ray Charles - keyboards, vocals
Thomas Fowler - bass
Bradley Rabuchin - guitar
Peter Turre - drums
Приватный:
Нет (DHT включён)
Размер:
406.31 Мб (426,047,702 байт) » файлов: 10
Участники:
0 раздают, 0 качают (0 участников всего)
Внешние участники:
5 раздают, 1 качают (6 участников всего) [ Обновить ]
Есть вопросы - пишите личное сообщение пользователю M0p94ok.
03:51
61
Нет комментариев. Ваш будет первым!