Поиск

(Jazz-Funk, Afrobeat) [CD] Black Flower - Abyssinia Afterlife - 2014, FLAC (tracks+.cue), lossless

(Jazz-Funk, Afrobeat) [CD] Black Flower - Abyssinia Afterlife - 2014, FLAC (tracks+.cue), lossless
Треклист:
B L A C K
F L O W E R
Abyssinia Afterlife Жанр: Jazz-Funk, Afrobeat
Страна-производитель диска: Belgium
Год издания: 2014
Издатель (лейбл): Zephyrus Records/De Werf Records
Номер по каталогу: ZEP020/W.E.R.F.118
Аудиокодек: FLAC (*.flac)
Тип рипа: tracks+.cue
Битрейт аудио: lossless
Продолжительность: 49:27
Источник (релизер): спасибо oerwoud
Наличие сканов: front + мелкие сетевые
Треклист:
1. Solar Eclipse
2. Upwards
3. I Threw A Lemon At That Girl
4. Jungle Desert
5. Winter
6. Star Fishing
7. The Legacy Of Prester John
8. Again I Lost It
9. Abyssinia Afterlife
 
Лог создания рипа
X Lossless Decoder version 20131102 (145.0)
XLD extraction logfile from 2014-04-02 21:07:50 +0200
Black Flower / Absyssinia Afterlife
Used drive : MATSHITA DVD-R UJ-867 (revision HB01)
Media type : Pressed CD
Ripper mode : XLD Secure Ripper
Disable audio cache : OK for the drive with a cache less than 1375KiB
Make use of C2 pointers : NO
Read offset correction : 102
Max retry count : 100
Gap status : Analyzed, Appended (except HTOA)
TOC of the extracted CD
Track | Start | Length | Start sector | End sector
---------------------------------------------------------
1 | 00:00:00 | 06:38:73 | 0 | 29922
2 | 06:38:73 | 04:58:71 | 29923 | 52343
3 | 11:37:69 | 05:19:38 | 52344 | 76306
4 | 16:57:32 | 04:50:26 | 76307 | 98082
5 | 21:47:58 | 05:34:53 | 98083 | 123185
6 | 27:22:36 | 05:42:05 | 123186 | 148840
7 | 33:04:41 | 03:41:07 | 148841 | 165422
8 | 36:45:48 | 04:56:63 | 165423 | 187685
9 | 41:42:36 | 07:45:16 | 187686 | 222576
AccurateRip Summary
Disc not found in AccurateRip DB.
All Tracks
Album gain : -7.13 dB
Peak : 1.000000
Statistics
Read error : 0
Jitter error (maybe fixed) : 0
Retry sector count : 0
Damaged sector count : 0
Track 01
Filename : /Users/wouter/Documents/Black Flower - Absyssinia Afterlife (2014) [FLAC]/01 Solar Eclipse.flac
Pre-gap length : 00:02:00
Track gain : -7.00 dB
Peak : 1.000000
CRC32 hash (test run) : 11998901
CRC32 hash : 11998901
CRC32 hash (skip zero) : 644FEEE2
AccurateRip v1 signature : 41A35B8D
AccurateRip v2 signature : DF3D110D
->Track not present in AccurateRip database.
Statistics
Read error : 0
Jitter error (maybe fixed) : 0
Retry sector count : 0
Damaged sector count : 0
Track 02
Filename : /Users/wouter/Documents/Black Flower - Absyssinia Afterlife (2014) [FLAC]/02 Upwards (Ft Smokey Hormel).flac
Track gain : -8.91 dB
Peak : 1.000000
CRC32 hash (test run) : B5AACC43
CRC32 hash : B5AACC43
CRC32 hash (skip zero) : E31A7A03
AccurateRip v1 signature : 49288EDB
AccurateRip v2 signature : BFCA11AD
->Track not present in AccurateRip database.
Statistics
Read error : 0
Jitter error (maybe fixed) : 0
Retry sector count : 0
Damaged sector count : 0
Track 03
Filename : /Users/wouter/Documents/Black Flower - Absyssinia Afterlife (2014) [FLAC]/03 I Threw A Lemon At That Girl.flac
Track gain : -7.66 dB
Peak : 1.000000
CRC32 hash (test run) : 2908DEF9
CRC32 hash : 2908DEF9
CRC32 hash (skip zero) : 54919CFF
AccurateRip v1 signature : 145701D6
AccurateRip v2 signature : 43728C95
->Track not present in AccurateRip database.
Statistics
Read error : 0
Jitter error (maybe fixed) : 0
Retry sector count : 0
Damaged sector count : 0
Track 04
Filename : /Users/wouter/Documents/Black Flower - Absyssinia Afterlife (2014) [FLAC]/04 Jungle Desert.flac
Track gain : -7.05 dB
Peak : 1.000000
CRC32 hash (test run) : EAEEE9AB
CRC32 hash : EAEEE9AB
CRC32 hash (skip zero) : 61ED72CA
AccurateRip v1 signature : FF0DA4F5
AccurateRip v2 signature : 6F8A5A48
->Track not present in AccurateRip database.
Statistics
Read error : 0
Jitter error (maybe fixed) : 0
Retry sector count : 0
Damaged sector count : 0
Track 05
Filename : /Users/wouter/Documents/Black Flower - Absyssinia Afterlife (2014) [FLAC]/05 Winter.flac
Track gain : -4.46 dB
Peak : 0.999969
CRC32 hash (test run) : 519DB6D8
CRC32 hash : 519DB6D8
CRC32 hash (skip zero) : 82FC8A50
AccurateRip v1 signature : AA47A1A6
AccurateRip v2 signature : 0E7F9761
->Track not present in AccurateRip database.
Statistics
Read error : 0
Jitter error (maybe fixed) : 0
Retry sector count : 0
Damaged sector count : 0
Track 06
Filename : /Users/wouter/Documents/Black Flower - Absyssinia Afterlife (2014) [FLAC]/06 Star Fishing.flac
Track gain : -2.57 dB
Peak : 0.995697
CRC32 hash (test run) : 2ADC379E
CRC32 hash : 2ADC379E
CRC32 hash (skip zero) : 63B048D2
AccurateRip v1 signature : 5C2A10DC
AccurateRip v2 signature : 25A5A47E
->Track not present in AccurateRip database.
Statistics
Read error : 0
Jitter error (maybe fixed) : 0
Retry sector count : 0
Damaged sector count : 0
Track 07
Filename : /Users/wouter/Documents/Black Flower - Absyssinia Afterlife (2014) [FLAC]/07 The Legacy Of Prester John.flac
Track gain : -6.88 dB
Peak : 0.999969
CRC32 hash (test run) : DB919D14
CRC32 hash : DB919D14
CRC32 hash (skip zero) : FD18219A
AccurateRip v1 signature : FAD74A56
AccurateRip v2 signature : 4BE3F974
->Track not present in AccurateRip database.
Statistics
Read error : 0
Jitter error (maybe fixed) : 0
Retry sector count : 0
Damaged sector count : 0
Track 08
Filename : /Users/wouter/Documents/Black Flower - Absyssinia Afterlife (2014) [FLAC]/08 Again I Lost It.flac
Track gain : -6.69 dB
Peak : 1.000000
CRC32 hash (test run) : 71441A85
CRC32 hash : 71441A85
CRC32 hash (skip zero) : E6EEA3CD
AccurateRip v1 signature : A8E667B2
AccurateRip v2 signature : 67228210
->Track not present in AccurateRip database.
Statistics
Read error : 0
Jitter error (maybe fixed) : 0
Retry sector count : 0
Damaged sector count : 0
Track 09
Filename : /Users/wouter/Documents/Black Flower - Absyssinia Afterlife (2014) [FLAC]/09 Absyssinia Afterlife.flac
Track gain : -7.28 dB
Peak : 1.000000
CRC32 hash (test run) : 937674D9
CRC32 hash : 937674D9
CRC32 hash (skip zero) : 8E5EF272
AccurateRip v1 signature : FF06E374
AccurateRip v2 signature : 26038D2C
->Track not present in AccurateRip database.
Statistics
Read error : 0
Jitter error (maybe fixed) : 0
Retry sector count : 0
Damaged sector count : 0
No errors occurred
End of status report
-----BEGIN XLD SIGNATURE-----
BPYlZHGVMah1ClcYZyJSzi08DmkpusWwuH8k2JOUNsSjYjgdZpV9lm8GIN9Jx6fuKSWxKyIDQDFNNT401wNtPu3BytsiBPwXHSMnnhi
-----END XLD SIGNATURE-----
 
Содержание индексной карты (.CUE)
TITLE "Absyssinia Afterlife"
PERFORMER "Black Flower"
REM DATE "2014"
REM DISCID 730B9709
FILE "01 Solar Eclipse.wav" WAVE
TRACK 01 AUDIO
TITLE "Solar Eclipse"
PERFORMER "Black Flower"
INDEX 01 00:00:00
FILE "02 Upwards (Ft Smokey Hormel).wav" WAVE
TRACK 02 AUDIO
TITLE "Upwards (Ft Smokey Hormel)"
PERFORMER "Black Flower"
INDEX 01 00:00:00
FILE "03 I Threw A Lemon At That Girl.wav" WAVE
TRACK 03 AUDIO
TITLE "I Threw A Lemon At That Girl"
PERFORMER "Black Flower"
INDEX 01 00:00:00
FILE "04 Jungle Desert.wav" WAVE
TRACK 04 AUDIO
TITLE "Jungle Desert"
PERFORMER "Black Flower"
INDEX 01 00:00:00
FILE "05 Winter.wav" WAVE
TRACK 05 AUDIO
TITLE "Winter"
PERFORMER "Black Flower"
INDEX 01 00:00:00
FILE "06 Star Fishing.wav" WAVE
TRACK 06 AUDIO
TITLE "Star Fishing"
PERFORMER "Black Flower"
INDEX 01 00:00:00
FILE "07 The Legacy Of Prester John.wav" WAVE
TRACK 07 AUDIO
TITLE "The Legacy Of Prester John"
PERFORMER "Black Flower"
INDEX 01 00:00:00
FILE "08 Again I Lost It.wav" WAVE
TRACK 08 AUDIO
TITLE "Again I Lost It"
PERFORMER "Black Flower"
INDEX 01 00:00:00
FILE "09 Absyssinia Afterlife.wav" WAVE
TRACK 09 AUDIO
TITLE "Absyssinia Afterlife"
PERFORMER "Black Flower"
INDEX 01 00:00:00
 
Об альбоме
Born out of a surreal experience and with strong devotion Black Flower takes you on a lucid voyage through the gardens of the Abyssinian afterlife. A highly remarkable place, far away from what you and I would call reality. It is a place where strange creatures and unfamiliar sounds merge into a harmony of the weird and the beautiful. It is said that these are the secret realms of the long past legendary ruler of Ethiopia, Sir Prester John. Some even claim that he composed these sounds as a way of ruling his ancient land. Whether this is fact or myth, nobody knows for sure...
 
Состав

Nathan Daems – alto, tenor & baritone saxophone,
flute, melodica, compositions
Jon Birdsong - cornet, alto horn
Simon Segers - drums
Filip Vandebril - bass
Wouter Haest - keys
guests
Robbe Kieckens - percussion
Smokey Hormel - electric guitar (2)
Приватный:
Нет (DHT включён)
Размер:
317.78 Мб (333,215,177 байт) » файлов: 19
Участники:
0 раздают, 0 качают (0 участников всего)
Внешние участники:
2 раздают, 1 качают (3 участников всего) [ Обновить ]
Есть вопросы - пишите личное сообщение пользователю M0p94ok.
03:50
62
Нет комментариев. Ваш будет первым!