Поиск

(Soul, Funk) Kool & The Gang - Something Special [ReIssue 2013] - 1981, FLAC (tracks+.cue), lossless

(Soul, Funk) Kool & The Gang - Something Special [ReIssue 2013] - 1981, FLAC (tracks+.cue), lossless
Треклист:
Kool & The Gang / Something Special [ReIssue 2013]
Жанр: Soul, Funk
Страна-производитель диска (релиза): UK
Год издания: 1981
Издатель (лейбл): Big Break Records
Номер по каталогу: CDBBRX 0156
Страна исполнителя (группы): USA
Аудиокодек: FLAC (*.flac)
Тип рипа: tracks+.cue
Битрейт аудио: lossless
Продолжительность: 01:07:48
Источник (релизер): Сеть
Наличие сканов в содержимом раздачи: да
Треклист:
01 - Steppin' Out
02 - Good Time Tonight
03 - Take My Heart (You Can Have It If You Want It)
04 - Be My Lady
05 - Get Down On It
06 - Pass It On
07 - Stand Up And Sing
08 - No Show
09 - Steppin Out [12'' Mix]
10 - Get Down On It [12'' Mix]
11 - Take My Heart (You Can Have It If You Want It) [12'' Mix]
12 - Stop!
13 - Steppin' Out [Single Remix]
14 - Get Down On It [Single Version]
15 - Take My Heart (You Can Have It If You Want It) [Single Remix]
 
Содержание индексной карты (.CUE)
PERFORMER "Kool & The Gang"
TITLE "Something Special [ReIssue 2013]"
FILE "01 - Steppin' Out.flac" WAVE
TRACK 01 AUDIO
TITLE "Steppin' Out"
PERFORMER "Kool & The Gang"
INDEX 01 00:00:00
FILE "02 - Good Time Tonight.flac" WAVE
TRACK 02 AUDIO
TITLE "Good Time Tonight"
PERFORMER "Kool & The Gang"
INDEX 01 00:00:00
FILE "03 - Take My Heart (You Can Have It If You Want It).flac" WAVE
TRACK 03 AUDIO
TITLE "Take My Heart (You Can Have It If You Want It)"
PERFORMER "Kool & The Gang"
INDEX 01 00:00:00
FILE "04 - Be My Lady.flac" WAVE
TRACK 04 AUDIO
TITLE "Be My Lady"
PERFORMER "Kool & The Gang"
INDEX 01 00:00:00
FILE "05 - Get Down On It.flac" WAVE
TRACK 05 AUDIO
TITLE "Get Down On It"
PERFORMER "Kool & The Gang"
INDEX 01 00:00:00
FILE "06 - Pass It On.flac" WAVE
TRACK 06 AUDIO
TITLE "Pass It On"
PERFORMER "Kool & The Gang"
INDEX 01 00:00:00
FILE "07 - Stand Up And Sing.flac" WAVE
TRACK 07 AUDIO
TITLE "Stand Up And Sing"
PERFORMER "Kool & The Gang"
INDEX 01 00:00:00
FILE "08 - No Show.flac" WAVE
TRACK 08 AUDIO
TITLE "No Show"
PERFORMER "Kool & The Gang"
INDEX 01 00:00:00
FILE "09 - Steppin Out [12'' Mix].flac" WAVE
TRACK 09 AUDIO
TITLE "Steppin Out [12'' Mix]"
PERFORMER "Kool & The Gang"
INDEX 01 00:00:00
FILE "10 - Get Down On It [12'' Mix].flac" WAVE
TRACK 10 AUDIO
TITLE "Get Down On It [12'' Mix]"
PERFORMER "Kool & The Gang"
INDEX 01 00:00:00
FILE "11 - Take My Heart (You Can Have It If You Want It) [12'' Mix].flac" WAVE
TRACK 11 AUDIO
TITLE "Take My Heart (You Can Have It If You Want It) [12'' Mix]"
PERFORMER "Kool & The Gang"
INDEX 01 00:00:00
FILE "12 - Stop!.flac" WAVE
TRACK 12 AUDIO
TITLE "Stop!"
PERFORMER "Kool & The Gang"
INDEX 01 00:00:00
FILE "13 - Steppin' Out [Single Remix].flac" WAVE
TRACK 13 AUDIO
TITLE "Steppin' Out [Single Remix]"
PERFORMER "Kool & The Gang"
INDEX 01 00:00:00
FILE "14 - Get Down On It [Single Version].flac" WAVE
TRACK 14 AUDIO
TITLE "Get Down On It [Single Version]"
PERFORMER "Kool & The Gang"
INDEX 01 00:00:00
FILE "15 - Take My Heart (You Can Have It If You Want It) [Single Remix].flac" WAVE
TRACK 15 AUDIO
TITLE "Take My Heart (You Can Have It If You Want It) [Single Remix]"
PERFORMER "Kool & The Gang"
INDEX 01 00:00:00
 
Лог проверки качества
Начато: понедельник, 19. 01. 2015. - 20:30.17
Найдено файлов: 15
01 -===- C:\Users\Dan\Новая папка\Kool & The Gang\Kool & The Gang - 1981 - Something Special [ReIssue 2013]\01 - Steppin' Out.flac
Извлечение успешно выполнено
Заключение: этот трек - CDDA с вероятностью 100%
Временный файл удалён.
02 -===- C:\Users\Dan\Новая папка\Kool & The Gang\Kool & The Gang - 1981 - Something Special [ReIssue 2013]\02 - Good Time Tonight.flac
Извлечение успешно выполнено
Заключение: этот трек - CDDA с вероятностью 100%
Временный файл удалён.
03 -===- C:\Users\Dan\Новая папка\Kool & The Gang\Kool & The Gang - 1981 - Something Special [ReIssue 2013]\03 - Take My Heart (You Can Have It If You Want It).flac
Извлечение успешно выполнено
Заключение: этот трек - CDDA с вероятностью 100%
Временный файл удалён.
04 -===- C:\Users\Dan\Новая папка\Kool & The Gang\Kool & The Gang - 1981 - Something Special [ReIssue 2013]\04 - Be My Lady.flac
Извлечение успешно выполнено
Заключение: этот трек - CDDA с вероятностью 100%
Временный файл удалён.
05 -===- C:\Users\Dan\Новая папка\Kool & The Gang\Kool & The Gang - 1981 - Something Special [ReIssue 2013]\05 - Get Down On It.flac
Извлечение успешно выполнено
Заключение: этот трек - CDDA с вероятностью 99%
Временный файл удалён.
06 -===- C:\Users\Dan\Новая папка\Kool & The Gang\Kool & The Gang - 1981 - Something Special [ReIssue 2013]\06 - Pass It On.flac
Извлечение успешно выполнено
Заключение: этот трек - CDDA с вероятностью 100%
Временный файл удалён.
07 -===- C:\Users\Dan\Новая папка\Kool & The Gang\Kool & The Gang - 1981 - Something Special [ReIssue 2013]\07 - Stand Up And Sing.flac
Извлечение успешно выполнено
Заключение: этот трек - CDDA с вероятностью 100%
Временный файл удалён.
08 -===- C:\Users\Dan\Новая папка\Kool & The Gang\Kool & The Gang - 1981 - Something Special [ReIssue 2013]\08 - No Show.flac
Извлечение успешно выполнено
Заключение: этот трек - CDDA с вероятностью 100%
Временный файл удалён.
09 -===- C:\Users\Dan\Новая папка\Kool & The Gang\Kool & The Gang - 1981 - Something Special [ReIssue 2013]\09 - Steppin Out [12'' Mix].flac
Извлечение успешно выполнено
Заключение: этот трек - CDDA с вероятностью 100%
Временный файл удалён.
10 -===- C:\Users\Dan\Новая папка\Kool & The Gang\Kool & The Gang - 1981 - Something Special [ReIssue 2013]\10 - Get Down On It [12'' Mix].flac
Извлечение успешно выполнено
Заключение: этот трек - CDDA с вероятностью 100%
Временный файл удалён.
11 -===- C:\Users\Dan\Новая папка\Kool & The Gang\Kool & The Gang - 1981 - Something Special [ReIssue 2013]\11 - Take My Heart (You Can Have It If You Want It) [12'' Mix].flac
Извлечение успешно выполнено
Заключение: этот трек - CDDA с вероятностью 100%
Временный файл удалён.
12 -===- C:\Users\Dan\Новая папка\Kool & The Gang\Kool & The Gang - 1981 - Something Special [ReIssue 2013]\12 - Stop!.flac
Извлечение успешно выполнено
Заключение: этот трек - MPEG с вероятностью 95%
Временный файл удалён.
13 -===- C:\Users\Dan\Новая папка\Kool & The Gang\Kool & The Gang - 1981 - Something Special [ReIssue 2013]\13 - Steppin' Out [Single Remix].flac
Извлечение успешно выполнено
Заключение: этот трек - CDDA с вероятностью 100%
Временный файл удалён.
14 -===- C:\Users\Dan\Новая папка\Kool & The Gang\Kool & The Gang - 1981 - Something Special [ReIssue 2013]\14 - Get Down On It [Single Version].flac
Извлечение успешно выполнено
Заключение: этот трек - CDDA с вероятностью 100%
Временный файл удалён.
15 -===- C:\Users\Dan\Новая папка\Kool & The Gang\Kool & The Gang - 1981 - Something Special [ReIssue 2013]\15 - Take My Heart (You Can Have It If You Want It) [Single Remix].flac
Извлечение успешно выполнено
Заключение: этот трек - CDDA с вероятностью 100%
Временный файл удалён.
Завершено: понедельник, 19. 01. 2015. - 20:32.56 (Время операции: 0:02.39)
Приватный:
Нет (DHT включён)
Размер:
419.37 Мб (439,744,558 байт) » файлов: 23
Участники:
0 раздают, 0 качают (0 участников всего)
Внешние участники:
1 раздают, 0 качают (1 участников всего) [ Обновить ]
No seeders - write a personal message to user M0p94ok. Нет сидеров - пишите личное сообщение пользователю M0p94ok.
03:50
62
Нет комментариев. Ваш будет первым!