Поиск

(Soul, R&B) [CD] Shirley Brown - Intimate Storm (1984) - 1989, FLAC (tracks+.cue), lossless

(Soul, R&B) [CD] Shirley Brown - Intimate Storm (1984) - 1989, FLAC (tracks+.cue), lossless
Треклист:
Shirley Brown - Intimate Storm (1984)
Жанр: Soul, R&B
Носитель: CD
Год издания: 1989
Издатель (лейбл): P-Vine Records
Номер по каталогу: PCD-2101
Аудиокодек: FLAC (*.flac)
Тип рипа: tracks+.cue
Битрейт аудио: lossless
Продолжительность: 36:44
Rip by JET 1
Наличие сканов: да
Треклист:
01. Boyfriend (5:09)
02. I Don't Play That (4:10)
03. Looking For Real Thing (3:28)
04. This Love (5:18)
05. I'm Up To No Good (3:49)
06. Love Fever (3:56)
07. This Use To Be Your House (5:13)
08. Leave The Bridges Standing (5:39)
 
 
Лог создания рипа
Exact Audio Copy V1.0 beta 3 from 29. August 2011
EAC extraction logfile from 7. January 2015, 19:24
Shirley Brown / Intimate Storm
Used drive : ATAPI DVD A DH16A6L-C Adapter: 2 ID: 0
Read mode : Secure
Utilize accurate stream : Yes
Defeat audio cache : Yes
Make use of C2 pointers : No
Read offset correction : 6
Overread into Lead-In and Lead-Out : No
Fill up missing offset samples with silence : Yes
Delete leading and trailing silent blocks : No
Null samples used in CRC calculations : Yes
Used interface : Native Win32 interface for Win NT & 2000
Gap handling : Appended to previous track
Used output format : User Defined Encoder
Selected bitrate : 1024 kBit/s
Quality : High
Add ID3 tag : No
Command line compressor : C:\Program Files\FLAC\flac.exe
Additional command line options : -8 -V -T "ARTIST=%artist%" -T "TITLE=%title%" -T "ALBUM=%albumtitle%" -T "DATE=%year%" -T "TRACKNUMBER=%tracknr%" -T "GENRE=%genre%" -T "PERFORMER=%albuminterpret%" -T "COMPOSER=%composer%" %haslyrics%--tag-from-file=LYRICS="%lyricsfile%"%haslyrics% -T "ALBUMARTIST=%albumartist%" -T "DISCNUMBER=%cdnumber%" -T "TOTALDISCS=%totalcds%" -T "TOTALTRACKS=%numtracks%" -T "COMMENT=%comment%" %source% -o %dest%
TOC of the extracted CD
Track | Start | Length | Start sector | End sector
---------------------------------------------------------
1 | 0:00.00 | 5:09.15 | 0 | 23189
2 | 5:09.15 | 4:10.25 | 23190 | 41964
3 | 9:19.40 | 3:28.30 | 41965 | 57594
4 | 12:47.70 | 5:18.37 | 57595 | 81481
5 | 18:06.32 | 3:49.00 | 81482 | 98656
6 | 21:55.32 | 3:56.08 | 98657 | 116364
7 | 25:51.40 | 5:13.07 | 116365 | 139846
8 | 31:04.47 | 5:39.08 | 139847 | 165279
Track 1
Filename F:\0\!!!!!POST!!!!\Shirley Brown - Intimate Storm (1984) [1989 Japan Issue]\01 - Boyfriend.wav
Pre-gap length 0:00:02.00
Peak level 100.0 %
Extraction speed 3.5 X
Track quality 100.0 %
Test CRC 1B3C2EBD
Copy CRC 1B3C2EBD
Track not present in AccurateRip database
Copy OK
Track 2
Filename F:\0\!!!!!POST!!!!\Shirley Brown - Intimate Storm (1984) [1989 Japan Issue]\02 - I Don't Play That.wav
Pre-gap length 0:00:03.20
Peak level 99.9 %
Extraction speed 3.2 X
Track quality 99.9 %
Test CRC 799937D0
Copy CRC 799937D0
Track not present in AccurateRip database
Copy OK
Track 3
Filename F:\0\!!!!!POST!!!!\Shirley Brown - Intimate Storm (1984) [1989 Japan Issue]\03 - Looking For Real Thing.wav
Pre-gap length 0:00:02.58
Peak level 99.9 %
Extraction speed 3.9 X
Track quality 100.0 %
Test CRC F55FACF3
Copy CRC F55FACF3
Track not present in AccurateRip database
Copy OK
Track 4
Filename F:\0\!!!!!POST!!!!\Shirley Brown - Intimate Storm (1984) [1989 Japan Issue]\04 - This Love.wav
Pre-gap length 0:00:02.00
Peak level 100.0 %
Extraction speed 4.7 X
Track quality 100.0 %
Test CRC 39EEE676
Copy CRC 39EEE676
Track not present in AccurateRip database
Copy OK
Track 5
Filename F:\0\!!!!!POST!!!!\Shirley Brown - Intimate Storm (1984) [1989 Japan Issue]\05 - I'm Up To No Good.wav
Pre-gap length 0:00:01.27
Peak level 99.9 %
Extraction speed 4.8 X
Track quality 100.0 %
Test CRC 68AEDEDA
Copy CRC 68AEDEDA
Track not present in AccurateRip database
Copy OK
Track 6
Filename F:\0\!!!!!POST!!!!\Shirley Brown - Intimate Storm (1984) [1989 Japan Issue]\06 - Love Fever.wav
Pre-gap length 0:00:02.20
Peak level 100.0 %
Extraction speed 5.1 X
Track quality 100.0 %
Test CRC DBED8DDC
Copy CRC DBED8DDC
Track not present in AccurateRip database
Copy OK
Track 7
Filename F:\0\!!!!!POST!!!!\Shirley Brown - Intimate Storm (1984) [1989 Japan Issue]\07 - This Use To Be Your House.wav
Pre-gap length 0:00:01.28
Peak level 99.8 %
Extraction speed 5.5 X
Track quality 100.0 %
Test CRC 5711FBD2
Copy CRC 5711FBD2
Track not present in AccurateRip database
Copy OK
Track 8
Filename F:\0\!!!!!POST!!!!\Shirley Brown - Intimate Storm (1984) [1989 Japan Issue]\08 - Leave The Bridges Standing.wav
Pre-gap length 0:00:04.17
Peak level 82.7 %
Extraction speed 5.9 X
Track quality 100.0 %
Test CRC 1130B6D9
Copy CRC 1130B6D9
Track not present in AccurateRip database
Copy OK
None of the tracks are present in the AccurateRip database
No errors occurred
End of status report
==== Log checksum 300D12ECE7E5A711FBF18E201A5B608D510BB06E1DC81F67355880ED185D8169 ====
 
Содержание индексной карты (.CUE)
REM GENRE Soul
REM DATE 1984
REM DISCID 69089B08
REM COMMENT "ExactAudioCopy v1.0b3"
PERFORMER "Shirley Brown"
TITLE "Intimate Storm"
FILE "01 - Boyfriend.wav" WAVE
TRACK 01 AUDIO
TITLE "Boyfriend"
PERFORMER "Shirley Brown"
INDEX 01 00:00:00
TRACK 02 AUDIO
TITLE "I Don't Play That"
PERFORMER "Shirley Brown"
INDEX 00 05:05:70
FILE "02 - I Don't Play That.wav" WAVE
INDEX 01 00:00:00
TRACK 03 AUDIO
TITLE "Looking For Real Thing"
PERFORMER "Shirley Brown"
INDEX 00 04:07:42
FILE "03 - Looking For Real Thing.wav" WAVE
INDEX 01 00:00:00
TRACK 04 AUDIO
TITLE "This Love"
PERFORMER "Shirley Brown"
INDEX 00 03:26:30
FILE "04 - This Love.wav" WAVE
INDEX 01 00:00:00
TRACK 05 AUDIO
TITLE "I'm Up To No Good"
PERFORMER "Shirley Brown"
INDEX 00 05:17:10
FILE "05 - I'm Up To No Good.wav" WAVE
INDEX 01 00:00:00
TRACK 06 AUDIO
TITLE "Love Fever"
PERFORMER "Shirley Brown"
INDEX 00 03:46:55
FILE "06 - Love Fever.wav" WAVE
INDEX 01 00:00:00
TRACK 07 AUDIO
TITLE "This Use To Be Your House"
PERFORMER "Shirley Brown"
INDEX 00 03:54:55
FILE "07 - This Use To Be Your House.wav" WAVE
INDEX 01 00:00:00
TRACK 08 AUDIO
TITLE "Leave The Bridges Standing"
PERFORMER "Shirley Brown"
INDEX 00 05:08:65
FILE "08 - Leave The Bridges Standing.wav" WAVE
INDEX 01 00:00:00
Приватный:
Нет (DHT включён)
Размер:
243.71 Мб (255,547,575 байт) » файлов: 21
Участники:
0 раздают, 0 качают (0 участников всего)
Внешние участники:
3 раздают, 1 качают (4 участников всего) [ Обновить ]
Есть вопросы - пишите личное сообщение пользователю M0p94ok.
03:49
73
Нет комментариев. Ваш будет первым!