Поиск

(Funk/Soul/Pop) [CD] Martha Reeves - The Rest Of My Life (Expanded Edition) - 1976, FLAC (tracks+.cue), lossless

(Funk/Soul/Pop) [CD] Martha Reeves - The Rest Of My Life (Expanded Edition) - 1976, FLAC (tracks+.cue), lossless
Треклист:
Martha Reeves / The Rest Of My Life (Expanded Edition) 1976
Жанр: Funk/Soul/Pop
Носитель: CD
Страна-производитель диска (релиза): USA
Год издания: 2014
Издатель (лейбл): Funky Town Grooves
Номер по каталогу: FTG-397
Страна исполнителя (группы): USA
Аудиокодек: FLAC (*.flac)
Тип рипа: tracks+.cue
Битрейт аудио: lossless
Продолжительность: 01:07:44
Источник (релизер): рип от JET1
Наличие сканов в содержимом раздачи: да
Треклист:
1 Higher And Higher
2 The Rest Of My Life
3 Second Chance
4 This Time I'll Be Sweeter
5 Love Blind
6 Thank You
7 Now That We Found Love
8 Love Strong Enough To Move Mountains
9 You've Lost That Lovin' Feelin'
Bonus Tracks :
10 (I Want To Be With You) The Rest Of My Life (7” Version)
11 You’ve Lost That Lovin’ Feelin’ (7” Version)
12 Thank You (7” Version)
13 Love Strong Enough To Move Mountains (7” Mix)
14 Now That We Found Love (7” Mix)
15 (I Want To Be With You) The Rest Of My Life (Alternate Mix Part 1 Un-Released)
16 (I Want To Be With You) The Rest Of My Life (Alternate Mix Part 2 Un-Released)
 
Лог создания рипа
Exact Audio Copy V1.0 beta 3 from 29. August 2011
EAC extraction logfile from 9. December 2014, 12:42
Martha Reeves / The Rest Of My Life {Expanded Edition}
Used drive : ATAPI DVD A DH16A6L-C Adapter: 2 ID: 0
Read mode : Secure
Utilize accurate stream : Yes
Defeat audio cache : Yes
Make use of C2 pointers : No
Read offset correction : 6
Overread into Lead-In and Lead-Out : No
Fill up missing offset samples with silence : Yes
Delete leading and trailing silent blocks : No
Null samples used in CRC calculations : Yes
Used interface : Native Win32 interface for Win NT & 2000
Gap handling : Appended to previous track
Used output format : User Defined Encoder
Selected bitrate : 1024 kBit/s
Quality : High
Add ID3 tag : No
Command line compressor : C:\Program Files\FLAC\flac.exe
Additional command line options : -8 -V -T "ARTIST=%artist%" -T "TITLE=%title%" -T "ALBUM=%albumtitle%" -T "DATE=%year%" -T "TRACKNUMBER=%tracknr%" -T "GENRE=%genre%" -T "PERFORMER=%albuminterpret%" -T "COMPOSER=%composer%" %haslyrics%--tag-from-file=LYRICS="%lyricsfile%"%haslyrics% -T "ALBUMARTIST=%albumartist%" -T "DISCNUMBER=%cdnumber%" -T "TOTALDISCS=%totalcds%" -T "TOTALTRACKS=%numtracks%" -T "COMMENT=%comment%" %source% -o %dest%
TOC of the extracted CD
Track | Start | Length | Start sector | End sector
---------------------------------------------------------
1 | 0:00.00 | 3:35.13 | 0 | 16137
2 | 3:35.13 | 4:55.16 | 16138 | 38278
3 | 8:30.29 | 3:34.74 | 38279 | 54402
4 | 12:05.28 | 3:57.61 | 54403 | 72238
5 | 16:03.14 | 3:44.55 | 72239 | 89093
6 | 19:47.69 | 4:51.15 | 89094 | 110933
7 | 24:39.09 | 4:28.34 | 110934 | 131067
8 | 29:07.43 | 5:38.62 | 131068 | 156479
9 | 34:46.30 | 4:30.09 | 156480 | 176738
10 | 39:16.39 | 3:27.37 | 176739 | 192300
11 | 42:44.01 | 3:37.63 | 192301 | 208638
12 | 46:21.64 | 5:06.01 | 208639 | 231589
13 | 51:27.65 | 3:49.34 | 231590 | 248798
14 | 55:17.24 | 3:29.33 | 248799 | 264506
15 | 58:46.57 | 3:59.49 | 264507 | 282480
16 | 62:46.31 | 4:58.04 | 282481 | 304834
Track 1
Filename F:\0\!!!!!POST!!!!\Martha Reeves ‎- The Rest Of My Life (1976) [2014 FTG Reissue]\01 - 01-Higher And Higher.wav
Pre-gap length 0:00:02.00
Peak level 100.0 %
Extraction speed 3.5 X
Track quality 100.0 %
Test CRC A5A7EA49
Copy CRC A5A7EA49
Track not present in AccurateRip database
Copy OK
Track 2
Filename F:\0\!!!!!POST!!!!\Martha Reeves ‎- The Rest Of My Life (1976) [2014 FTG Reissue]\02 - 02-(I Want To Be With You) The Rest Of My Life.wav
Pre-gap length 0:00:02.00
Peak level 100.0 %
Extraction speed 4.0 X
Track quality 100.0 %
Test CRC 00434F66
Copy CRC 00434F66
Track not present in AccurateRip database
Copy OK
Track 3
Filename F:\0\!!!!!POST!!!!\Martha Reeves ‎- The Rest Of My Life (1976) [2014 FTG Reissue]\03 - 03-Second Chance.wav
Pre-gap length 0:00:02.00
Peak level 98.3 %
Extraction speed 4.2 X
Track quality 100.0 %
Test CRC 2C2994AD
Copy CRC 2C2994AD
Track not present in AccurateRip database
Copy OK
Track 4
Filename F:\0\!!!!!POST!!!!\Martha Reeves ‎- The Rest Of My Life (1976) [2014 FTG Reissue]\04 - 04-This Time I'll Be Sweeter.wav
Pre-gap length 0:00:02.00
Peak level 100.0 %
Extraction speed 4.6 X
Track quality 100.0 %
Test CRC 30BED8A0
Copy CRC 30BED8A0
Track not present in AccurateRip database
Copy OK
Track 5
Filename F:\0\!!!!!POST!!!!\Martha Reeves ‎- The Rest Of My Life (1976) [2014 FTG Reissue]\05 - 05-Love Blind.wav
Pre-gap length 0:00:02.00
Peak level 99.1 %
Extraction speed 3.8 X
Track quality 99.9 %
Test CRC 07CCE416
Copy CRC 07CCE416
Track not present in AccurateRip database
Copy OK
Track 6
Filename F:\0\!!!!!POST!!!!\Martha Reeves ‎- The Rest Of My Life (1976) [2014 FTG Reissue]\06 - 06-Thank You.wav
Pre-gap length 0:00:02.00
Peak level 100.0 %
Extraction speed 5.2 X
Track quality 100.0 %
Test CRC D2F17066
Copy CRC D2F17066
Track not present in AccurateRip database
Copy OK
Track 7
Filename F:\0\!!!!!POST!!!!\Martha Reeves ‎- The Rest Of My Life (1976) [2014 FTG Reissue]\07 - 07-Now That We Found Love.wav
Pre-gap length 0:00:02.00
Peak level 100.0 %
Extraction speed 5.4 X
Track quality 100.0 %
Test CRC EC9B238A
Copy CRC EC9B238A
Track not present in AccurateRip database
Copy OK
Track 8
Filename F:\0\!!!!!POST!!!!\Martha Reeves ‎- The Rest Of My Life (1976) [2014 FTG Reissue]\08 - 08-Love Strong Enough To Move Mountains.wav
Pre-gap length 0:00:02.00
Peak level 99.3 %
Extraction speed 5.9 X
Track quality 100.0 %
Test CRC 8EA44EDD
Copy CRC 8EA44EDD
Track not present in AccurateRip database
Copy OK
Track 9
Filename F:\0\!!!!!POST!!!!\Martha Reeves ‎- The Rest Of My Life (1976) [2014 FTG Reissue]\09 - 09-You've Lost That Lovin' Feelin'.wav
Pre-gap length 0:00:02.00
Peak level 100.0 %
Extraction speed 5.0 X
Track quality 99.9 %
Test CRC 90B501B8
Copy CRC 90B501B8
Track not present in AccurateRip database
Copy OK
Track 10
Filename F:\0\!!!!!POST!!!!\Martha Reeves ‎- The Rest Of My Life (1976) [2014 FTG Reissue]\10 - 10-(I Want To Be With You) The Rest Of My Life - {7 Inch Version}.wav
Pre-gap length 0:00:02.00
Peak level 100.0 %
Extraction speed 4.7 X
Track quality 99.9 %
Test CRC FCBC9E5D
Copy CRC FCBC9E5D
Track not present in AccurateRip database
Copy OK
Track 11
Filename F:\0\!!!!!POST!!!!\Martha Reeves ‎- The Rest Of My Life (1976) [2014 FTG Reissue]\11 - 11-You've Lost That Lovin' Feelin' - {7 Inch Version}.wav
Pre-gap length 0:00:02.00
Peak level 100.0 %
Extraction speed 5.0 X
Track quality 99.9 %
Test CRC 9AB8B7E0
Copy CRC 9AB8B7E0
Track not present in AccurateRip database
Copy OK
Track 12
Filename F:\0\!!!!!POST!!!!\Martha Reeves ‎- The Rest Of My Life (1976) [2014 FTG Reissue]\12 - 12-Thank You - {7 Inch Version}.wav
Pre-gap length 0:00:02.00
Peak level 100.0 %
Extraction speed 5.0 X
Track quality 99.9 %
Test CRC A9FA2BB5
Copy CRC A9FA2BB5
Track not present in AccurateRip database
Copy OK
Track 13
Filename F:\0\!!!!!POST!!!!\Martha Reeves ‎- The Rest Of My Life (1976) [2014 FTG Reissue]\13 - 13-Love Strong Enough To Move Mountains - {7 Inch Mix}.wav
Pre-gap length 0:00:02.00
Peak level 98.2 %
Extraction speed 6.7 X
Track quality 100.0 %
Test CRC 5433D70E
Copy CRC 5433D70E
Track not present in AccurateRip database
Copy OK
Track 14
Filename F:\0\!!!!!POST!!!!\Martha Reeves ‎- The Rest Of My Life (1976) [2014 FTG Reissue]\14 - 14-Now That We Found Love - {7 Inch Mix}.wav
Pre-gap length 0:00:02.00
Peak level 100.0 %
Extraction speed 5.3 X
Track quality 99.9 %
Test CRC ED4F34EA
Copy CRC ED4F34EA
Track not present in AccurateRip database
Copy OK
Track 15
Filename F:\0\!!!!!POST!!!!\Martha Reeves ‎- The Rest Of My Life (1976) [2014 FTG Reissue]\15 - 15-(I Want To Be With You) The Rest Of My Life - {Alternate Mix One}.wav
Pre-gap length 0:00:02.00
Peak level 100.0 %
Extraction speed 5.7 X
Track quality 99.9 %
Test CRC 67952D63
Copy CRC 67952D63
Track not present in AccurateRip database
Copy OK
Track 16
Filename F:\0\!!!!!POST!!!!\Martha Reeves ‎- The Rest Of My Life (1976) [2014 FTG Reissue]\16 - 16-(I Want To Be With You) The Rest Of My Life - {Alternate Mix Two}.wav
Pre-gap length 0:00:02.00
Peak level 100.0 %
Extraction speed 3.8 X
Track quality 99.8 %
Test CRC 8969888C
Copy CRC 8969888C
Track not present in AccurateRip database
Copy OK
None of the tracks are present in the AccurateRip database
No errors occurred
End of status report
==== Log checksum B654DB9CC1D3F036232304F792457FE5A42DD61FFB7409FDE8D37DE377A99562 ====
 
Содержание индексной карты (.CUE)
REM DISCID 080FE010
REM COMMENT "ExactAudioCopy v1.0b3"
PERFORMER "Martha Reeves"
TITLE "The Rest Of My Life {Expanded Edition}"
FILE "01 - 01-Higher And Higher.wav" WAVE
TRACK 01 AUDIO
TITLE "01-Higher And Higher"
PERFORMER "Martha Reeves"
INDEX 01 00:00:00
TRACK 02 AUDIO
TITLE "02-(I Want To Be With You) The Rest Of My Life"
PERFORMER "Martha Reeves"
INDEX 00 03:33:13
FILE "02 - 02-(I Want To Be With You) The Rest Of My Life.wav" WAVE
INDEX 01 00:00:00
TRACK 03 AUDIO
TITLE "03-Second Chance"
PERFORMER "Martha Reeves"
INDEX 00 04:53:16
FILE "03 - 03-Second Chance.wav" WAVE
INDEX 01 00:00:00
TRACK 04 AUDIO
TITLE "04-This Time I'll Be Sweeter"
PERFORMER "Martha Reeves"
INDEX 00 03:32:74
FILE "04 - 04-This Time I'll Be Sweeter.wav" WAVE
INDEX 01 00:00:00
TRACK 05 AUDIO
TITLE "05-Love Blind"
PERFORMER "Martha Reeves"
INDEX 00 03:55:61
FILE "05 - 05-Love Blind.wav" WAVE
INDEX 01 00:00:00
TRACK 06 AUDIO
TITLE "06-Thank You"
PERFORMER "Martha Reeves"
INDEX 00 03:42:55
FILE "06 - 06-Thank You.wav" WAVE
INDEX 01 00:00:00
TRACK 07 AUDIO
TITLE "07-Now That We Found Love"
PERFORMER "Martha Reeves"
INDEX 00 04:49:15
FILE "07 - 07-Now That We Found Love.wav" WAVE
INDEX 01 00:00:00
TRACK 08 AUDIO
TITLE "08-Love Strong Enough To Move Mountains"
PERFORMER "Martha Reeves"
INDEX 00 04:26:34
FILE "08 - 08-Love Strong Enough To Move Mountains.wav" WAVE
INDEX 01 00:00:00
TRACK 09 AUDIO
TITLE "09-You've Lost That Lovin' Feelin'"
PERFORMER "Martha Reeves"
INDEX 00 05:36:62
FILE "09 - 09-You've Lost That Lovin' Feelin'.wav" WAVE
INDEX 01 00:00:00
TRACK 10 AUDIO
TITLE "10-(I Want To Be With You) The Rest Of My Life - {7 Inch Version}"
PERFORMER "Martha Reeves"
INDEX 00 04:28:09
FILE "10 - 10-(I Want To Be With You) The Rest Of My Life - {7 Inch Version}.wav" WAVE
INDEX 01 00:00:00
TRACK 11 AUDIO
TITLE "11-You've Lost That Lovin' Feelin' - {7 Inch Version}"
PERFORMER "Martha Reeves"
INDEX 00 03:25:37
FILE "11 - 11-You've Lost That Lovin' Feelin' - {7 Inch Version}.wav" WAVE
INDEX 01 00:00:00
TRACK 12 AUDIO
TITLE "12-Thank You - {7 Inch Version}"
PERFORMER "Martha Reeves"
INDEX 00 03:35:63
FILE "12 - 12-Thank You - {7 Inch Version}.wav" WAVE
INDEX 01 00:00:00
TRACK 13 AUDIO
TITLE "13-Love Strong Enough To Move Mountains - {7 Inch Mix}"
PERFORMER "Martha Reeves"
INDEX 00 05:04:01
FILE "13 - 13-Love Strong Enough To Move Mountains - {7 Inch Mix}.wav" WAVE
INDEX 01 00:00:00
TRACK 14 AUDIO
TITLE "14-Now That We Found Love - {7 Inch Mix}"
PERFORMER "Martha Reeves"
INDEX 00 03:47:34
FILE "14 - 14-Now That We Found Love - {7 Inch Mix}.wav" WAVE
INDEX 01 00:00:00
TRACK 15 AUDIO
TITLE "15-(I Want To Be With You) The Rest Of My Life - {Alternate Mix One}"
PERFORMER "Martha Reeves"
INDEX 00 03:27:33
FILE "15 - 15-(I Want To Be With You) The Rest Of My Life - {Alternate Mix One}.wav" WAVE
INDEX 01 00:00:00
TRACK 16 AUDIO
TITLE "16-(I Want To Be With You) The Rest Of My Life - {Alternate Mix Two}"
PERFORMER "Martha Reeves"
INDEX 00 03:57:49
FILE "16 - 16-(I Want To Be With You) The Rest Of My Life - {Alternate Mix Two}.wav" WAVE
INDEX 01 00:00:00
 
Об исполнителе (группе)
Приватный:
Нет (DHT включён)
Размер:
606.41 Мб (635,862,272 байт) » файлов: 27
Участники:
0 раздают, 0 качают (0 участников всего)
Внешние участники:
1 раздают, 0 качают (1 участников всего) [ Обновить ]
Есть вопросы - пишите личное сообщение пользователю M0p94ok.
03:54
49
Нет комментариев. Ваш будет первым!