Поиск

(Funk/Soul/Pop) [CD] Caroline Crawford - My Name Is Caroline - 1978, FLAC (tracks+.cue), lossless

(Funk/Soul/Pop) [CD] Caroline Crawford - My Name Is Caroline - 1978, FLAC (tracks+.cue), lossless
Треклист:
Caroline Crawford / My Name Is Caroline (1978)
Жанр: Funk/Soul/Pop
Носитель: CD
Страна-производитель диска (релиза): USA
Год издания: 2011
Издатель (лейбл): Reel Music
Номер по каталогу: PCD 72006 (66748-72006-2)
Страна исполнителя (группы): USA
Аудиокодек: FLAC (*.flac)
Тип рипа: tracks+.cue
Битрейт аудио: lossless
Продолжительность: 0:33:51
Источник (релизер): рип от JET1
Наличие сканов в содержимом раздачи: да
Треклист:
01 Tell Me You’ll Wait
02 Coming On Strong
03 A Lovesong For You
04 Caroline Breakdown
05 It Rains Because
06 A Nice Feeling
07 Riding On Your Love
 
Лог создания рипа
Exact Audio Copy V1.0 beta 3 from 29. August 2011
EAC extraction logfile from 17. December 2014, 10:41
Crawford , Caroline / My Name Is Caroline
Used drive : ATAPI DVD A DH16A6L-C Adapter: 2 ID: 0
Read mode : Secure
Utilize accurate stream : Yes
Defeat audio cache : Yes
Make use of C2 pointers : No
Read offset correction : 6
Overread into Lead-In and Lead-Out : No
Fill up missing offset samples with silence : Yes
Delete leading and trailing silent blocks : No
Null samples used in CRC calculations : Yes
Used interface : Native Win32 interface for Win NT & 2000
Gap handling : Appended to previous track
Used output format : User Defined Encoder
Selected bitrate : 1024 kBit/s
Quality : High
Add ID3 tag : No
Command line compressor : C:\Program Files\FLAC\flac.exe
Additional command line options : -8 -V -T "ARTIST=%artist%" -T "TITLE=%title%" -T "ALBUM=%albumtitle%" -T "DATE=%year%" -T "TRACKNUMBER=%tracknr%" -T "GENRE=%genre%" -T "PERFORMER=%albuminterpret%" -T "COMPOSER=%composer%" %haslyrics%--tag-from-file=LYRICS="%lyricsfile%"%haslyrics% -T "ALBUMARTIST=%albumartist%" -T "DISCNUMBER=%cdnumber%" -T "TOTALDISCS=%totalcds%" -T "TOTALTRACKS=%numtracks%" -T "COMMENT=%comment%" %source% -o %dest%
TOC of the extracted CD
Track | Start | Length | Start sector | End sector
---------------------------------------------------------
1 | 0:00.00 | 5:08.40 | 0 | 23139
2 | 5:08.40 | 4:29.42 | 23140 | 43356
3 | 9:38.07 | 3:11.32 | 43357 | 57713
4 | 12:49.39 | 3:57.57 | 57714 | 75545
5 | 16:47.21 | 5:39.46 | 75546 | 101016
6 | 22:26.67 | 5:11.19 | 101017 | 124360
7 | 27:38.11 | 6:12.70 | 124361 | 152330
Track 1
Filename F:\0\!!!!!POST!!!!\Caroline Crawford - My Name Is Caroline (1978)\01 - Tell Me You ll Wait (Hamilton Bohannon).wav
Pre-gap length 0:00:02.00
Peak level 97.7 %
Extraction speed 4.0 X
Track quality 100.0 %
Test CRC 6962BB94
Copy CRC 6962BB94
Accurately ripped (confidence 1) [CB684E38] (AR v2)
Copy OK
Track 2
Filename F:\0\!!!!!POST!!!!\Caroline Crawford - My Name Is Caroline (1978)\02 - Coming On Strong (Hamilton Bohannon).wav
Pre-gap length 0:00:01.42
Peak level 97.7 %
Extraction speed 3.6 X
Track quality 99.9 %
Test CRC 4E4B5F64
Copy CRC 4E4B5F64
Accurately ripped (confidence 1) [DB0155BA] (AR v2)
Copy OK
Track 3
Filename F:\0\!!!!!POST!!!!\Caroline Crawford - My Name Is Caroline (1978)\03 - A Love Song For You (Hamilton Bohannon).wav
Peak level 97.7 %
Extraction speed 4.5 X
Track quality 100.0 %
Test CRC 38B2EC52
Copy CRC 38B2EC52
Accurately ripped (confidence 1) [821219FB] (AR v2)
Copy OK
Track 4
Filename F:\0\!!!!!POST!!!!\Caroline Crawford - My Name Is Caroline (1978)\04 - Caroline Breakdown (Hamilton Bohannon).wav
Pre-gap length 0:00:01.14
Peak level 97.7 %
Extraction speed 4.9 X
Track quality 100.0 %
Test CRC 0C46C7AF
Copy CRC 0C46C7AF
Accurately ripped (confidence 1) [93A325EF] (AR v2)
Copy OK
Track 5
Filename F:\0\!!!!!POST!!!!\Caroline Crawford - My Name Is Caroline (1978)\05 - It Rains Because (Hamilton Bohannon).wav
Peak level 97.7 %
Extraction speed 4.7 X
Track quality 99.9 %
Test CRC 3F334C9E
Copy CRC 3F334C9E
Accurately ripped (confidence 1) [01801B81] (AR v2)
Copy OK
Track 6
Filename F:\0\!!!!!POST!!!!\Caroline Crawford - My Name Is Caroline (1978)\06 - A Nice Feeling (Hamilton Bohannon).wav
Pre-gap length 0:00:01.08
Peak level 97.7 %
Extraction speed 5.8 X
Track quality 100.0 %
Test CRC 5AB7574A
Copy CRC 5AB7574A
Accurately ripped (confidence 1) [F93D1057] (AR v2)
Copy OK
Track 7
Filename F:\0\!!!!!POST!!!!\Caroline Crawford - My Name Is Caroline (1978)\07 - Riding On Your Love (Hamilton Bohannon).wav
Peak level 97.7 %
Extraction speed 6.1 X
Track quality 100.0 %
Test CRC 8AD7DF71
Copy CRC 8AD7DF71
Accurately ripped (confidence 1) [951D9C11] (AR v2)
Copy OK
All tracks accurately ripped
No errors occurred
End of status report
==== Log checksum DB70134391D61AB82F55B2FE26EEEA3744451F0392E0CD649C50DBA7B2045F0B ====
 
Содержание индексной карты (.CUE)
REM GENRE Soul
REM DATE 1978
REM DISCID 4907EF07
REM COMMENT "ExactAudioCopy v1.0b3"
PERFORMER "Crawford , Caroline"
TITLE "My Name Is Caroline"
FILE "01 - Tell Me You ll Wait (Hamilton Bohannon).wav" WAVE
TRACK 01 AUDIO
TITLE "Tell Me You ll Wait (Hamilton Bohannon)"
PERFORMER "Crawford , Caroline"
INDEX 01 00:00:00
TRACK 02 AUDIO
TITLE "Coming On Strong (Hamilton Bohannon)"
PERFORMER "Crawford , Caroline"
INDEX 00 05:06:73
FILE "02 - Coming On Strong (Hamilton Bohannon).wav" WAVE
INDEX 01 00:00:00
FILE "03 - A Love Song For You (Hamilton Bohannon).wav" WAVE
TRACK 03 AUDIO
TITLE "A Love Song For You (Hamilton Bohannon)"
PERFORMER "Crawford , Caroline"
INDEX 01 00:00:00
TRACK 04 AUDIO
TITLE "Caroline Breakdown (Hamilton Bohannon)"
PERFORMER "Crawford , Caroline"
INDEX 00 03:10:18
FILE "04 - Caroline Breakdown (Hamilton Bohannon).wav" WAVE
INDEX 01 00:00:00
FILE "05 - It Rains Because (Hamilton Bohannon).wav" WAVE
TRACK 05 AUDIO
TITLE "It Rains Because (Hamilton Bohannon)"
PERFORMER "Crawford , Caroline"
INDEX 01 00:00:00
TRACK 06 AUDIO
TITLE "A Nice Feeling (Hamilton Bohannon)"
PERFORMER "Crawford , Caroline"
INDEX 00 05:38:38
FILE "06 - A Nice Feeling (Hamilton Bohannon).wav" WAVE
INDEX 01 00:00:00
FILE "07 - Riding On Your Love (Hamilton Bohannon).wav" WAVE
TRACK 07 AUDIO
TITLE "Riding On Your Love (Hamilton Bohannon)"
PERFORMER "Crawford , Caroline"
INDEX 01 00:00:00
Доп. информация: Кэролайн Кроуфорд выпустила всего три прекрасных сольных альбома, после чего к сожалению, завершила свою музыкальную карьеру
Приватный:
Нет (DHT включён)
Размер:
323.41 Мб (339,119,793 байт) » файлов: 18
Участники:
0 раздают, 0 качают (0 участников всего)
Внешние участники:
2 раздают, 1 качают (3 участников всего) [ Обновить ]
Есть вопросы - пишите личное сообщение пользователю M0p94ok.
03:54
52
Нет комментариев. Ваш будет первым!