Поиск

(Fusion, Jazz-Funk) [CD] John Tropea - Short Trip to Space - 1977 (2014 Japan Edition), FLAC (image+.cue), lossless

(Fusion, Jazz-Funk) [CD] John Tropea - Short Trip to Space - 1977 (2014 Japan Edition), FLAC (image+.cue), lossless
Треклист:
John Tropea - Short Trip to Space
Жанр: Fusion, Jazz-Funk
Носитель: CD
Страна-производитель диска (релиза): Япония
Год издания: 1977 (2014)
Издатель (лейбл): Sun Tropea/Savoy/Columbia
Номер по каталогу: COCB-54121
Страна исполнителя (группы): США
Аудиокодек: FLAC (*.flac)
Тип рипа: image+.cue
Битрейт аудио: lossless
Продолжительность: 36:27
Источник (релизер): kvapar (Спасибо Егору из PTZ)
Наличие сканов в содержимом раздачи: да
Треклист:
01. The Funk You See, Is the Funk You Do! (Tropea-Lee-Cartalemi) - 3:13
02. Can't Hide Love (Scarborough) - 4:15
03. Southside (Tropea) - 3:43
04. You Can't Have It All (Grolnick) - 5:19
05. Short Trip to Space (Tropea) - 7:15
06. Blue Too (Tropea) - 6:17
07. Love's Final Moment (Tropea) - 2:06
08. Twist of the Wrist (Tropea-Spinozza) - 4:20
 
Лог создания рипа
Exact Audio Copy V1.0 beta 3 from 29. August 2011
Отчёт EAC об извлечении, выполненном 25. января 2015, 15:55
John Tropea / Short Trip To Space
Дисковод: Optiarc DVD RW AD-7203S Adapter: 0 ID: 4
Режим чтения : Достоверность
Использование точного потока : Да
Отключение кэша аудио : Да
Использование указателей C2 : Нет
Коррекция смещения при чтении : 48
Способность читать области Lead-in и Lead-out : Нет
Заполнение пропущенных сэмплов тишиной : Да
Удаление блоков с тишиной в начале и конце : Нет
При вычислениях CRC использовались нулевые сэмплы : Да
Интерфейс : Встроенный Win32-интерфейс для Win NT/2000
Выходной формат : Пользовательский кодировщик
Выбранный битрейт : 128 kBit/s
Качество : Высокий
Добавление ID3-тега : Нет
Утилита сжатия : C:\Program Files (x86)\Exact Audio Copy\Flac\flac.exe
Дополнительные параметры : -V -8 -T "Date=%year%" -T "Genre=%genre%" %source%
TOC извлечённого CD
Трек | Старт | Длительность | Начальный сектор | Конечный сектор
---------------------------------------------------------------------
1 | 0:00.00 | 3:12.45 | 0 | 14444
2 | 3:12.45 | 4:15.27 | 14445 | 33596
3 | 7:27.72 | 3:43.25 | 33597 | 50346
4 | 11:11.22 | 5:18.55 | 50347 | 74251
5 | 16:30.02 | 7:14.45 | 74252 | 106846
6 | 23:44.47 | 6:16.48 | 106847 | 135094
7 | 30:01.20 | 2:06.07 | 135095 | 144551
8 | 32:07.27 | 4:20.05 | 144552 | 164056
Характеристики диапазона извлечения и сообщения об ошибках
Выбранный диапазон
Имя файла C:\Users\Администратор\Music\John Tropea - Short Trip To Space (1977)\John Tropea - Short Trip To Space (1977).wav
Пиковый уровень 99.5 %
Скорость извлечения 3.5 X
Качество диапазона 100.0 %
CRC теста 6835DD34
CRC копии 6835DD34
Копирование... OK
Ошибок не произошло
AccurateRip: сводка
Трек 1 точность не определена (достоверность 2) [2762B16A], AccurateRip вернул [8A63F772] (AR v2)
Трек 2 точность не определена (достоверность 2) [88DAD6A1], AccurateRip вернул [3106DC37] (AR v2)
Трек 3 точность не определена (достоверность 2) [B500094D], AccurateRip вернул [C44760D8] (AR v2)
Трек 4 точность не определена (достоверность 2) [EF8D5074], AccurateRip вернул [5D136AA2] (AR v2)
Трек 5 точность не определена (достоверность 2) [15AD8D65], AccurateRip вернул [5607321E] (AR v2)
Трек 6 точность не определена (достоверность 2) [71A94DCF], AccurateRip вернул [4DDDF909] (AR v2)
Трек 7 точность не определена (достоверность 2) [A3FF32B0], AccurateRip вернул [05AD138D] (AR v2)
Трек 8 точность не определена (достоверность 2) [F5693D87], AccurateRip вернул [8B7E732A] (AR v2)
Ни один трек не прошёл проверки на точность
В вашей базе может быть иной вариант штамповки диска
Конец отчёта
==== Контрольная сумма отчёта E2DFC9040E45E821F5AA4AA63C3023EB8C4CF199BEE805764DFD2069F0229D8D ====
 
Содержание индексной карты (.CUE)
REM GENRE Jazz
REM DATE 1977
REM DISCID 73088B08
REM COMMENT "ExactAudioCopy v1.0b3"
PERFORMER "John Tropea"
TITLE "Short Trip to Space"
FILE "John Tropea - Short Trip to Space.wav" WAVE
TRACK 01 AUDIO
TITLE "The Funk You See, Is the Funk You Do!"
PERFORMER "John Tropea"
INDEX 01 00:00:00
TRACK 02 AUDIO
TITLE "Can't Hide Love"
PERFORMER "John Tropea"
INDEX 00 03:11:20
INDEX 01 03:12:45
TRACK 03 AUDIO
TITLE "Southside"
PERFORMER "John Tropea"
INDEX 00 07:27:40
INDEX 01 07:27:72
TRACK 04 AUDIO
TITLE "You Can't Have It All"
PERFORMER "John Tropea"
INDEX 00 11:10:52
INDEX 01 11:11:22
TRACK 05 AUDIO
TITLE "Short Trip to Space"
PERFORMER "John Tropea"
INDEX 00 16:27:37
INDEX 01 16:30:02
TRACK 06 AUDIO
TITLE "Blue Too"
PERFORMER "John Tropea"
INDEX 00 23:43:15
INDEX 01 23:44:47
TRACK 07 AUDIO
TITLE "Love's Final Moment"
PERFORMER "John Tropea"
INDEX 00 29:59:45
INDEX 01 30:01:20
TRACK 08 AUDIO
TITLE "Twist of the Wrist"
PERFORMER "John Tropea"
INDEX 00 32:05:17
INDEX 01 32:07:27
 
Отчет CUETools
[CUETools log; Date: 26.01.2015 6:49:17; Version: 2.1.5]
[CTDB TOCID: LAhzcPkgzTnWk6Lvw2D73j5TIdA-] found.
Track | CTDB Status
1 | (0/2) No match
2 | (0/2) No match
3 | (0/2) No match
4 | (0/2) No match
5 | (0/2) No match
6 | (0/2) No match
7 | (0/2) No match
8 | (0/2) No match
[AccurateRip ID: 000b08f8-004b1a96-73088b08] found.
Track [ CRC | V2 ] Status
01 [fbbbbdf1|2762b16a] (0+0/2) No match
02 [3df2f482|88dad6a1] (0+0/2) No match
03 [d9d95b88|b500094d] (0+0/2) No match
04 [0625cb8b|ef8d5074] (0+0/2) No match
05 [1f5aeed1|15ad8d65] (0+0/2) No match
06 [5f4008df|71a94dcf] (0+0/2) No match
07 [43730c7b|a3ff32b0] (0+0/2) No match
08 [e2190a57|f5693d87] (0+0/2) No match
Track Peak [ CRC32 ] [W/O NULL] [ LOG ]
-- 99,5 [6835DD34] [EA4787D2] CRC32
01 99,5 [2199B5E2] [42D49D66]
02 99,4 [579D3AB6] [28FC13ED]
03 99,4 [71F74CB7] [AA881F49]
04 99,5 [D97AB7E6] [9B326F29]
05 99,5 [F548FF04] [FA272E6B]
06 99,5 [A4604B75] [F7C4D3B9]
07 96,1 [95899D93] [15F68C2E]
08 99,5 [85AFF056] [0BB2E238]
 
Об альбоме (сборнике)
One of the best fusion albums of the '70s! I picked this up on LP right after it went out of print and then proceeded to grab about 15 copies of it whenever I could find it cheap. I never thought it would come out on CD, but there it was a few years ago. Thank you, Japan! The cover artwork by Larry Laslo is really cool (from a time when cover art meant something), and the music is great if you like jazz fusion with an emphasis on melody. Tropea is at his best here, with great melodies like Skip Scarborough's "Can't Hide Love," Don Grolnick's "You Can't Have It All," and Tropea's own "Blue Too" (one of my all-time favorites) and "Short Trip to Space," a fascinating and complex tune that actually sounds like its title. The production is excellent, with a double-drum setup featuring Steve Gadd and Rick Marotta on most of the tunes that adds a lot of depth to the sound. Boosting the treble on your system will help this set sound even better. One detraction: "The Funk You See Is the Funk You Do" is not the LP version but a hacked up single version with very noticeable edits. It's not a great loss, although the tune is rather amusing and it sounds better in its complete form.
-- Hourpost
 
Состав
John Tropea - guitar, vocals
Don Grolnick, Leon Pendarvis - keyboards
Mike Mainieri - vibes
Will Lee - bass, vocals
Richard Davis - acoustic bass
Rick Marotta, Steve Gadd - drums
Rubens Bassini, Ralph MacDonald - percussion
Michael Brecker - tenor saxophone solo
Randy Brecker - trumpet solo
Margaret Ross - harp
Ron Cartalemi, Jeffrey Kawalek - vocals
Charlie Blackwell, Duncan Cleary, Brian Drake, Bruce Goldberg, Bill Guerra, Lani Groves, Will Lee - background vocals and hand claps
Horn section I (except #3,7):
Alan Rubin, Jon Faddis, Randy Brecker - trumpet, flugelhorn
Lewis Del Gatto, Michael Brecker, George Young & Lou Marini - reeds
Tony Price - tuba
Dave Taylor, Sam Burtis - trombone
Horn section II on #3:
Lou Del Gatto - flute
Elen Sieling - trumpet
Jeanne Dindberg - alto saxophone
Jeff King - tenor saxophone
Horn section III on #7:
Lewis Del Gatto - English horn
Ron Jannelli - bassoon
George Young - flute
Jim Buffington, Earl Chapin - French horn
String section:
Gene Orloff, Kermit Moore, Jessy Levy, Joe Malin, Aaron Rosand, Selwart Clarke, Theodore Israel, Noel Da Costa, Guy Lumia, Gerald Tarack, Lewis Eley, Peter Dimitriades
Recorded at House of Music, West Orange, NJ.
Приватный:
Нет (DHT включён)
Размер:
228.25 Мб (239,341,627 байт) » файлов: 11
Участники:
0 раздают, 0 качают (0 участников всего)
Внешние участники:
5 раздают, 2 качают (7 участников всего) [ Обновить ]
Есть вопросы - пишите личное сообщение пользователю M0p94ok.
03:55
48
Нет комментариев. Ваш будет первым!