Поиск

(Fusion, Jazz-Funk) [CD] John Tropea - To Touch You Again - 1979 (2014 Japan Edition), FLAC (image+.cue), lossless

(Fusion, Jazz-Funk) [CD] John Tropea - To Touch You Again - 1979 (2014 Japan Edition), FLAC (image+.cue), lossless
Треклист:
John Tropea - To Touch You Again
Жанр: Fusion, Jazz-Funk
Носитель: CD
Страна-производитель диска (релиза): Япония
Год издания: 1979 (2014)
Издатель (лейбл): Sun Tropea/Savoy/Columbia
Номер по каталогу: COCB-54122
Страна исполнителя (группы): США
Аудиокодек: FLAC (*.flac)
Тип рипа: image+.cue
Битрейт аудио: lossless
Продолжительность: 35:43
Источник (релизер): kvapar (Спасибо Егору из PTZ)
Наличие сканов в содержимом раздачи: да
Треклист:
01. Livin' in the Jungle (Tropea-Maelen) - 3:55
02. In This Time (Tropea) - 4:09
03. Look What They've Done to My Song (Melanie) - 4:19
04. You're My Every Need (Tee) - 4:17
05. To Touch You Again/Lady Blue (Tropea) - 7:37
06. Yours Next to Mine (Tropea) - 5:37
07. Do You Wanna Be Loved (Tropea) - 5:48
 
Лог создания рипа
Exact Audio Copy V1.0 beta 3 from 29. August 2011
Отчёт EAC об извлечении, выполненном 25. января 2015, 16:18
John Tropea / To Touch You Again
Дисковод: Optiarc DVD RW AD-7203S Adapter: 0 ID: 4
Режим чтения : Достоверность
Использование точного потока : Да
Отключение кэша аудио : Да
Использование указателей C2 : Нет
Коррекция смещения при чтении : 48
Способность читать области Lead-in и Lead-out : Нет
Заполнение пропущенных сэмплов тишиной : Да
Удаление блоков с тишиной в начале и конце : Нет
При вычислениях CRC использовались нулевые сэмплы : Да
Интерфейс : Встроенный Win32-интерфейс для Win NT/2000
Выходной формат : Пользовательский кодировщик
Выбранный битрейт : 128 kBit/s
Качество : Высокий
Добавление ID3-тега : Нет
Утилита сжатия : C:\Program Files (x86)\Exact Audio Copy\Flac\flac.exe
Дополнительные параметры : -V -8 -T "Date=%year%" -T "Genre=%genre%" %source%
TOC извлечённого CD
Трек | Старт | Длительность | Начальный сектор | Конечный сектор
---------------------------------------------------------------------
1 | 0:00.00 | 3:55.30 | 0 | 17654
2 | 3:55.30 | 4:09.32 | 17655 | 36361
3 | 8:04.62 | 4:18.60 | 36362 | 55771
4 | 12:23.47 | 4:16.53 | 55772 | 75024
5 | 16:40.25 | 7:36.47 | 75025 | 109271
6 | 24:16.72 | 5:37.13 | 109272 | 134559
7 | 29:54.10 | 5:48.35 | 134560 | 160694
Характеристики диапазона извлечения и сообщения об ошибках
Выбранный диапазон
Имя файла C:\Users\Администратор\Music\John Tropea - To Touch You Again (1979)\John Tropea - To Touch You Again (1979).wav
Пиковый уровень 99.5 %
Скорость извлечения 3.5 X
Качество диапазона 100.0 %
CRC теста 024133CA
CRC копии 024133CA
Копирование... OK
Ошибок не произошло
AccurateRip: сводка
Трек 1 точность не определена (достоверность 1) [B8D8491E], AccurateRip вернул [14D0C5B0] (AR v2)
Трек 2 точность не определена (достоверность 1) [0F4DDA52], AccurateRip вернул [25E61EB5] (AR v2)
Трек 3 точность не определена (достоверность 1) [5B620755], AccurateRip вернул [0DDB0E2C] (AR v2)
Трек 4 точность не определена (достоверность 1) [EAE03897], AccurateRip вернул [09712CC4] (AR v2)
Трек 5 точность не определена (достоверность 1) [C6CD78F3], AccurateRip вернул [28AC9F99] (AR v2)
Трек 6 точность не определена (достоверность 1) [8C2FD1CF], AccurateRip вернул [E43DD808] (AR v2)
Трек 7 точность не определена (достоверность 1) [9C3FA571], AccurateRip вернул [DBE841B5] (AR v2)
Ни один трек не прошёл проверки на точность
В вашей базе может быть иной вариант штамповки диска
Конец отчёта
==== Контрольная сумма отчёта 9E97F70722B05E93CA7791A08B2668B95DDA0F202AF0495501110A3F2BCF9B8C ====
 
Содержание индексной карты (.CUE)
REM GENRE Jazz
REM DATE 1979
REM DISCID 5C085E07
REM COMMENT "ExactAudioCopy v1.0b3"
PERFORMER "John Tropea"
TITLE "To Touch You Again"
FILE "John Tropea - To Touch You Again.wav" WAVE
TRACK 01 AUDIO
TITLE "Livin' in the Jungle"
PERFORMER "John Tropea"
INDEX 01 00:00:00
TRACK 02 AUDIO
TITLE "In This Time"
PERFORMER "John Tropea"
INDEX 01 03:55:30
TRACK 03 AUDIO
TITLE "Look What They've Done to My Song"
PERFORMER "John Tropea"
INDEX 00 08:04:27
INDEX 01 08:04:62
TRACK 04 AUDIO
TITLE "You're My Every Need"
PERFORMER "John Tropea"
INDEX 00 12:22:35
INDEX 01 12:23:47
TRACK 05 AUDIO
TITLE "To Touch You Again/Lady Blue"
PERFORMER "John Tropea"
INDEX 00 16:39:12
INDEX 01 16:40:25
TRACK 06 AUDIO
TITLE "Yours Next to Mine"
PERFORMER "John Tropea"
INDEX 00 24:15:55
INDEX 01 24:16:72
TRACK 07 AUDIO
TITLE "Do You Wanna Be Loved"
PERFORMER "John Tropea"
INDEX 00 29:52:67
INDEX 01 29:54:10
 
Отчет CUETools
[CUETools log; Date: 26.01.2015 6:49:38; Version: 2.1.5]
[CTDB TOCID: vU2neNboEglc8E95_MGxcHXG9Is-] found.
Track | CTDB Status
1 | (0/2) No match
2 | (0/2) No match
3 | (0/2) No match
4 | (0/2) No match
5 | (0/2) No match
6 | (0/2) No match
7 | (0/2) No match
[AccurateRip ID: 0008fe1d-003752fa-5c085e07] found.
Track [ CRC | V2 ] Status
01 [295a1b62|b8d8491e] (0+0/4) No match
02 [47becc88|0f4dda52] (0+0/4) No match
03 [df4d9263|5b620755] (0+0/4) No match
04 [7a83fce6|eae03897] (0+0/4) No match
05 [575530c8|c6cd78f3] (0+0/4) No match
06 [d3945f1e|8c2fd1cf] (0+0/4) No match
07 [615ce83c|9c3fa571] (0+0/4) No match
Track Peak [ CRC32 ] [W/O NULL] [ LOG ]
-- 99,5 [024133CA] [B44FA5BF] CRC32
01 99,5 [883A7C25] [D4773FEB]
02 99,5 [72503E96] [F724BA2F]
03 99,4 [29024F70] [E9330D69]
04 99,5 [0B87FD2D] [51D223EE]
05 99,5 [F6EBBF9A] [1C632C7F]
06 99,5 [3EB8652F] [9AFBF360]
07 99,5 [09732F28] [B932C0EE]
 
Об альбоме (сборнике)
This is a very rare record by John Tropea, hardly ever available on CD from some Japanese source(get the record if you can).
Nothing he has ever done is as good as this one!
Listen to the title track with Richard Tee on piano and a marvellous brass section.
-- Matt Schwarz
 
Состав
John Tropea - guitar
Steve Gadd, Steve Jordan, Rick Marotta - drums
Leon Pendarvis, Paul Shaffer, Richard Tee, Don Grolnick - keyboards
George Young - soprano saxophone
Alan Rubin - flugelhorn
James Maelen, Rubens Bassini, Ron Tropea - percussion
Luther Vandross, Diva Gray, Jocelyn Show - background vocals
Horn section I:
Alan Rubin, Jon Faddis - trumpet, flugelhorn
Lou Marini, George Young, Lou Del Gatto, Michael Brecker - reeds
Tony Price - tuba
Dave Taylor, Sam Burtis - trombone
Horn section II on #3:
Randy Brecker - trumpet, flugelhorn
Michael Brecker, David Sanborn - reeds
Barry Rogers - trombone
String section:
Eugene Orloff - concert master
Kermit Moore - contractor
Recorded at House of Music, West Orange, NJ in 1978.
Приватный:
Нет (DHT включён)
Размер:
230.79 Мб (242,002,533 байт) » файлов: 11
Участники:
0 раздают, 0 качают (0 участников всего)
Внешние участники:
8 раздают, 2 качают (10 участников всего) [ Обновить ]
Есть вопросы - пишите личное сообщение пользователю M0p94ok.
03:56
74
Нет комментариев. Ваш будет первым!