Поиск

(Black Gospel, Soul, R&B, Contemporary Gospel) [CD] The Golden Gate Quartet - 80 Years - 2014, FLAC (image+.cue), lossless

(Black Gospel, Soul, R&B, Contemporary Gospel) [CD] The Golden Gate Quartet - 80 Years - 2014, FLAC (image+.cue), lossless
Треклист:
The Golden Gate Quartet / 80 Years
Жанр: Black Gospel, Soul, R&B, Contemporary Gospel
Носитель: CD
Страна-производитель диска (релиза): France
Год издания: 2014
Издатель (лейбл): 10H10 / Cristal Records
Страна исполнителя (группы): USA
Аудиокодек: FLAC (*.flac)
Тип рипа: image+.cue
Битрейт аудио: lossless
Продолжительность: 0052:26
Источник (релизер): demonoid
Наличие сканов в содержимом раздачи: да
Треклист:
1. The Golden Gate Quartet 80 Years
2. Billie JEAN
3. Goes Out The Light (When your time is done)
4. Part Time Lover
5. On The Sunny Side Of Street
0. Shardrack
7. Lonely
8. It’s A Good Day
9. Wonderfull World
10. Sitting On The Dock Of The Bay
11. Stand By Me
12. St Louis Blues
A Capela Bonus:
13. Rock My Soul
14. Joshua Fit The Battle Of Jericho
15. Nobody Knows The Trouble I’ve seen
16. Soon Will Be Done
17. Down By The Riverside
 
Лог создания рипа
Exact Audio Copy V1.0 beta 4 from 7. December 2014
EAC extraction logfile from 28. December 2014, 13:41
The Golden Gate Quartet / 80 Years
Used drive : _NEC DVD_RW ND-6750A Adapter: 1 ID: 0
Read mode : Secure
Utilize accurate stream : Yes
Defeat audio cache : No
Make use of C2 pointers : Yes
Read offset correction : 48
Overread into Lead-In and Lead-Out : No
Fill up missing offset samples with silence : Yes
Delete leading and trailing silent blocks : No
Null samples used in CRC calculations : Yes
Used interface : Native Win32 interface for Win NT & 2000
Used output format : User Defined Encoder
Selected bitrate : 768 kBit/s
Quality : High
Add ID3 tag : No
Command line compressor : C:\Program Files\Exact Audio Copy\FLAC\FLAC.EXE
Additional command line options : -6 -V -T "ARTIST=%artist%" -T "TITLE=%title%" -T "ALBUM=%albumtitle%" -T "DATE=%year%" -T "TRACKNUMBER=%tracknr%" -T "GENRE=%genre%" -T "COMMENT=%comment%" -T "BAND=%albuminterpret%" -T "ALBUMARTIST=%albuminterpret%" -T "COMPOSER=%composer%" %haslyrics%--tag-from-file=LYRICS="%lyricsfile%"%haslyrics% -T "DISCNUMBER=%cdnumber%" -T "TOTALDISCS=%totalcds%" -T "TOTALTRACKS=%numtracks%" %hascover%--picture="%coverfile%"%hascover% %source% -o %dest%
TOC of the extracted CD
Track | Start | Length | Start sector | End sector
---------------------------------------------------------
1 | 0:00.00 | 3:28.26 | 0 | 15625
2 | 3:28.26 | 4:06.28 | 15626 | 34103
3 | 7:34.54 | 3:11.71 | 34104 | 48499
4 | 10:46.50 | 4:11.31 | 48500 | 67355
5 | 14:58.06 | 2:40.30 | 67356 | 79385
6 | 17:38.36 | 2:26.03 | 79386 | 90338
7 | 20:04.39 | 3:14.27 | 90339 | 104915
8 | 23:18.66 | 2:35.68 | 104916 | 116608
9 | 25:54.59 | 2:39.68 | 116609 | 128601
10 | 28:34.52 | 4:25.33 | 128602 | 148509
11 | 33:00.10 | 3:31.14 | 148510 | 164348
12 | 36:31.24 | 3:27.10 | 164349 | 179883
13 | 39:58.34 | 2:21.13 | 179884 | 190471
14 | 42:19.47 | 2:18.51 | 190472 | 200872
15 | 44:38.23 | 2:58.31 | 200873 | 214253
16 | 47:36.54 | 2:28.32 | 214254 | 225385
17 | 50:05.11 | 2:21.03 | 225386 | 235963
Range status and errors
Selected range
Filename C:\Documents and Settings\CHEMLA\Mes documents\Ma musique\The Golden Gate Quartet - 80 Years apres nettoyage\The Golden Gate Quartet - 80 Years.wav
Peak level 100.0 %
Extraction speed 3.5 X
Range quality 99.9 %
Copy CRC 718CF329
Copy OK
No errors occurred
AccurateRip summary
Track 1 not present in database
Track 2 not present in database
Track 3 not present in database
Track 4 not present in database
Track 5 not present in database
Track 6 not present in database
Track 7 not present in database
Track 8 not present in database
Track 9 not present in database
Track 10 not present in database
Track 11 not present in database
Track 12 not present in database
Track 13 not present in database
Track 14 not present in database
Track 15 not present in database
Track 16 not present in database
Track 17 not present in database
None of the tracks are present in the AccurateRip database
End of status report
---- CUETools DB Plugin V2.1.4
[CTDB TOCID: XGSyvl.mczD.e.bXyTsgoU3qZHw-] found
Submit result: XGSyvl.mczD.e.bXyTsgoU3qZHw- has been uploaded
Track | CTDB Status
1 | (1/1) Accurately ripped
2 | (1/1) Accurately ripped
3 | (1/1) Accurately ripped
4 | (1/1) Accurately ripped
5 | (1/1) Accurately ripped
6 | (1/1) Accurately ripped
7 | (1/1) Accurately ripped
8 | (1/1) Accurately ripped
9 | (1/1) Accurately ripped
10 | (1/1) Accurately ripped
11 | (1/1) Accurately ripped
12 | (1/1) Accurately ripped
13 | (1/1) Accurately ripped
14 | (1/1) Accurately ripped
15 | (1/1) Accurately ripped
16 | (1/1) Accurately ripped
17 | (1/1) Differs in 31 samples @01:50:23,01:51:60-01:51:61,01:52:04-01:52:05
If you are sure that your rip contains errors, you can use CUETools to repair it.
 
Содержание индексной карты (.CUE)
REM DATE 2014
REM DISCID CA0C4A11
REM COMMENT ExactAudioCopy v1.0b4
PERFORMER "The Golden Gate Quartet"
TITLE "80 Years"
FILE "The Golden Gate Quartet - 80 Years.flac" WAVE
TRACK 01 AUDIO
TITLE "THE GOLDEN GATE QUARTET 80 YEARS"
INDEX 01 00:00:00
TRACK 02 AUDIO
TITLE "BILLIE JEAN"
INDEX 01 03:28:26
TRACK 03 AUDIO
TITLE "OUT GOES THE LIGHT (WHEN YOUR TIME IS DONE)"
INDEX 01 07:34:54
TRACK 04 AUDIO
TITLE "PART TIME LOVER"
INDEX 00 10:44:64
INDEX 01 10:46:50
TRACK 05 AUDIO
TITLE "IN THE SUNNY SIDE OF THE STREET"
INDEX 00 14:56:52
INDEX 01 14:58:06
TRACK 06 AUDIO
TITLE "SHADRACK"
INDEX 01 17:38:36
TRACK 07 AUDIO
TITLE "LONELY"
INDEX 01 20:04:39
TRACK 08 AUDIO
TITLE "IT'S A GOOD DAY"
INDEX 00 23:17:37
INDEX 01 23:18:66
TRACK 09 AUDIO
TITLE "WONDERFUL WORLD"
INDEX 00 25:53:30
INDEX 01 25:54:59
TRACK 10 AUDIO
TITLE "SITTING ON THE DOCK OF THE BAY"
INDEX 00 28:33:23
INDEX 01 28:34:52
TRACK 11 AUDIO
TITLE "STAND BY ME"
INDEX 00 32:58:56
INDEX 01 33:00:10
TRACK 12 AUDIO
TITLE "ST LOUIS BLUES"
INDEX 01 36:31:24
TRACK 13 AUDIO
TITLE "ROCK MY SOUL"
INDEX 00 39:56:43
INDEX 01 39:58:34
TRACK 14 AUDIO
TITLE "JOSHUA FIT THE BATTLE OF JERICHO"
INDEX 00 42:17:51
INDEX 01 42:19:47
TRACK 15 AUDIO
TITLE "NOBODY KNOWS THE TROUBLE I'VE SEE"
INDEX 00 44:35:52
INDEX 01 44:38:23
TRACK 16 AUDIO
TITLE "SOON WILL BE DONE (WITH THE TROUBLES OF THIS WORLD)"
INDEX 00 47:34:47
INDEX 01 47:36:54
TRACK 17 AUDIO
TITLE "DOWN BY THE RIVERSIDE"
INDEX 00 50:02:35
INDEX 01 50:05:11
 
Об альбоме (сборнике)
The Golden Gate Quartet celebrates its 80th anniversary! Mordenity and tradition are the clues to its long-lasting existence! In 1934, four students from Booker T. Washington College in Virginia, sharing the same passion for music, launched "The Golden Gate Quartet Jubelee Singers" which rapidly was known as "The Golden Gate Quartet". A totally revolutionnary gospel band which became almost instantly famous worldwide (The band has never stopped touring throughout the world since). The Quartet continues to evoluate today by performing famous hits of our time. In their repertoire, you will find a cover of Billie Jean (M. Jackson) or even Part time Lover (Stevie Wonder). The quartet has shown the modernity of its art - beyond trends - it is 80 this year and has'nt got a wrinkle yet! cristalrecords
 
Состав
Vocal arragements: PAUL BREMBLY/ Vocals: (THE GOLDEN GATE QUARTET):
FRANK DAVIS (1st TENOR). TIMOTHY RILEY (2nd TENOR). PAUL BREMBLY (BARITONE). TERRY FRANCIS (BASS)
Pianos: FRANCK SITBON, THIERRY TAMAIN, DANIEL PINES
Drums: UMBERTO PAGNINI, PASCAL RIOU
Guitars: LAURENT ROUBACH. PAUL BREMBLY
Doublebass: VINCENT ARTAUO
Bass Guitar: JOEL ROCHER
Приватный:
Нет (DHT включён)
Размер:
349.21 Мб (366,176,730 байт) » файлов: 17
Участники:
0 раздают, 0 качают (0 участников всего)
Внешние участники:
2 раздают, 1 качают (3 участников всего) [ Обновить ]
Есть вопросы - пишите личное сообщение пользователю M0p94ok.
03:56
75
Нет комментариев. Ваш будет первым!