Поиск

(Soul, Funk, R&B) [CD] Charles Bradley - Changes - 2016, FLAC (tracks+.cue), lossless

(Soul, Funk, R&B) [CD] Charles Bradley - Changes - 2016, FLAC (tracks+.cue), lossless
Треклист:
Charles Bradley / Changes
Жанр: Soul, Funk, R&B
Носитель: CD
Год издания: 2016
Издатель (лейбл): Daptone
Страна исполнителя (группы): US
Аудиокодек: FLAC (*.flac)
Тип рипа: tracks+.cue
Битрейт аудио: lossless
Продолжительность: 40:45
Источник (релизер): what.cd
Наличие сканов в содержимом раздачи: нет
Треклист:
1. God Bless America
2. Good To Be Back Home
3. Nobody But You
4. Ain't Gonna Give It Up
5. Changes
6. Ain't It A Sin
7. Things We Do For Love
8. Crazy For Your Love
9. You Think I Don't Know (But I Know)
10. Change For The World
11. Slow Love
http://www.thecharlesbradley.com/
https://en.wikipedia.org/wiki/Charles_Bradley_%28singer%29
 
Лог создания рипа
Exact Audio Copy V1.1 from 23. June 2015
EAC extraction logfile from 8. March 2016, 20:20
Charles Bradley / Changes
Used drive : HL-DT-STDVDRAM GUA0N Adapter: 1 ID: 0
Read mode : Secure
Utilize accurate stream : Yes
Defeat audio cache : Yes
Make use of C2 pointers : No
Read offset correction : 6
Overread into Lead-In and Lead-Out : No
Fill up missing offset samples with silence : Yes
Delete leading and trailing silent blocks : No
Null samples used in CRC calculations : Yes
Used interface : Native Win32 interface for Win NT & 2000
Gap handling : Appended to previous track
Used output format : User Defined Encoder
Selected bitrate : 128 kBit/s
Quality : High
Add ID3 tag : No
Command line compressor : C:\Program Files (x86)\Exact Audio Copy\Flac\flac.exe
Additional command line options : -8 -e -V -T "ARTIST=%artist%" -T "TITLE=%title%" -T "ALBUM=%albumtitle%" -T "DATE=%year%" -T "TRACKNUMBER=%tracknr%" -T "GENRE=%genre%" -T "PERFORMER=%albuminterpret%" -T "COMPOSER=%composer%" %haslyrics%--tag-from-file=LYRICS="%lyricsfile%"%haslyrics% -T "ALBUMARTIST=%albumartist%" -T "DISCNUMBER=%cdnumber%" -T "TOTALDISCS=%totalcds%" -T "TOTALTRACKS=%numtracks%" -T "COMMENT=%comment%" %source% -o %dest%
TOC of the extracted CD
Track | Start | Length | Start sector | End sector
---------------------------------------------------------
1 | 0:00.00 | 1:31.17 | 0 | 6841
2 | 1:31.17 | 3:04.13 | 6842 | 20654
3 | 4:35.30 | 4:00.69 | 20655 | 38723
4 | 8:36.24 | 3:56.13 | 38724 | 56436
5 | 12:32.37 | 5:46.00 | 56437 | 82386
6 | 18:18.37 | 3:52.08 | 82387 | 99794
7 | 22:10.45 | 3:31.31 | 99795 | 115650
8 | 25:42.01 | 4:21.61 | 115651 | 135286
9 | 30:03.62 | 3:30.09 | 135287 | 151045
10 | 33:33.71 | 3:36.05 | 151046 | 167250
11 | 37:10.01 | 3:38.54 | 167251 | 183654
Track 1
Filename C:\Program Files (x86)\Exact Audio Copy\EAC Rips\Charles Bradley - Changes (2016) [FLAC]\01 - God Bless America.wav
Pre-gap length 0:00:02.00
Peak level 99.9 %
Extraction speed 0.9 X
Track quality 100.0 %
Test CRC D84B958C
Copy CRC D84B958C
Track not present in AccurateRip database
Copy OK
Track 2
Filename C:\Program Files (x86)\Exact Audio Copy\EAC Rips\Charles Bradley - Changes (2016) [FLAC]\02 - Good To Be Back Home.wav
Peak level 99.9 %
Extraction speed 1.2 X
Track quality 100.0 %
Test CRC 06846E12
Copy CRC 06846E12
Track not present in AccurateRip database
Copy OK
Track 3
Filename C:\Program Files (x86)\Exact Audio Copy\EAC Rips\Charles Bradley - Changes (2016) [FLAC]\03 - Nobody But You.wav
Pre-gap length 0:00:02.44
Peak level 99.9 %
Extraction speed 1.3 X
Track quality 100.0 %
Test CRC 017C66A2
Copy CRC 017C66A2
Track not present in AccurateRip database
Copy OK
Track 4
Filename C:\Program Files (x86)\Exact Audio Copy\EAC Rips\Charles Bradley - Changes (2016) [FLAC]\04 - Ain't Gonna Give It Up.wav
Pre-gap length 0:00:02.44
Peak level 99.9 %
Extraction speed 1.4 X
Track quality 100.0 %
Test CRC F929122D
Copy CRC F929122D
Track not present in AccurateRip database
Copy OK
Track 5
Filename C:\Program Files (x86)\Exact Audio Copy\EAC Rips\Charles Bradley - Changes (2016) [FLAC]\05 - Changes.wav
Pre-gap length 0:00:02.44
Peak level 99.9 %
Extraction speed 1.6 X
Track quality 100.0 %
Test CRC 42AD9742
Copy CRC 42AD9742
Track not present in AccurateRip database
Copy OK
Track 6
Filename C:\Program Files (x86)\Exact Audio Copy\EAC Rips\Charles Bradley - Changes (2016) [FLAC]\06 - Ain't It A Sin.wav
Pre-gap length 0:00:02.44
Peak level 99.9 %
Extraction speed 1.7 X
Track quality 100.0 %
Test CRC 6C12F016
Copy CRC 6C12F016
Track not present in AccurateRip database
Copy OK
Track 7
Filename C:\Program Files (x86)\Exact Audio Copy\EAC Rips\Charles Bradley - Changes (2016) [FLAC]\07 - Things We Do For Love.wav
Pre-gap length 0:00:02.44
Peak level 99.9 %
Extraction speed 1.7 X
Track quality 100.0 %
Test CRC EBC657FE
Copy CRC EBC657FE
Track not present in AccurateRip database
Copy OK
Track 8
Filename C:\Program Files (x86)\Exact Audio Copy\EAC Rips\Charles Bradley - Changes (2016) [FLAC]\08 - Crazy For Your Love.wav
Pre-gap length 0:00:02.44
Peak level 99.9 %
Extraction speed 1.9 X
Track quality 100.0 %
Test CRC 25CF5034
Copy CRC 25CF5034
Track not present in AccurateRip database
Copy OK
Track 9
Filename C:\Program Files (x86)\Exact Audio Copy\EAC Rips\Charles Bradley - Changes (2016) [FLAC]\09 - You Think I Don't Know (But I Know).wav
Pre-gap length 0:00:02.44
Peak level 99.9 %
Extraction speed 1.6 X
Track quality 99.9 %
Test CRC 8DF9A118
Copy CRC 8DF9A118
Track not present in AccurateRip database
Copy OK
Track 10
Filename C:\Program Files (x86)\Exact Audio Copy\EAC Rips\Charles Bradley - Changes (2016) [FLAC]\10 - Change For The World.wav
Pre-gap length 0:00:02.44
Peak level 99.7 %
Extraction speed 2.0 X
Track quality 100.0 %
Test CRC 539F2AA2
Copy CRC 539F2AA2
Track not present in AccurateRip database
Copy OK
Track 11
Filename C:\Program Files (x86)\Exact Audio Copy\EAC Rips\Charles Bradley - Changes (2016) [FLAC]\11 - Slow Love.wav
Pre-gap length 0:00:02.44
Peak level 99.9 %
Extraction speed 2.1 X
Track quality 100.0 %
Test CRC 065F61B6
Copy CRC 065F61B6
Track not present in AccurateRip database
Copy OK
None of the tracks are present in the AccurateRip database
No errors occurred
End of status report
---- CUETools DB Plugin V2.1.6
[CTDB TOCID: qJQni.TweDdoyULKHjjiD9aHfoA-] found
Submit result: qJQni.TweDdoyULKHjjiD9aHfoA- has been confirmed
Track | CTDB Status
1 | (2/2) Accurately ripped
2 | (2/2) Accurately ripped
3 | (2/2) Accurately ripped
4 | (2/2) Accurately ripped
5 | (2/2) Accurately ripped
6 | (2/2) Accurately ripped
7 | (2/2) Accurately ripped
8 | (2/2) Accurately ripped
9 | (2/2) Accurately ripped
10 | (2/2) Accurately ripped
11 | (2/2) Accurately ripped
==== Log checksum 59396E9F84773BC1FA1476E3BD99F21E91EABEAFEF426F25089843A42C7AFBBE ====
 
Содержание индексной карты (.CUE)
REM GENRE Soul
REM DATE 2016
REM DISCID 7409900B
REM COMMENT "ExactAudioCopy v1.1"
PERFORMER "Charles Bradley"
TITLE "Changes"
FILE "01 - God Bless America.wav" WAVE
TRACK 01 AUDIO
TITLE "God Bless America"
PERFORMER "Charles Bradley"
INDEX 01 00:00:00
FILE "02 - Good To Be Back Home.wav" WAVE
TRACK 02 AUDIO
TITLE "Good To Be Back Home"
PERFORMER "Charles Bradley"
INDEX 01 00:00:00
TRACK 03 AUDIO
TITLE "Nobody But You"
PERFORMER "Charles Bradley"
INDEX 00 03:01:44
FILE "03 - Nobody But You.wav" WAVE
INDEX 01 00:00:00
TRACK 04 AUDIO
TITLE "Ain't Gonna Give It Up"
PERFORMER "Charles Bradley"
INDEX 00 03:58:25
FILE "04 - Ain't Gonna Give It Up.wav" WAVE
INDEX 01 00:00:00
TRACK 05 AUDIO
TITLE "Changes"
PERFORMER "Charles Bradley"
INDEX 00 03:53:44
FILE "05 - Changes.wav" WAVE
INDEX 01 00:00:00
TRACK 06 AUDIO
TITLE "Ain't It A Sin"
PERFORMER "Charles Bradley"
INDEX 00 05:43:31
FILE "06 - Ain't It A Sin.wav" WAVE
INDEX 01 00:00:00
TRACK 07 AUDIO
TITLE "Things We Do For Love"
PERFORMER "Charles Bradley"
INDEX 00 03:49:39
FILE "07 - Things We Do For Love.wav" WAVE
INDEX 01 00:00:00
TRACK 08 AUDIO
TITLE "Crazy For Your Love"
PERFORMER "Charles Bradley"
INDEX 00 03:28:62
FILE "08 - Crazy For Your Love.wav" WAVE
INDEX 01 00:00:00
TRACK 09 AUDIO
TITLE "You Think I Don't Know (But I Know)"
PERFORMER "Charles Bradley"
INDEX 00 04:19:17
FILE "09 - You Think I Don't Know (But I Know).wav" WAVE
INDEX 01 00:00:00
TRACK 10 AUDIO
TITLE "Change For The World"
PERFORMER "Charles Bradley"
INDEX 00 03:27:40
FILE "10 - Change For The World.wav" WAVE
INDEX 01 00:00:00
TRACK 11 AUDIO
TITLE "Slow Love"
PERFORMER "Charles Bradley"
INDEX 00 03:33:36
FILE "11 - Slow Love.wav" WAVE
INDEX 01 00:00:00
 
Об альбоме (сборнике)
Soul singer Charles Bradley's star has been on the rise since the release of his widely praised 2011 debut album No Time For Dreaming, and his ascent has continued long after the release of his triumphant second album, 2013's Victim of Love. Dubbed "The Screaming Eagle of Soul," the singer will release his third albumChanges on April 1, 2016 on Daptone Records imprint Dunham Records. The album is named for his popular cover of the Black Sabbath track, previously only available as a Record Store Day 45. "I think about the lyrics very closely when I sing 'Changes' and get emotional," says Bradley. "It makes me think of my mother and the changes in my life since she passed away."
Приватный:
Нет (DHT включён)
Размер:
248.49 Мб (260,564,382 байт) » файлов: 14
Участники:
0 раздают, 0 качают (0 участников всего)
Внешние участники:
7 раздают, 2 качают (9 участников всего) [ Обновить ]
Есть вопросы - пишите личное сообщение пользователю M0p94ok.
10:13
71
Нет комментариев. Ваш будет первым!