Поиск

(Funk, Soul, R&B) [CD] Peabo Bryson & Roberta Flack - Born To Love (1983) - 2013 [Expanded Edition], FLAC (tracks+.cue), lossless

(Funk, Soul, R&B) [CD] Peabo Bryson & Roberta Flack - Born To Love (1983) - 2013 [Expanded Edition], FLAC (tracks+.cue), lossless
Треклист:
Peabo Bryson & Roberta Flack - Born To Love (1983) Жанр: Funk, Soul, R&B
Носитель: CD
Год издания: 2013
Издатель (лейбл): Soul Music.com
Номер по каталогу: SMCR5098
Аудиокодек: FLAC (*.flac)
Тип рипа: tracks+.cue
Битрейт аудио: lossless
Продолжительность: 49:20
Rip by JET 1
Наличие сканов в содержимом раздачи: да
Треклист:
01. Tonight, I Celebrate My Love (3:31)
02. Blame It On Me (4:15)
03. Heaven Above Me (4:37)
04. Born To Love (4:29)
05. Maybe (3:22)
06. I Just Came Here To Dance (4:04)
07. Comin' Alive (3:37)
08. You're Looking Like Love To Me (4:03)
09. Can We Find Love Again (4:32)
10. You're Looking Like Love To Me (7'' Single Version) (3:48)
11. Heaven Above Me (12'' Single Version) (5:24)
12. Heaven Above Me (7'' Single Version) (3:39)
 
 
Лог создания рипа
Exact Audio Copy V1.0 beta 3 from 29. August 2011
EAC extraction logfile from 24. February 2016, 23:41
Peabo Bryson & Roberta Flack / Born To Love
Used drive : GENERIC CDRCB05 Adapter: 4 ID: 0
Read mode : Secure
Utilize accurate stream : Yes
Defeat audio cache : Yes
Make use of C2 pointers : No
Read offset correction : 102
Overread into Lead-In and Lead-Out : No
Fill up missing offset samples with silence : Yes
Delete leading and trailing silent blocks : No
Null samples used in CRC calculations : Yes
Used interface : Native Win32 interface for Win NT & 2000
Gap handling : Appended to previous track
Used output format : User Defined Encoder
Selected bitrate : 1024 kBit/s
Quality : High
Add ID3 tag : No
Command line compressor : C:\Program Files\FLAC\flac.exe
Additional command line options : -8 -V -T "ARTIST=%artist%" -T "TITLE=%title%" -T "ALBUM=%albumtitle%" -T "DATE=%year%" -T "TRACKNUMBER=%tracknr%" -T "GENRE=%genre%" -T "PERFORMER=%albuminterpret%" -T "COMPOSER=%composer%" %haslyrics%--tag-from-file=LYRICS="%lyricsfile%"%haslyrics% -T "ALBUMARTIST=%albumartist%" -T "DISCNUMBER=%cdnumber%" -T "TOTALDISCS=%totalcds%" -T "TOTALTRACKS=%numtracks%" -T "COMMENT=%comment%" %source% -o %dest%
TOC of the extracted CD
Track | Start | Length | Start sector | End sector
---------------------------------------------------------
1 | 0:00.00 | 3:31.00 | 0 | 15824
2 | 3:31.00 | 4:15.10 | 15825 | 34959
3 | 7:46.10 | 4:37.26 | 34960 | 55760
4 | 12:23.36 | 4:29.30 | 55761 | 75965
5 | 16:52.66 | 3:21.48 | 75966 | 91088
6 | 20:14.39 | 4:03.44 | 91089 | 109357
7 | 24:18.08 | 3:36.41 | 109358 | 125598
8 | 27:54.49 | 4:03.31 | 125599 | 143854
9 | 31:58.05 | 4:31.42 | 143855 | 164221
10 | 36:29.47 | 3:47.39 | 164222 | 181285
11 | 40:17.11 | 5:24.25 | 181286 | 205610
12 | 45:41.36 | 3:38.56 | 205611 | 222016
Track 1
Filename G:\POSTS\Peabo Bryson & Roberta Flack - Born To Love (1983) [2013]\01 - Tonight, I Celebrate My Love.wav
Pre-gap length 0:00:02.00
Peak level 100.0 %
Extraction speed 2.3 X
Track quality 100.0 %
Test CRC 315FE6FD
Copy CRC 315FE6FD
Accurately ripped (confidence 1) [4266C6E6] (AR v2)
Copy OK
Track 2
Filename G:\POSTS\Peabo Bryson & Roberta Flack - Born To Love (1983) [2013]\02 - Blame It On Me.wav
Peak level 100.0 %
Extraction speed 2.6 X
Track quality 100.0 %
Test CRC 87283F86
Copy CRC 87283F86
Accurately ripped (confidence 1) [E350CABC] (AR v2)
Copy OK
Track 3
Filename G:\POSTS\Peabo Bryson & Roberta Flack - Born To Love (1983) [2013]\03 - Heaven Above Me.wav
Peak level 99.9 %
Extraction speed 2.9 X
Track quality 100.0 %
Test CRC B15BD46D
Copy CRC B15BD46D
Accurately ripped (confidence 1) [18C97A17] (AR v2)
Copy OK
Track 4
Filename G:\POSTS\Peabo Bryson & Roberta Flack - Born To Love (1983) [2013]\04 - Born To Love.wav
Peak level 100.0 %
Extraction speed 3.1 X
Track quality 100.0 %
Test CRC 7EBE6896
Copy CRC 7EBE6896
Accurately ripped (confidence 1) [EC36E453] (AR v2)
Copy OK
Track 5
Filename G:\POSTS\Peabo Bryson & Roberta Flack - Born To Love (1983) [2013]\05 - Maybe.wav
Peak level 99.9 %
Extraction speed 3.1 X
Track quality 100.0 %
Test CRC A9C474F8
Copy CRC A9C474F8
Accurately ripped (confidence 1) [7EFC8B40] (AR v2)
Copy OK
Track 6
Filename G:\POSTS\Peabo Bryson & Roberta Flack - Born To Love (1983) [2013]\06 - I Just Came Here To Dance.wav
Peak level 100.0 %
Extraction speed 3.3 X
Track quality 100.0 %
Test CRC 9A74A39D
Copy CRC 9A74A39D
Accurately ripped (confidence 1) [F941D00A] (AR v2)
Copy OK
Track 7
Filename G:\POSTS\Peabo Bryson & Roberta Flack - Born To Love (1983) [2013]\07 - Comin' Alive.wav
Peak level 100.0 %
Extraction speed 3.4 X
Track quality 100.0 %
Test CRC 7793B6CB
Copy CRC 7793B6CB
Accurately ripped (confidence 1) [CCC9FDA9] (AR v2)
Copy OK
Track 8
Filename G:\POSTS\Peabo Bryson & Roberta Flack - Born To Love (1983) [2013]\08 - You're Looking Like Love To Me.wav
Peak level 100.0 %
Extraction speed 3.7 X
Track quality 100.0 %
Test CRC 5ADD7C8A
Copy CRC 5ADD7C8A
Accurately ripped (confidence 1) [5420BAFB] (AR v2)
Copy OK
Track 9
Filename G:\POSTS\Peabo Bryson & Roberta Flack - Born To Love (1983) [2013]\09 - Can We Find Love Again.wav
Peak level 100.0 %
Extraction speed 3.4 X
Track quality 99.9 %
Test CRC CF704AB7
Copy CRC CF704AB7
Accurately ripped (confidence 1) [F137B337] (AR v2)
Copy OK
Track 10
Filename G:\POSTS\Peabo Bryson & Roberta Flack - Born To Love (1983) [2013]\10 - You're Looking Like Love To Me (7'' Single Version).wav
Peak level 100.0 %
Extraction speed 3.9 X
Track quality 100.0 %
Test CRC 80EB8CAF
Copy CRC 80EB8CAF
Accurately ripped (confidence 1) [76C2675F] (AR v2)
Copy OK
Track 11
Filename G:\POSTS\Peabo Bryson & Roberta Flack - Born To Love (1983) [2013]\11 - Heaven Above Me (12'' Single Version).wav
Peak level 100.0 %
Extraction speed 3.9 X
Track quality 99.9 %
Test CRC E1A33FC0
Copy CRC E1A33FC0
Accurately ripped (confidence 1) [54AB3AE3] (AR v2)
Copy OK
Track 12
Filename G:\POSTS\Peabo Bryson & Roberta Flack - Born To Love (1983) [2013]\12 - Heaven Above Me (7'' Single Version).wav
Peak level 100.0 %
Extraction speed 4.2 X
Track quality 100.0 %
Test CRC A65F387E
Copy CRC A65F387E
Accurately ripped (confidence 1) [45A4D4FD] (AR v2)
Copy OK
All tracks accurately ripped
No errors occurred
End of status report
==== Log checksum F023810416B8DB6AC4F7DF3B976D11668184009EEB076762D73952F816ECFEEE ====
 
Содержание индексной карты (.CUE)
REM GENRE Soul
REM DATE 1983
REM DISCID 920B900C
REM COMMENT "ExactAudioCopy v1.0b3"
PERFORMER "Peabo Bryson & Roberta Flack"
TITLE "Born To Love"
FILE "01 - Tonight, I Celebrate My Love.wav" WAVE
TRACK 01 AUDIO
TITLE "Tonight, I Celebrate My Love"
PERFORMER "Peabo Bryson & Roberta Flack"
INDEX 01 00:00:00
FILE "02 - Blame It On Me.wav" WAVE
TRACK 02 AUDIO
TITLE "Blame It On Me"
PERFORMER "Peabo Bryson & Roberta Flack"
INDEX 01 00:00:00
FILE "03 - Heaven Above Me.wav" WAVE
TRACK 03 AUDIO
TITLE "Heaven Above Me"
PERFORMER "Peabo Bryson & Roberta Flack"
INDEX 01 00:00:00
FILE "04 - Born To Love.wav" WAVE
TRACK 04 AUDIO
TITLE "Born To Love"
PERFORMER "Peabo Bryson & Roberta Flack"
INDEX 01 00:00:00
FILE "05 - Maybe.wav" WAVE
TRACK 05 AUDIO
TITLE "Maybe"
PERFORMER "Peabo Bryson & Roberta Flack"
INDEX 01 00:00:00
FILE "06 - I Just Came Here To Dance.wav" WAVE
TRACK 06 AUDIO
TITLE "I Just Came Here To Dance"
PERFORMER "Peabo Bryson & Roberta Flack"
INDEX 01 00:00:00
FILE "07 - Comin' Alive.wav" WAVE
TRACK 07 AUDIO
TITLE "Comin' Alive"
PERFORMER "Peabo Bryson & Roberta Flack"
INDEX 01 00:00:00
FILE "08 - You're Looking Like Love To Me.wav" WAVE
TRACK 08 AUDIO
TITLE "You're Looking Like Love To Me"
PERFORMER "Peabo Bryson & Roberta Flack"
INDEX 01 00:00:00
FILE "09 - Can We Find Love Again.wav" WAVE
TRACK 09 AUDIO
TITLE "Can We Find Love Again"
PERFORMER "Peabo Bryson & Roberta Flack"
INDEX 01 00:00:00
FILE "10 - You're Looking Like Love To Me (7'' Single Version).wav" WAVE
TRACK 10 AUDIO
TITLE "You're Looking Like Love To Me (7'' Single Version)"
PERFORMER "Peabo Bryson & Roberta Flack"
INDEX 01 00:00:00
FILE "11 - Heaven Above Me (12'' Single Version).wav" WAVE
TRACK 11 AUDIO
TITLE "Heaven Above Me (12'' Single Version)"
PERFORMER "Peabo Bryson & Roberta Flack"
INDEX 01 00:00:00
FILE "12 - Heaven Above Me (7'' Single Version).wav" WAVE
TRACK 12 AUDIO
TITLE "Heaven Above Me (7'' Single Version)"
PERFORMER "Peabo Bryson & Roberta Flack"
INDEX 01 00:00:00
 
Об альбоме
When Peabo Bryson and Roberta Flack teamed up in 1983 to record the Capitol album BORN TO LOVE, the pair had already experienced success as a duo thanks to the 1980 LP, Live & More (a Top 10 R&B best-selling album). By the time they headed into the studio to cut BORN TO LOVE, Bryson was six years into his recording career and had established himself as one of the premier black male vocalists of the day; Flack was already considered an internationally-renowned artist thanks to classic recordings such as ‘The First Time Ever I Saw Your Face’ and ‘Killing Me Softly With His Song.’
With tracks produced by songwriters Michael Masser, Bob Crewe and Bryson himself, BORN TO LOVE achieved gold status in the US as well as becoming both artists’ highest-charting international success. The impact of the now-classic single, ‘Tonight, I Celebrate My Love’ (co-written by Masser, then known for songs such as Diana Ross’ ‘Touch Me In The Morning’ and Natalie Cole’s ‘Someone That I Used To Love’ and Gerry Goffin) was global, reaching No. 2 on the UK charts, No. 10 in Australia, No. 4 in Canada and No. 16 in the US). The album also included two other charted singles, ‘Maybe’ and ‘You’re Looking Like Love To Me’ while ‘Heaven Above Me’ got radio and club play in the UK.
This 2013 expanded edition of BORN TO LOVE includes three bonus tracks along with liner notes by Billboard Senior Editor, Gail Mitchell with new quotes from Roberta Flack.
Приватный:
Нет (DHT включён)
Размер:
525.66 Мб (551,196,272 байт) » файлов: 29
Участники:
0 раздают, 0 качают (0 участников всего)
Внешние участники:
3 раздают, 1 качают (4 участников всего) [ Обновить ]
No seeders - write a personal message to user M0p94ok. Нет сидеров - пишите личное сообщение пользователю M0p94ok.
10:12
73
Нет комментариев. Ваш будет первым!