Поиск

(Funk, Soul, R&B) [CD] Beggar & Co. - Monument (1981) - 2015, FLAC (tracks+.cue), lossless

(Funk, Soul, R&B) [CD] Beggar & Co. - Monument (1981) - 2015, FLAC (tracks+.cue), lossless
Треклист:
Beggar & Co. - Monument (1981) Жанр: Funk, Soul, R&B
Носитель: CD
Год издания: 2015
Издатель (лейбл): Funkytowngrooves
Номер по каталогу: FTG-423
Аудиокодек: FLAC (*.flac)
Тип рипа: tracks+.cue
Битрейт аудио: lossless
Продолжительность: 42:40
Rip by JET 1
Наличие сканов в содержимом раздачи: да
Треклист:
01. You Need Love (5:38)
02. Laughing On (5:14)
03. (Somebody) Help Me Out (3:40)
04. Mule (Chant #2) (3:55)
05. Break It Up (3:54)
06. Got To Get Away (4:18)
07. Bahia De Palma (4:58)
08. I Tried To Write A Song (2:45)
09. That's Life (6:30)
10. Keep On Running (1:47)
 
 
Лог создания рипа
Exact Audio Copy V1.0 beta 3 from 29. August 2011
EAC extraction logfile from 24. February 2016, 22:22
Beggar & Co. / Monument
Used drive : GENERIC CDRCB05 Adapter: 4 ID: 0
Read mode : Secure
Utilize accurate stream : Yes
Defeat audio cache : Yes
Make use of C2 pointers : No
Read offset correction : 102
Overread into Lead-In and Lead-Out : No
Fill up missing offset samples with silence : Yes
Delete leading and trailing silent blocks : No
Null samples used in CRC calculations : Yes
Used interface : Native Win32 interface for Win NT & 2000
Gap handling : Appended to previous track
Used output format : User Defined Encoder
Selected bitrate : 1024 kBit/s
Quality : High
Add ID3 tag : No
Command line compressor : C:\Program Files\FLAC\flac.exe
Additional command line options : -8 -V -T "ARTIST=%artist%" -T "TITLE=%title%" -T "ALBUM=%albumtitle%" -T "DATE=%year%" -T "TRACKNUMBER=%tracknr%" -T "GENRE=%genre%" -T "PERFORMER=%albuminterpret%" -T "COMPOSER=%composer%" %haslyrics%--tag-from-file=LYRICS="%lyricsfile%"%haslyrics% -T "ALBUMARTIST=%albumartist%" -T "DISCNUMBER=%cdnumber%" -T "TOTALDISCS=%totalcds%" -T "TOTALTRACKS=%numtracks%" -T "COMMENT=%comment%" %source% -o %dest%
TOC of the extracted CD
Track | Start | Length | Start sector | End sector
---------------------------------------------------------
1 | 0:00.00 | 5:37.44 | 0 | 25318
2 | 5:37.44 | 5:14.10 | 25319 | 48878
3 | 10:51.54 | 3:40.26 | 48879 | 65404
4 | 14:32.05 | 3:55.04 | 65405 | 83033
5 | 18:27.09 | 3:53.69 | 83034 | 100577
6 | 22:21.03 | 4:17.72 | 100578 | 119924
7 | 26:39.00 | 4:58.16 | 119925 | 142290
8 | 31:37.16 | 2:45.09 | 142291 | 154674
9 | 34:22.25 | 6:30.15 | 154675 | 183939
10 | 40:52.40 | 1:47.34 | 183940 | 191998
Track 1
Filename G:\POSTS\Beggar & Co. - Monument (1981) [2015 FTG]\01 - You Need Love.wav
Pre-gap length 0:00:02.00
Peak level 99.4 %
Extraction speed 2.6 X
Track quality 100.0 %
Test CRC B942B72A
Copy CRC B942B72A
Accurately ripped (confidence 2) [2DC22575] (AR v2)
Copy OK
Track 2
Filename G:\POSTS\Beggar & Co. - Monument (1981) [2015 FTG]\02 - Laughing On.wav
Pre-gap length 0:00:02.00
Peak level 99.4 %
Extraction speed 2.9 X
Track quality 100.0 %
Test CRC 8E05F7C6
Copy CRC 8E05F7C6
Accurately ripped (confidence 2) [840156D1] (AR v2)
Copy OK
Track 3
Filename G:\POSTS\Beggar & Co. - Monument (1981) [2015 FTG]\03 - (Somebody) Help Me Out.wav
Pre-gap length 0:00:02.00
Peak level 100.0 %
Extraction speed 3.0 X
Track quality 100.0 %
Test CRC CEC18C20
Copy CRC CEC18C20
Accurately ripped (confidence 2) [191B3B59] (AR v2)
Copy OK
Track 4
Filename G:\POSTS\Beggar & Co. - Monument (1981) [2015 FTG]\04 - Mule (Chant #2).wav
Pre-gap length 0:00:02.00
Peak level 99.6 %
Extraction speed 2.8 X
Track quality 99.9 %
Test CRC 57776591
Copy CRC 57776591
Accurately ripped (confidence 2) [A80DFA09] (AR v2)
Copy OK
Track 5
Filename G:\POSTS\Beggar & Co. - Monument (1981) [2015 FTG]\05 - Break It Up.wav
Pre-gap length 0:00:02.00
Peak level 99.1 %
Extraction speed 3.4 X
Track quality 100.0 %
Test CRC D8A17A43
Copy CRC D8A17A43
Accurately ripped (confidence 2) [972EF5ED] (AR v2)
Copy OK
Track 6
Filename G:\POSTS\Beggar & Co. - Monument (1981) [2015 FTG]\06 - Got To Get Away.wav
Pre-gap length 0:00:02.00
Peak level 98.8 %
Extraction speed 3.2 X
Track quality 99.9 %
Test CRC DEFA4C87
Copy CRC DEFA4C87
Accurately ripped (confidence 2) [4376A2F7] (AR v2)
Copy OK
Track 7
Filename G:\POSTS\Beggar & Co. - Monument (1981) [2015 FTG]\07 - Bahia De Palma.wav
Pre-gap length 0:00:02.00
Peak level 100.0 %
Extraction speed 3.9 X
Track quality 100.0 %
Test CRC E63FAF8B
Copy CRC E63FAF8B
Accurately ripped (confidence 2) [79210907] (AR v2)
Copy OK
Track 8
Filename G:\POSTS\Beggar & Co. - Monument (1981) [2015 FTG]\08 - I Tried To Write A Song.wav
Pre-gap length 0:00:02.00
Peak level 97.3 %
Extraction speed 3.7 X
Track quality 100.0 %
Test CRC 8A9C78C6
Copy CRC 8A9C78C6
Accurately ripped (confidence 2) [A3A9539C] (AR v2)
Copy OK
Track 9
Filename G:\POSTS\Beggar & Co. - Monument (1981) [2015 FTG]\09 - That's Life.wav
Pre-gap length 0:00:02.00
Peak level 98.8 %
Extraction speed 4.4 X
Track quality 100.0 %
Test CRC 865E09E3
Copy CRC 865E09E3
Accurately ripped (confidence 2) [13CA39F2] (AR v2)
Copy OK
Track 10
Filename G:\POSTS\Beggar & Co. - Monument (1981) [2015 FTG]\10 - Keep On Running.wav
Pre-gap length 0:00:02.00
Peak level 98.2 %
Extraction speed 3.6 X
Track quality 100.0 %
Test CRC 7F5BDD3F
Copy CRC 7F5BDD3F
Accurately ripped (confidence 1) [22DCB7C7] (AR v2)
Copy OK
All tracks accurately ripped
No errors occurred
End of status report
==== Log checksum 6EF1D14D786E10DBD202A548F2304E430CD3595EDD053145C36FB7F259B2C532 ====
 
Содержание индексной карты (.CUE)
REM GENRE Funk
REM DATE 1981
REM DISCID 8609FF0A
REM COMMENT "ExactAudioCopy v1.0b3"
PERFORMER "Beggar & Co."
TITLE "Monument"
FILE "01 - You Need Love.wav" WAVE
TRACK 01 AUDIO
TITLE "You Need Love"
PERFORMER "Beggar & Co."
INDEX 01 00:00:00
TRACK 02 AUDIO
TITLE "Laughing On"
PERFORMER "Beggar & Co."
INDEX 00 05:35:44
FILE "02 - Laughing On.wav" WAVE
INDEX 01 00:00:00
TRACK 03 AUDIO
TITLE "(Somebody) Help Me Out"
PERFORMER "Beggar & Co."
INDEX 00 05:12:10
FILE "03 - (Somebody) Help Me Out.wav" WAVE
INDEX 01 00:00:00
TRACK 04 AUDIO
TITLE "Mule (Chant #2)"
PERFORMER "Beggar & Co."
INDEX 00 03:38:26
FILE "04 - Mule (Chant #2).wav" WAVE
INDEX 01 00:00:00
TRACK 05 AUDIO
TITLE "Break It Up"
PERFORMER "Beggar & Co."
INDEX 00 03:53:04
FILE "05 - Break It Up.wav" WAVE
INDEX 01 00:00:00
TRACK 06 AUDIO
TITLE "Got To Get Away"
PERFORMER "Beggar & Co."
INDEX 00 03:51:69
FILE "06 - Got To Get Away.wav" WAVE
INDEX 01 00:00:00
TRACK 07 AUDIO
TITLE "Bahia De Palma"
PERFORMER "Beggar & Co."
INDEX 00 04:15:72
FILE "07 - Bahia De Palma.wav" WAVE
INDEX 01 00:00:00
TRACK 08 AUDIO
TITLE "I Tried To Write A Song"
PERFORMER "Beggar & Co."
INDEX 00 04:56:16
FILE "08 - I Tried To Write A Song.wav" WAVE
INDEX 01 00:00:00
TRACK 09 AUDIO
TITLE "That's Life"
PERFORMER "Beggar & Co."
INDEX 00 02:43:09
FILE "09 - That's Life.wav" WAVE
INDEX 01 00:00:00
TRACK 10 AUDIO
TITLE "Keep On Running"
PERFORMER "Beggar & Co."
INDEX 00 06:28:15
FILE "10 - Keep On Running.wav" WAVE
INDEX 01 00:00:00
 
Об альбоме (сборнике)
First Time Ever on CD for Beggar & Co's 1981 album "Monument"
Monument is the only studio album by the British funk group Beggar & Co, and the 1981 album was released on the RCA label. Beggar & Co composed of core members Kenny Wellington, David Baptiste, Neville 'Breeze' McKrieth and other guest musicians specialising in jazz, funk and dance music. The founder members of the group were members of the group, Light Of The World, who enjoyed some success in the UK Albums Chart with their Round Trip album. Wellington, Baptiste and McKrieth formed Beggar and Co and experienced chart success, outselling the previous groups hit "Time", which they had also written. Beggar and Co's first single was "(Somebody) Help Me Out" and was in the chart for ten weeks, whilst the second was called "Mule (Chant No.2)" remained in the chart for five weeks.
The horn section, Wellington, Baptiste and Nat Augustin, have made many appearances with artists from both the UK and the US including Tom Browne, Jean Carne and The Jones Girls.
Приватный:
Нет (DHT включён)
Размер:
396.25 Мб (415,498,436 байт) » файлов: 22
Участники:
0 раздают, 0 качают (0 участников всего)
Внешние участники:
2 раздают, 1 качают (3 участников всего) [ Обновить ]
Есть вопросы - пишите личное сообщение пользователю M0p94ok.
10:12
93
Нет комментариев. Ваш будет первым!