Поиск

(Funk, Soul, R&B) [CD] Leon Haywood - Naturally (1980) - 2014, FLAC (tracks+.cue), lossless

(Funk, Soul, R&B) [CD] Leon Haywood - Naturally (1980) - 2014, FLAC (tracks+.cue), lossless
Треклист:
Leon Haywood - Naturally (1980) Жанр: Funk, Soul, R&B
Носитель: CD
Год издания: 2014
Издатель (лейбл): BBR Records
Номер по каталогу: CDBBRX0152
Аудиокодек: FLAC (*.flac)
Тип рипа: tracks+.cue
Битрейт аудио: lossless
Продолжительность: 52:18
Rip by JET 1
Наличие сканов в содержимом раздачи: да
Треклист:
01. Don't Push It Don't Force It (5:31)
02. Daydream (5:23)
03. That's What Time It Is (4:07)
04. Love Is What We Came Here For (4:51)
05. If You're Lookin' For A Night Of Fun (Look Past Me, I'm Not The One) (5:44)
06. Who You Been Giving It Up To (2:50)
07. Lover's Rap (6:59)
08. Daydream (12'' Promo Version) (6:03)
09. Don't Push It Don't Force It (Single Version) (3:29)
10. If You're Lookin' For A Night Of Fun (Look Past Me, I'm Not The One) (7'' Edit) (3:46)
11. Daydream (7'' Edit) (3:34)
 
 
Лог создания рипа
Exact Audio Copy V1.0 beta 3 from 29. August 2011
EAC extraction logfile from 18. February 2016, 21:44
Leon Haywood / Naturally
Used drive : GENERIC CDRCB05 Adapter: 4 ID: 0
Read mode : Secure
Utilize accurate stream : Yes
Defeat audio cache : Yes
Make use of C2 pointers : No
Read offset correction : 102
Overread into Lead-In and Lead-Out : No
Fill up missing offset samples with silence : Yes
Delete leading and trailing silent blocks : No
Null samples used in CRC calculations : Yes
Used interface : Native Win32 interface for Win NT & 2000
Gap handling : Appended to previous track
Used output format : User Defined Encoder
Selected bitrate : 1024 kBit/s
Quality : High
Add ID3 tag : No
Command line compressor : C:\Program Files\FLAC\flac.exe
Additional command line options : -8 -V -T "ARTIST=%artist%" -T "TITLE=%title%" -T "ALBUM=%albumtitle%" -T "DATE=%year%" -T "TRACKNUMBER=%tracknr%" -T "GENRE=%genre%" -T "PERFORMER=%albuminterpret%" -T "COMPOSER=%composer%" %haslyrics%--tag-from-file=LYRICS="%lyricsfile%"%haslyrics% -T "ALBUMARTIST=%albumartist%" -T "DISCNUMBER=%cdnumber%" -T "TOTALDISCS=%totalcds%" -T "TOTALTRACKS=%numtracks%" -T "COMMENT=%comment%" %source% -o %dest%
TOC of the extracted CD
Track | Start | Length | Start sector | End sector
---------------------------------------------------------
1 | 0:00.00 | 5:30.66 | 0 | 24815
2 | 5:30.66 | 5:23.00 | 24816 | 49040
3 | 10:53.66 | 4:07.28 | 49041 | 67593
4 | 15:01.19 | 4:51.37 | 67594 | 89455
5 | 19:52.56 | 5:43.43 | 89456 | 115223
6 | 25:36.24 | 2:50.25 | 115224 | 127998
7 | 28:26.49 | 6:59.31 | 127999 | 159454
8 | 35:26.05 | 6:02.64 | 159455 | 186668
9 | 41:28.69 | 3:28.49 | 186669 | 202317
10 | 44:57.43 | 3:46.36 | 202318 | 219303
11 | 48:44.04 | 3:33.67 | 219304 | 235345
Track 1
Filename G:\POSTS\Leon Haywood ?- Naturally (1980) [2014 BBR]\01 - Don't Push It Don't Force It.wav
Pre-gap length 0:00:02.00
Peak level 96.9 %
Extraction speed 1.5 X
Track quality 100.0 %
Test CRC E9DBEF65
Copy CRC E9DBEF65
Accurately ripped (confidence 9) [FEA371E4] (AR v2)
Copy OK
Track 2
Filename G:\POSTS\Leon Haywood ?- Naturally (1980) [2014 BBR]\02 - Daydream.wav
Pre-gap length 0:00:02.14
Peak level 95.8 %
Extraction speed 1.5 X
Track quality 99.9 %
Test CRC 8C75EBC1
Copy CRC 8C75EBC1
Accurately ripped (confidence 9) [899D8F32] (AR v2)
Copy OK
Track 3
Filename G:\POSTS\Leon Haywood ?- Naturally (1980) [2014 BBR]\03 - That's What Time It Is.wav
Pre-gap length 0:00:00.13
Peak level 96.4 %
Extraction speed 1.8 X
Track quality 100.0 %
Test CRC C0DC3054
Copy CRC C0DC3054
Accurately ripped (confidence 9) [8706494E] (AR v2)
Copy OK
Track 4
Filename G:\POSTS\Leon Haywood ?- Naturally (1980) [2014 BBR]\04 - Love Is What We Came Here For.wav
Pre-gap length 0:00:01.47
Peak level 94.9 %
Extraction speed 1.8 X
Track quality 99.9 %
Test CRC 812E8F2F
Copy CRC 812E8F2F
Accurately ripped (confidence 9) [BE949CA2] (AR v2)
Copy OK
Track 5
Filename G:\POSTS\Leon Haywood ?- Naturally (1980) [2014 BBR]\05 - If You're Lookin' For A Night Of Fun (Look Past Me, I'm Not The One).wav
Pre-gap length 0:00:02.32
Peak level 95.5 %
Extraction speed 2.2 X
Track quality 100.0 %
Test CRC 17D319AD
Copy CRC 17D319AD
Accurately ripped (confidence 9) [31602FD9] (AR v2)
Copy OK
Track 6
Filename G:\POSTS\Leon Haywood ?- Naturally (1980) [2014 BBR]\06 - Who You Been Giving It Up To.wav
Pre-gap length 0:00:01.31
Peak level 95.5 %
Extraction speed 1.8 X
Track quality 99.9 %
Test CRC CEEFB989
Copy CRC CEEFB989
Accurately ripped (confidence 9) [5E1DB7BA] (AR v2)
Copy OK
Track 7
Filename G:\POSTS\Leon Haywood ?- Naturally (1980) [2014 BBR]\07 - Lover's Rap.wav
Pre-gap length 0:00:01.23
Peak level 95.1 %
Extraction speed 2.5 X
Track quality 100.0 %
Test CRC AF621A8C
Copy CRC AF621A8C
Accurately ripped (confidence 9) [B5281B39] (AR v2)
Copy OK
Track 8
Filename G:\POSTS\Leon Haywood ?- Naturally (1980) [2014 BBR]\08 - Daydream (12'' Promo Version).wav
Pre-gap length 0:00:03.06
Peak level 95.6 %
Extraction speed 2.4 X
Track quality 99.9 %
Test CRC 69440157
Copy CRC 69440157
Accurately ripped (confidence 9) [B0E5A910] (AR v2)
Copy OK
Track 9
Filename G:\POSTS\Leon Haywood ?- Naturally (1980) [2014 BBR]\09 - Don't Push It Don't Force It (Single Version).wav
Pre-gap length 0:00:05.68
Peak level 97.4 %
Extraction speed 2.6 X
Track quality 100.0 %
Test CRC D7AE6E93
Copy CRC D7AE6E93
Accurately ripped (confidence 9) [7116B828] (AR v2)
Copy OK
Track 10
Filename G:\POSTS\Leon Haywood ?- Naturally (1980) [2014 BBR]\10 - If You're Lookin' For A Night Of Fun (Look Past Me, I'm Not The One) (7'' Edit).wav
Pre-gap length 0:00:01.42
Peak level 95.5 %
Extraction speed 2.7 X
Track quality 100.0 %
Test CRC 20D16547
Copy CRC 20D16547
Accurately ripped (confidence 9) [EAEF04CC] (AR v2)
Copy OK
Track 11
Filename G:\POSTS\Leon Haywood ?- Naturally (1980) [2014 BBR]\11 - Daydream (7'' Edit).wav
Pre-gap length 0:00:01.71
Peak level 95.8 %
Extraction speed 2.7 X
Track quality 100.0 %
Test CRC BE858145
Copy CRC BE858145
Accurately ripped (confidence 9) [FC6ED2DE] (AR v2)
Copy OK
All tracks accurately ripped
No errors occurred
End of status report
==== Log checksum E84DDF65D0AF75306E7F02E6FB8E4C45036A53A45FE0453E1158DB84E89C6AC4 ====
 
Содержание индексной карты (.CUE)
REM GENRE Soul
REM DATE 1980
REM DISCID 9F0C410B
REM COMMENT "ExactAudioCopy v1.0b3"
PERFORMER "Leon Haywood"
TITLE "Naturally"
FILE "01 - Don't Push It Don't Force It.wav" WAVE
TRACK 01 AUDIO
TITLE "Don't Push It Don't Force It"
PERFORMER "Leon Haywood"
INDEX 01 00:00:00
TRACK 02 AUDIO
TITLE "Daydream"
PERFORMER "Leon Haywood"
INDEX 00 05:28:52
FILE "02 - Daydream.wav" WAVE
INDEX 01 00:00:00
TRACK 03 AUDIO
TITLE "That's What Time It Is"
PERFORMER "Leon Haywood"
INDEX 00 05:22:62
FILE "03 - That's What Time It Is.wav" WAVE
INDEX 01 00:00:00
TRACK 04 AUDIO
TITLE "Love Is What We Came Here For"
PERFORMER "Leon Haywood"
INDEX 00 04:05:56
FILE "04 - Love Is What We Came Here For.wav" WAVE
INDEX 01 00:00:00
TRACK 05 AUDIO
TITLE "If You're Lookin' For A Night Of Fun (Look Past Me, I'm Not The One)"
PERFORMER "Leon Haywood"
INDEX 00 04:49:05
FILE "05 - If You're Lookin' For A Night Of Fun (Look Past Me, I'm Not The One).wav" WAVE
INDEX 01 00:00:00
TRACK 06 AUDIO
TITLE "Who You Been Giving It Up To"
PERFORMER "Leon Haywood"
INDEX 00 05:42:12
FILE "06 - Who You Been Giving It Up To.wav" WAVE
INDEX 01 00:00:00
TRACK 07 AUDIO
TITLE "Lover's Rap"
PERFORMER "Leon Haywood"
INDEX 00 02:49:02
FILE "07 - Lover's Rap.wav" WAVE
INDEX 01 00:00:00
TRACK 08 AUDIO
TITLE "Daydream (12'' Promo Version)"
PERFORMER "Leon Haywood"
INDEX 00 06:56:25
FILE "08 - Daydream (12'' Promo Version).wav" WAVE
INDEX 01 00:00:00
TRACK 09 AUDIO
TITLE "Don't Push It Don't Force It (Single Version)"
PERFORMER "Leon Haywood"
INDEX 00 05:56:71
FILE "09 - Don't Push It Don't Force It (Single Version).wav" WAVE
INDEX 01 00:00:00
TRACK 10 AUDIO
TITLE "If You're Lookin' For A Night Of Fun (Look Past Me, I'm Not The One) (7'' Edit)"
PERFORMER "Leon Haywood"
INDEX 00 03:27:07
FILE "10 - If You're Lookin' For A Night Of Fun (Look Past Me, I'm Not The One) (7'' Edit).wav" WAVE
INDEX 01 00:00:00
TRACK 11 AUDIO
TITLE "Daydream (7'' Edit)"
PERFORMER "Leon Haywood"
INDEX 00 03:44:40
FILE "11 - Daydream (7'' Edit).wav" WAVE
INDEX 01 00:00:00
Приватный:
Нет (DHT включён)
Размер:
564.61 Мб (592,035,947 байт) » файлов: 26
Участники:
0 раздают, 0 качают (0 участников всего)
Внешние участники:
3 раздают, 1 качают (4 участников всего) [ Обновить ]
Есть вопросы - пишите личное сообщение пользователю M0p94ok.
10:11
71
Нет комментариев. Ваш будет первым!