Поиск

(Funk, Soul, R&B) [CD] Ohio Players - Contradiction (1976) - 2014, FLAC (tracks+.cue), lossless

(Funk, Soul, R&B) [CD] Ohio Players - Contradiction (1976) - 2014, FLAC (tracks+.cue), lossless
Треклист:
Ohio Players - Contradiction (1976) Жанр: Funk, Soul, R&B
Носитель: CD
Год издания: 2014
Издатель (лейбл): Universal Japan
Номер по каталогу: UICY-76613
Аудиокодек: FLAC (*.flac)
Тип рипа: tracks+.cue
Битрейт аудио: lossless
Продолжительность: 38:54
Rip by JET 1
Наличие сканов в содержимом раздачи: да
Треклист:
01. Contradiction (4:39)
02. Precious Love (4:58)
03. Little Lady Maria (4:19)
04. Far East Mississippi (4:57)
05. Who'd She Coo? (4:34)
06. My Life (4:00)
07. Tell The Truth (3:43)
08. My Ladies Run Me Crazy (3:58)
09. Bi-Centennial (3:46)
 
 
Лог создания рипа
Exact Audio Copy V1.0 beta 3 from 29. August 2011
EAC extraction logfile from 24. February 2016, 6:33
Ohio Players / Contradiction
Used drive : GENERIC CDRCB05 Adapter: 4 ID: 0
Read mode : Secure
Utilize accurate stream : Yes
Defeat audio cache : Yes
Make use of C2 pointers : No
Read offset correction : 102
Overread into Lead-In and Lead-Out : No
Fill up missing offset samples with silence : Yes
Delete leading and trailing silent blocks : No
Null samples used in CRC calculations : Yes
Used interface : Native Win32 interface for Win NT & 2000
Gap handling : Appended to previous track
Used output format : User Defined Encoder
Selected bitrate : 1024 kBit/s
Quality : High
Add ID3 tag : No
Command line compressor : C:\Program Files\FLAC\flac.exe
Additional command line options : -8 -V -T "ARTIST=%artist%" -T "TITLE=%title%" -T "ALBUM=%albumtitle%" -T "DATE=%year%" -T "TRACKNUMBER=%tracknr%" -T "GENRE=%genre%" -T "PERFORMER=%albuminterpret%" -T "COMPOSER=%composer%" %haslyrics%--tag-from-file=LYRICS="%lyricsfile%"%haslyrics% -T "ALBUMARTIST=%albumartist%" -T "DISCNUMBER=%cdnumber%" -T "TOTALDISCS=%totalcds%" -T "TOTALTRACKS=%numtracks%" -T "COMMENT=%comment%" %source% -o %dest%
TOC of the extracted CD
Track | Start | Length | Start sector | End sector
---------------------------------------------------------
1 | 0:00.00 | 4:39.02 | 0 | 20926
2 | 4:39.02 | 4:58.11 | 20927 | 43287
3 | 9:37.13 | 4:18.58 | 43288 | 62695
4 | 13:55.71 | 4:56.46 | 62696 | 84941
5 | 18:52.42 | 4:33.71 | 84942 | 105487
6 | 23:26.38 | 4:00.10 | 105488 | 123497
7 | 27:26.48 | 3:43.33 | 123498 | 140255
8 | 31:10.06 | 3:57.63 | 140256 | 158093
9 | 35:07.69 | 3:45.65 | 158094 | 175033
Track 1
Filename G:\POSTS\Ohio Players - Contradiction (1976) [2014 Japan]\01 - Contradiction.wav
Pre-gap length 0:00:02.00
Peak level 99.8 %
Extraction speed 2.4 X
Track quality 100.0 %
Test CRC 00BBACAC
Copy CRC 00BBACAC
Accurately ripped (confidence 2) [F60B662E] (AR v2)
Copy OK
Track 2
Filename G:\POSTS\Ohio Players - Contradiction (1976) [2014 Japan]\02 - Precious Love.wav
Pre-gap length 0:00:02.58
Peak level 99.8 %
Extraction speed 2.5 X
Track quality 99.9 %
Test CRC D9DAA460
Copy CRC D9DAA460
Accurately ripped (confidence 2) [625CA3C8] (AR v2)
Copy OK
Track 3
Filename G:\POSTS\Ohio Players - Contradiction (1976) [2014 Japan]\03 - Little Lady Maria.wav
Pre-gap length 0:00:02.58
Peak level 99.8 %
Extraction speed 3.0 X
Track quality 100.0 %
Test CRC 73184C65
Copy CRC 73184C65
Accurately ripped (confidence 2) [E4987B1F] (AR v2)
Copy OK
Track 4
Filename G:\POSTS\Ohio Players - Contradiction (1976) [2014 Japan]\04 - Far East Mississippi.wav
Pre-gap length 0:00:01.61
Peak level 99.8 %
Extraction speed 3.3 X
Track quality 100.0 %
Test CRC 116F7145
Copy CRC 116F7145
Accurately ripped (confidence 2) [0B20B764] (AR v2)
Copy OK
Track 5
Filename G:\POSTS\Ohio Players - Contradiction (1976) [2014 Japan]\05 - Who'd She Coo.wav
Pre-gap length 0:00:02.02
Peak level 99.8 %
Extraction speed 3.5 X
Track quality 100.0 %
Test CRC 2266BC3D
Copy CRC 2266BC3D
Accurately ripped (confidence 2) [7A934325] (AR v2)
Copy OK
Track 6
Filename G:\POSTS\Ohio Players - Contradiction (1976) [2014 Japan]\06 - My Life.wav
Pre-gap length 0:00:02.49
Peak level 99.8 %
Extraction speed 3.6 X
Track quality 100.0 %
Test CRC F037778E
Copy CRC F037778E
Accurately ripped (confidence 2) [9C223260] (AR v2)
Copy OK
Track 7
Filename G:\POSTS\Ohio Players - Contradiction (1976) [2014 Japan]\07 - Tell The Truth.wav
Pre-gap length 0:00:01.45
Peak level 99.8 %
Extraction speed 3.2 X
Track quality 99.9 %
Test CRC 35EF6519
Copy CRC 35EF6519
Accurately ripped (confidence 2) [BCA02846] (AR v2)
Copy OK
Track 8
Filename G:\POSTS\Ohio Players - Contradiction (1976) [2014 Japan]\08 - My Ladies Run Me Crazy.wav
Pre-gap length 0:00:03.57
Peak level 99.8 %
Extraction speed 3.9 X
Track quality 100.0 %
Test CRC 9F41619F
Copy CRC 9F41619F
Accurately ripped (confidence 2) [ACB0A837] (AR v2)
Copy OK
Track 9
Filename G:\POSTS\Ohio Players - Contradiction (1976) [2014 Japan]\09 - Bi-Centennial.wav
Pre-gap length 0:00:03.08
Peak level 99.8 %
Extraction speed 4.0 X
Track quality 100.0 %
Test CRC 6453E330
Copy CRC 6453E330
Accurately ripped (confidence 2) [CF8F4F12] (AR v2)
Copy OK
All tracks accurately ripped
No errors occurred
End of status report
==== Log checksum AC63FD4B68E6672AFF19D77C0B65B5224ABFF6C210359D2341256C0130B01D59 ====
 
Содержание индексной карты (.CUE)
REM GENRE Funk
REM DATE 1976
REM DISCID 7B091D09
REM COMMENT "ExactAudioCopy v1.0b3"
PERFORMER "Ohio Players"
TITLE "Contradiction"
FILE "01 - Contradiction.wav" WAVE
TRACK 01 AUDIO
TITLE "Contradiction"
PERFORMER "Ohio Players"
INDEX 01 00:00:00
TRACK 02 AUDIO
TITLE "Precious Love"
PERFORMER "Ohio Players"
INDEX 00 04:36:19
FILE "02 - Precious Love.wav" WAVE
INDEX 01 00:00:00
TRACK 03 AUDIO
TITLE "Little Lady Maria"
PERFORMER "Ohio Players"
INDEX 00 04:55:28
FILE "03 - Little Lady Maria.wav" WAVE
INDEX 01 00:00:00
TRACK 04 AUDIO
TITLE "Far East Mississippi"
PERFORMER "Ohio Players"
INDEX 00 04:16:72
FILE "04 - Far East Mississippi.wav" WAVE
INDEX 01 00:00:00
TRACK 05 AUDIO
TITLE "Who'd She Coo?"
PERFORMER "Ohio Players"
INDEX 00 04:54:44
FILE "05 - Who'd She Coo.wav" WAVE
INDEX 01 00:00:00
TRACK 06 AUDIO
TITLE "My Life"
PERFORMER "Ohio Players"
INDEX 00 04:31:22
FILE "06 - My Life.wav" WAVE
INDEX 01 00:00:00
TRACK 07 AUDIO
TITLE "Tell The Truth"
PERFORMER "Ohio Players"
INDEX 00 03:58:40
FILE "07 - Tell The Truth.wav" WAVE
INDEX 01 00:00:00
TRACK 08 AUDIO
TITLE "My Ladies Run Me Crazy"
PERFORMER "Ohio Players"
INDEX 00 03:39:51
FILE "08 - My Ladies Run Me Crazy.wav" WAVE
INDEX 01 00:00:00
TRACK 09 AUDIO
TITLE "Bi-Centennial"
PERFORMER "Ohio Players"
INDEX 00 03:54:55
FILE "09 - Bi-Centennial.wav" WAVE
INDEX 01 00:00:00
Приватный:
Нет (DHT включён)
Размер:
353.20 Мб (370,356,031 байт) » файлов: 27
Участники:
0 раздают, 0 качают (0 участников всего)
Внешние участники:
3 раздают, 1 качают (4 участников всего) [ Обновить ]
No seeders - write personal message to user M0p94ok. Нет сидеров - пишите личное сообщение пользователю M0p94ok.
10:10
69
Нет комментариев. Ваш будет первым!