Поиск

[Blues|Soul|Pop] [CD] Karise Eden - Things I've Done [2014] | FLAC [tracks+.cue] | lossless

[Blues|Soul|Pop] [CD] Karise Eden - Things I've Done [2014] | FLAC [tracks+.cue] | lossless
Треклист:
Karise Eden - Things I've Done

Жанр: Blues|Soul|Pop
Носитель: CD
Страна-производитель диска: Australia
Год издания: 2014
Издатель [лейбл]: Universal Music Australia
Страна исполнителя: Australia
Аудиокодек: FLAC [*.flac]
Тип рипа: tracks+.cue
Битрейт аудио: lossless
Продолжительность: 00:46:36
Источник [релизер]: achiruel
Наличие сканов в содержимом раздачи: нет

Треклист:
01. Black Heart [03:20]
02. Taking It All [03:25]
03. Dynamite [03:23]
04. Loneliness [03:50]
05. Things I've Done [04:18]
06. Don't Ask Me [03:51]
07. She Don't [03:57]
08. 134 Days [04:43]
09. We Got the Night [03:52]
10. House On Fire [02:54]
11. Broken Hearted [05:10]
12. Something In the Water [03:47]
 
Лог создания рипа
Exact Audio Copy V1.0 beta 3 from 29. August 2011
EAC extraction logfile from 21. November 2014, 20:49
Karise Eden / Things I've Done
Used drive : ASUS DRW-24D3ST Adapter: 1 ID: 1
Read mode : Secure
Utilize accurate stream : Yes
Defeat audio cache : Yes
Make use of C2 pointers : No
Read offset correction : 6
Overread into Lead-In and Lead-Out : No
Fill up missing offset samples with silence : Yes
Delete leading and trailing silent blocks : No
Null samples used in CRC calculations : Yes
Used interface : Native Win32 interface for Win NT & 2000
Gap handling : Appended to previous track
Used output format : User Defined Encoder
Selected bitrate : 896 kBit/s
Quality : Low
Add ID3 tag : No
Command line compressor : C:\Windows\System32\cmd.exe
Additional command line options : /K eac3.cmd %source% "%albumartist%" "%albumtitle%" %year% %tracknr% %numtracks% "%title%" "%artist%" "%genre%" %cdnumber% %totalcds% "%comment%"
TOC of the extracted CD
Track | Start | Length | Start sector | End sector
---------------------------------------------------------
1 | 0:00.00 | 3:20.47 | 0 | 15046
2 | 3:20.47 | 3:25.52 | 15047 | 30473
3 | 6:46.24 | 3:23.26 | 30474 | 45724
4 | 10:09.50 | 3:50.27 | 45725 | 63001
5 | 14:00.02 | 4:18.49 | 63002 | 82400
6 | 18:18.51 | 3:51.44 | 82401 | 99769
7 | 22:10.20 | 3:57.54 | 99770 | 117598
8 | 26:07.74 | 4:43.67 | 117599 | 138890
9 | 30:51.66 | 3:52.72 | 138891 | 156362
10 | 34:44.63 | 2:54.43 | 156363 | 169455
11 | 37:39.31 | 5:10.15 | 169456 | 192720
12 | 42:49.46 | 3:47.12 | 192721 | 209757
Track 1
Filename T:\EACtmp\01 - Black Heart.wav
Pre-gap length 0:00:02.00
Peak level 100.0 %
Extraction speed 4.2 X
Track quality 100.0 %
Test CRC A28D53AA
Copy CRC A28D53AA
Accurately ripped (confidence 1) [C020BBD9] (AR v2)
Copy OK
Track 2
Filename T:\EACtmp\02 - Taking It All.wav
Pre-gap length 0:00:01.70
Peak level 100.0 %
Extraction speed 4.6 X
Track quality 100.0 %
Test CRC EA0CF103
Copy CRC EA0CF103
Accurately ripped (confidence 1) [D9ECDE80] (AR v2)
Copy OK
Track 3
Filename T:\EACtmp\03 - Dynamite.wav
Pre-gap length 0:00:01.30
Peak level 100.0 %
Extraction speed 5.0 X
Track quality 100.0 %
Test CRC 8CF7D087
Copy CRC 8CF7D087
Accurately ripped (confidence 1) [7FC2316C] (AR v2)
Copy OK
Track 4
Filename T:\EACtmp\04 - Loneliness.wav
Pre-gap length 0:00:00.22
Peak level 100.0 %
Extraction speed 5.4 X
Track quality 100.0 %
Test CRC 4885ECE8
Copy CRC 4885ECE8
Accurately ripped (confidence 1) [509BBFD6] (AR v2)
Copy OK
Track 5
Filename T:\EACtmp\05 - Things I've Done.wav
Pre-gap length 0:00:00.30
Peak level 100.0 %
Extraction speed 4.9 X
Track quality 99.9 %
Test CRC DD26B24A
Copy CRC DD26B24A
Accurately ripped (confidence 1) [08210148] (AR v2)
Copy OK
Track 6
Filename T:\EACtmp\06 - Don't Ask Me.wav
Pre-gap length 0:00:00.13
Peak level 100.0 %
Extraction speed 6.1 X
Track quality 100.0 %
Test CRC 6F304EBB
Copy CRC 6F304EBB
Accurately ripped (confidence 1) [134AA57F] (AR v2)
Copy OK
Track 7
Filename T:\EACtmp\07 - She Don't.wav
Peak level 100.0 %
Extraction speed 5.4 X
Track quality 99.9 %
Test CRC DC72BFF7
Copy CRC DC72BFF7
Accurately ripped (confidence 1) [FCB57644] (AR v2)
Copy OK
Track 8
Filename T:\EACtmp\08 - 134 Days.wav
Pre-gap length 0:00:00.50
Peak level 100.0 %
Extraction speed 7.0 X
Track quality 100.0 %
Test CRC 227D1039
Copy CRC 227D1039
Accurately ripped (confidence 1) [AD1CAF96] (AR v2)
Copy OK
Track 9
Filename T:\EACtmp\09 - We Got the Night.wav
Pre-gap length 0:00:01.03
Peak level 100.0 %
Extraction speed 7.0 X
Track quality 100.0 %
Test CRC 41D4A3FD
Copy CRC 41D4A3FD
Accurately ripped (confidence 1) [8B522A74] (AR v2)
Copy OK
Track 10
Filename T:\EACtmp\10 - House On Fire.wav
Peak level 100.0 %
Extraction speed 6.9 X
Track quality 100.0 %
Test CRC B7B1978C
Copy CRC B7B1978C
Accurately ripped (confidence 1) [EECF3C16] (AR v2)
Copy OK
Track 11
Filename T:\EACtmp\11 - Broken Hearted.wav
Pre-gap length 0:00:01.73
Peak level 100.0 %
Extraction speed 7.9 X
Track quality 100.0 %
Test CRC 1AF01A3D
Copy CRC 1AF01A3D
Accurately ripped (confidence 1) [5F298704] (AR v2)
Copy OK
Track 12
Filename T:\EACtmp\12 - Something In the Water.wav
Peak level 100.0 %
Extraction speed 7.8 X
Track quality 100.0 %
Test CRC 0FB552CB
Copy CRC 0FB552CB
Accurately ripped (confidence 1) [451482C5] (AR v2)
Copy OK
All tracks accurately ripped
No errors occurred
End of status report
---- CUETools DB Plugin V2.1.3
[CTDB TOCID: 0lNaUGLhwhMybSasw8icyErLsuc-] found, Submit result: already submitted
[e1b5d874] (3/3) Accurately ripped
==== Log checksum F6A7B07B377B8D283BEC997FAF7C94073A565552813071619F7CDF9043FA970F ====
 
Содержание индексной карты [.cue]
REM GENRE Pop
REM DATE 2014
REM DISCID 830AEC0C
REM COMMENT "ExactAudioCopy v1.0b3"
CATALOG 0060254703626
PERFORMER "Karise Eden"
TITLE "Things I've Done"
FILE "01 - Black Heart.wav" WAVE
TRACK 01 AUDIO
TITLE "Black Heart"
PERFORMER "Karise Eden"
ISRC AUUM71401497
FLAGS DCP
INDEX 01 00:00:00
TRACK 02 AUDIO
TITLE "Taking It All"
PERFORMER "Karise Eden"
ISRC AUUM71401498
FLAGS DCP
INDEX 00 03:18:52
FILE "02 - Taking It All.wav" WAVE
INDEX 01 00:00:00
TRACK 03 AUDIO
TITLE "Dynamite"
PERFORMER "Karise Eden"
ISRC AUUM71401288
FLAGS DCP
INDEX 00 03:24:22
FILE "03 - Dynamite.wav" WAVE
INDEX 01 00:00:00
TRACK 04 AUDIO
TITLE "Loneliness"
PERFORMER "Karise Eden"
ISRC AUUM71401499
FLAGS DCP
INDEX 00 03:23:04
FILE "04 - Loneliness.wav" WAVE
INDEX 01 00:00:00
TRACK 05 AUDIO
TITLE "Things I've Done"
PERFORMER "Karise Eden"
ISRC AUUM71401500
FLAGS DCP
INDEX 00 03:49:72
FILE "05 - Things I've Done.wav" WAVE
INDEX 01 00:00:00
TRACK 06 AUDIO
TITLE "Don't Ask Me"
PERFORMER "Karise Eden"
ISRC AUUM71401501
FLAGS DCP
INDEX 00 04:18:36
FILE "06 - Don't Ask Me.wav" WAVE
INDEX 01 00:00:00
FILE "07 - She Don't.wav" WAVE
TRACK 07 AUDIO
TITLE "She Don't"
PERFORMER "Karise Eden"
ISRC AUUM71401507
FLAGS DCP
INDEX 01 00:00:00
TRACK 08 AUDIO
TITLE "134 Days"
PERFORMER "Karise Eden"
ISRC AUUM71401502
FLAGS DCP
INDEX 00 03:57:04
FILE "08 - 134 Days.wav" WAVE
INDEX 01 00:00:00
TRACK 09 AUDIO
TITLE "We Got the Night"
PERFORMER "Karise Eden"
ISRC AUUM71401503
FLAGS DCP
INDEX 00 04:42:64
FILE "09 - We Got the Night.wav" WAVE
INDEX 01 00:00:00
FILE "10 - House On Fire.wav" WAVE
TRACK 10 AUDIO
TITLE "House On Fire"
PERFORMER "Karise Eden"
ISRC AUUM71401503
FLAGS DCP
INDEX 01 00:00:00
TRACK 11 AUDIO
TITLE "Broken Hearted"
PERFORMER "Karise Eden"
ISRC AUUM71401506
FLAGS DCP
INDEX 00 02:52:45
FILE "11 - Broken Hearted.wav" WAVE
INDEX 01 00:00:00
FILE "12 - Something In the Water.wav" WAVE
TRACK 12 AUDIO
TITLE "Something In the Water"
PERFORMER "Karise Eden"
ISRC AUUM71401506
FLAGS DCP
INDEX 01 00:00:00
Приватный:
Нет (DHT включён)
Размер:
315.21 Мб (330,520,545 байт) » файлов: 15
Участники:
0 раздают, 0 качают (0 участников всего)
Внешние участники:
3 раздают, 1 качают (4 участников всего) [ Обновить ]
Есть вопросы - пишите личное сообщение пользователю M0p94ok.
10:14
70
Нет комментариев. Ваш будет первым!