Поиск

(New Orleans Funk, Jam Band) [CD] The New Orleans Suspects - Caught Live At The Maple Leaf - 2012, FLAC (tracks+.cue), lossless

(New Orleans Funk, Jam Band) [CD] The New Orleans Suspects - Caught Live At The Maple Leaf - 2012, FLAC (tracks+.cue), lossless
Треклист:
The New Orleans Suspects / Caught Live At The Maple Leaf
Жанр: New Orleans Funk, Jam Band
Носитель: CD
Год издания: 2012
Издатель (лейбл): New Orleans Suspects Self-released
Аудиокодек: FLAC (*.flac)
Тип рипа: tracks+.cue
Битрейт аудио: lossless
Продолжительность: 01:17:29
Источник (релизер): swm99
Наличие сканов в содержимом раздачи: нет
Треклист:
1. County Side Of Life (Maurice R. Hirsch) 8:10
2. Classified (James Booker) 4:55
3. Tipitina (Henry Roeland Byrd) 7:42
4. Look Ka Py Py (The Meters) 8:54
5. Big Chief (Earl King) 12:06
6. All The Money (Bobby Charles) 5:09
7. Swampthang (New Orleans Supects) 6:58
8. Willie's Second Line (New Orleans Supects) 6:33
9. Glad (Steve Winwood) 7:31
10. Blackbird Special (Dirty Dozen Brass Band) 9:16
 
Лог создания рипа
Exact Audio Copy V1.0 beta 3 from 29. August 2011
EAC extraction logfile from 20. February 2013, 18:51
The New Orleans Suspects / Caught Live At The Maple Leaf
Used drive : Optiarc DVD RW AD-7710H Adapter: 0 ID: 1
Read mode : Secure
Utilize accurate stream : Yes
Defeat audio cache : Yes
Make use of C2 pointers : No
Read offset correction : 48
Overread into Lead-In and Lead-Out : No
Fill up missing offset samples with silence : Yes
Delete leading and trailing silent blocks : No
Null samples used in CRC calculations : Yes
Used interface : Native Win32 interface for Win NT & 2000
Gap handling : Appended to previous track
Used output format : User Defined Encoder
Selected bitrate : 1024 kBit/s
Quality : High
Add ID3 tag : No
Command line compressor : C:\Program Files (x86)\Exact Audio Copy\Flac\flac.exe
Additional command line options : -8 -V -T "ARTIST=%artist%" -T "TITLE=%title%" -T "ALBUM=%albumtitle%" -T "DATE=%year%" -T "TRACKNUMBER=%tracknr%" -T "GENRE=%genre%" -T "PERFORMER=%albuminterpret%" -T "COMPOSER=%composer%" %haslyrics%--tag-from-file=LYRICS="%lyricsfile%"%haslyrics% -T "ALBUMARTIST=%albumartist%" -T "DISCNUMBER=%cdnumber%" -T "TOTALDISCS=%totalcds%" -T "TOTALTRACKS=%numtracks%" -T "COMMENT=%comment%" %source% -o %dest%
TOC of the extracted CD
Track | Start | Length | Start sector | End sector
---------------------------------------------------------
1 | 0:00.00 | 8:14.02 | 0 | 37051
2 | 8:14.02 | 4:56.71 | 37052 | 59322
3 | 13:10.73 | 7:46.06 | 59323 | 94278
4 | 20:57.04 | 8:52.62 | 94279 | 134240
5 | 29:49.66 | 12:07.33 | 134241 | 188798
6 | 41:57.24 | 5:11.25 | 188799 | 212148
7 | 47:08.49 | 6:57.25 | 212149 | 243448
8 | 54:05.74 | 6:36.28 | 243449 | 273176
9 | 60:42.27 | 7:31.16 | 273177 | 307017
10 | 68:13.43 | 9:15.53 | 307018 | 348695
Track 1
Filename C:\EAC Rips\The New Orleans Suspects - Caught Live At The Maple Leaf (2012) [FLAC]\01 - Country Side Of Life.wav
Pre-gap length 0:00:02.00
Peak level 98.8 %
Extraction speed 2.3 X
Track quality 99.9 %
Test CRC 3A829306
Copy CRC 3A829306
Track not present in AccurateRip database
Copy OK
Track 2
Filename C:\EAC Rips\The New Orleans Suspects - Caught Live At The Maple Leaf (2012) [FLAC]\02 - Classified.wav
Pre-gap length 0:00:01.76
Peak level 97.7 %
Extraction speed 3.0 X
Track quality 100.0 %
Test CRC B726748A
Copy CRC B726748A
Track not present in AccurateRip database
Copy OK
Track 3
Filename C:\EAC Rips\The New Orleans Suspects - Caught Live At The Maple Leaf (2012) [FLAC]\03 - Tipitina.wav
Pre-gap length 0:00:01.76
Peak level 96.6 %
Extraction speed 2.8 X
Track quality 99.9 %
Test CRC 914F8806
Copy CRC 914F8806
Track not present in AccurateRip database
Copy OK
Track 4
Filename C:\EAC Rips\The New Orleans Suspects - Caught Live At The Maple Leaf (2012) [FLAC]\04 - Look Ka Py Py.wav
Pre-gap length 0:00:01.76
Peak level 99.2 %
Extraction speed 3.2 X
Track quality 99.9 %
Test CRC 2222F585
Copy CRC 2222F585
Track not present in AccurateRip database
Copy OK
Track 5
Filename C:\EAC Rips\The New Orleans Suspects - Caught Live At The Maple Leaf (2012) [FLAC]\05 - Big Chief.wav
Pre-gap length 0:00:01.76
Peak level 96.6 %
Extraction speed 4.3 X
Track quality 100.0 %
Test CRC E0FD15F5
Copy CRC E0FD15F5
Track not present in AccurateRip database
Copy OK
Track 6
Filename C:\EAC Rips\The New Orleans Suspects - Caught Live At The Maple Leaf (2012) [FLAC]\06 - All The Money.wav
Pre-gap length 0:00:01.76
Peak level 100.0 %
Extraction speed 4.4 X
Track quality 100.0 %
Test CRC 64F31108
Copy CRC 64F31108
Track not present in AccurateRip database
Copy OK
Track 7
Filename C:\EAC Rips\The New Orleans Suspects - Caught Live At The Maple Leaf (2012) [FLAC]\07 - Swampthang.wav
Pre-gap length 0:00:01.76
Peak level 98.8 %
Extraction speed 3.8 X
Track quality 99.9 %
Test CRC C00FCED1
Copy CRC C00FCED1
Track not present in AccurateRip database
Copy OK
Track 8
Filename C:\EAC Rips\The New Orleans Suspects - Caught Live At The Maple Leaf (2012) [FLAC]\08 - Willie's Second Line.wav
Pre-gap length 0:00:01.76
Peak level 100.0 %
Extraction speed 3.9 X
Track quality 99.9 %
Test CRC 006365FC
Copy CRC 006365FC
Track not present in AccurateRip database
Copy OK
Track 9
Filename C:\EAC Rips\The New Orleans Suspects - Caught Live At The Maple Leaf (2012) [FLAC]\09 - Glad.wav
Pre-gap length 0:00:01.76
Peak level 100.0 %
Extraction speed 4.2 X
Track quality 99.9 %
Test CRC C5FC0DEF
Copy CRC C5FC0DEF
Track not present in AccurateRip database
Copy OK
Track 10
Filename C:\EAC Rips\The New Orleans Suspects - Caught Live At The Maple Leaf (2012) [FLAC]\10 - Blackbird Special.wav
Pre-gap length 0:00:01.76
Peak level 97.7 %
Extraction speed 5.5 X
Track quality 100.0 %
Test CRC 4650F604
Copy CRC 4650F604
Track not present in AccurateRip database
Copy OK
None of the tracks are present in the AccurateRip database
No errors occurred
End of status report
---- CUETools DB Plugin V2.1.3
[CTDB TOCID: FZwfkUA_POH06PyDhZGQte8r7sA-] disk not present in database, Submit result: FZwfkUA_POH06PyDhZGQte8r7sA- has been uploaded
==== Log checksum A300E57F12E9F02277F3CFF12AF1384D1E63265C3A374BFA69EE855EBC5ACC38 ====
 
Содержание индексной карты (.CUE)
REM GENRE Funk
REM DATE 2012
REM DISCID 9B12290A
REM COMMENT "ExactAudioCopy v1.0b3"
PERFORMER "The New Orleans Suspects"
TITLE "Caught Live At The Maple Leaf"
FILE "01 - Country Side Of Life.wav" WAVE
TRACK 01 AUDIO
TITLE "Country Side Of Life"
PERFORMER "The New Orleans Suspects"
INDEX 01 00:00:00
TRACK 02 AUDIO
TITLE "Classified"
PERFORMER "The New Orleans Suspects"
INDEX 00 08:12:20
FILE "02 - Classified.wav" WAVE
INDEX 01 00:00:00
TRACK 03 AUDIO
TITLE "Tipitina"
PERFORMER "The New Orleans Suspects"
INDEX 00 04:55:14
FILE "03 - Tipitina.wav" WAVE
INDEX 01 00:00:00
TRACK 04 AUDIO
TITLE "Look Ka Py Py"
PERFORMER "The New Orleans Suspects"
INDEX 00 07:44:24
FILE "04 - Look Ka Py Py.wav" WAVE
INDEX 01 00:00:00
TRACK 05 AUDIO
TITLE "Big Chief"
PERFORMER "The New Orleans Suspects"
INDEX 00 08:51:05
FILE "05 - Big Chief.wav" WAVE
INDEX 01 00:00:00
TRACK 06 AUDIO
TITLE "All The Money"
PERFORMER "The New Orleans Suspects"
INDEX 00 12:05:51
FILE "06 - All The Money.wav" WAVE
INDEX 01 00:00:00
TRACK 07 AUDIO
TITLE "Swampthang"
PERFORMER "The New Orleans Suspects"
INDEX 00 05:09:43
FILE "07 - Swampthang.wav" WAVE
INDEX 01 00:00:00
TRACK 08 AUDIO
TITLE "Willie's Second Line"
PERFORMER "The New Orleans Suspects"
INDEX 00 06:55:43
FILE "08 - Willie's Second Line.wav" WAVE
INDEX 01 00:00:00
TRACK 09 AUDIO
TITLE "Glad"
PERFORMER "The New Orleans Suspects"
INDEX 00 06:34:46
FILE "09 - Glad.wav" WAVE
INDEX 01 00:00:00
TRACK 10 AUDIO
TITLE "Blackbird Special"
PERFORMER "The New Orleans Suspects"
INDEX 00 07:29:34
FILE "10 - Blackbird Special.wav" WAVE
INDEX 01 00:00:00
 
Об исполнителе (группе)
neworleanssuspects.com
It’s been said that the musicians of New Orleans are all members of one gigantic band that breaks up into smaller groups on a nightly basis. If this were really the case, The New Orleans Suspects would be in a class all their own. The group is comprised of musicians with experience and versatility that rival any other band the city has ever produced.
“Mean” Willie Green has been the drummer for the Neville Brothers band since the 1980s. His unique attack has defined funk drumming for a quarter of a century, yet he is not a one-dimensional player. His taste in music spans the gamut of modern rock styles and he is as comfortable driving the beat as he is holding down the groove.

Reggie Scanlan‘s career has been defined by his thirty-three years playing bass in The Radiators – the longest running rock act in the history of New Orleans – but his resume is far deeper. Scanlan spent much of the 1970’s in the bands of legends such as James Booker and Professor Longhair.
Jake Eckert was the lead guitarist in the Dirty Dozen Brass Band. While living in Los Angeles he played in the band New Soul Underground along with jazz great Larry Carlton. He has performed with some of the biggest names in the business, including Warren Haynes, Dr. John, Allen Toussaint, and Dave Matthews.

CR Gruver is a classically trained pianist who immersed himself in New Orleans piano style after touring with nationally known bands such as The Meters Experience, Outformation, and singer/songwriter Angie Aparo. Since moving to New Orleans he has become a well-regarded sideman adept at James Booker-style piano and the swelling B-3 stylings of Art Neville.

Jeff Watkins is an accomplished sax player, engineer and producer. He played all over the world leading James Brown’s band for 12 years, including the induction into the Rock’n’Roll Hall of Fame. After Brown’s passing, he worked for six years with Joss Stone as her producer, engineer and band-leader before joining The Suspects full-time.
Together, these five musicians are The New Orleans Suspects. Known for their high-energy live shows, they create music that is firmly rooted in the modern New Orleans sound with compelling originals and tasteful covers. They released two albums in 2012 – their eponymous debut studio album, and “Live at the Maple Leaf”, making it into iTunes highly competitive “New and Noteworthy” page. The band is continually touring while working on a second studio album to be released in 2013.
We'll be featuring the New Orleans Suspects CD 'Caught Live at The Maple Leaf'.
 
Об альбоме (сборнике)
Sometimes it helps to cut right to the chase: The New Orleans Suspects are above all a live band, so they didn’t wait long (less than a year after their studio debut) to make a live album. One glance at the band personnel (with familiar names from the Nevilles, the Radiators and Dirty Dozen) and the tracklist (time-honored tunes from Professor Longhair, the Meters, Earl King and James Booker, most in versions that approach ten minutes) will tell you exactly what you’re in for: a classic-model New Orleans jam album. And that ain’t a bad thing at all.
Breathing new life into “Tipitina” and “Big Chief” is a tall order at this point, but the band is still new enough that the chemistry sounds fresh—and the players are good enough that the extended solos feel like a plus. Keyboardist CR Gruver and guitarist Jake Eckert get their turn to shine on the former tune; saxman Jeff Watkins and drummer Mean Willie Green step out on the latter. True to his form in the Radiators, bassist Reggie Scanlan barely steps out at all, but you’d miss his economically fluid parts if they weren’t there.
The more creative choices work best. “Country Side of Life” isn’t the local-classic Robert Parker tune, but a joyful bit of ’70s Southern rock done by Wet Willie. Bobby Charles’ “All the Money” was a highlight of the Suspects’ studio debut and it works again here, though curiously, the original line “He got all the reefer” is now replaced by “…all the answers”—Talk about losing some easy applause. And they do their best arranging on the old Traffic instrumental “”Glad,” funkifying the upbeat first half and turning the spacey second half into a rhumba. It’s not totally faithful to Traffic’s version, but it’s true to the mood of the title. by: Brett Milano
 
Состав
"Mean” Willie Green - drums
Reggie Scanlan - bass
Jake Eckert - guitar
CR Gruver - keyboard, vocalist
Jeff Watkins - saxophone
Guest Musician - Kevin Harris - sax, vocals
Приватный:
Нет (DHT включён)
Размер:
521.58 Мб (546,919,434 байт) » файлов: 17
Участники:
0 раздают, 0 качают (0 участников всего)
Внешние участники:
1 раздают, 0 качают (1 участников всего) [ Обновить ]
Есть вопросы - пишите личное сообщение пользователю M0p94ok.
10:14
49
Нет комментариев. Ваш будет первым!