Поиск

(Soul / Funk) Isaac Hayes - Greatest Hit Singles (1991 remastered) - 1982, FLAC (image+.cue), lossless

(Soul / Funk) Isaac Hayes - Greatest Hit Singles (1991 remastered) - 1982, FLAC (image+.cue), lossless
Треклист:
Isaac Hayes - Greatest Hit Singles (1991 remastered)
Жанр: Soul / Funk
Год выпуска диска: 1982
Производитель диска: US STAX SCD-8515-2
Аудио кодек: FLAC
Тип рипа: image+.cue
Битрейт аудио: lossless
Продолжительность: 51:00
Трэклист:
01. By the Time I Get to Phoenix
02. Walk on By
03. I Stand Accused
04. The Look of Love, The
05. Never Can Say Goodbye
06. Theme from "Shaft"
07. Do Your Thing
08. Let's Stay Together
09. Ain't That Loving You (For More Reasons Than One)
10. Theme From "The Men"
11. (If Loving You Is Wrong) I Don't Want to Be Right
12. Joy (part 1)
 
Log EAC
Exact Audio Copy V0.99 prebeta 5 from 4. May 2009
Отчёт EAC об извлечении, выполненном 20. февраля 2010, 12:55
IsaacHayes / IsaacHayesGreatestHitSingles(DigitalRemaster);StaxSCD-8515-2
Дисковод: MATSHITAUJDA755 DVD/CDRW Adapter: 1 ID: 0
Режим чтения : Достоверность
Использование точного потока : Да
Отключение кэша аудио : Да
Использование указателей C2 : Нет
Коррекция смещения при чтении : 102
Способность читать области Lead-in и Lead-out : Нет
Заполнение пропущенных сэмплов тишиной : Да
Удаление блоков с тишиной в начале и конце : Нет
При вычислениях CRC использовались нулевые сэмплы : Да
Интерфейс : Встроенный Win32-интерфейс для Win NT/2000
Выходной формат : Пользовательский кодировщик
Выбранный битрейт : 768 kBit/s
Качество : Высокий
Добавление ID3-тэга : Нет
Утилита сжатия : C:\Program Files\Exact Audio Copy\FLAC\FLAC.EXE
Дополнительные параметры : -8 -V %s
TOC извлечённого CD
Трек | Старт | Длительность | Начальный сектор | Конечный сектор
---------------------------------------------------------------------
1 | 0:00.00 | 7:06.15 | 0 | 31964
2 | 7:06.15 | 4:35.17 | 31965 | 52606
3 | 11:41.32 | 4:04.05 | 52607 | 70911
4 | 15:45.37 | 3:20.55 | 70912 | 85966
5 | 19:06.17 | 3:39.03 | 85967 | 102394
6 | 22:45.20 | 3:19.05 | 102395 | 117324
7 | 26:04.25 | 3:17.57 | 117325 | 132156
8 | 29:22.07 | 3:32.08 | 132157 | 148064
9 | 32:54.15 | 4:21.50 | 148065 | 167689
10 | 37:15.65 | 3:59.27 | 167690 | 185641
11 | 41:15.17 | 4:46.10 | 185642 | 207101
12 | 46:01.27 | 4:36.05 | 207102 | 227806
Характеристики диапазона извлечения и сообщения об ошибках
Выбранный диапазон
Имя файла G:\FLACи\Isaac Hayes - Greatest Hit Singles\IsaacHayes - IsaacHayesGreatestHitSingles(DigitalRemaster);StaxSCD-8515-2.wav
Пиковый уровень 81.5 %
Качество диапазона 100.0 %
CRC теста BE1C1049
CRC копии BE1C1049
Копирование... OK
Ошибок не произошло
AccurateRip: сводка
Трек 1 точное извлечение (доверие 3) [9ACAB205]
Трек 2 точное извлечение (доверие 3) [1822DEBC]
Трек 3 точное извлечение (доверие 3) [EEBCA6A8]
Трек 4 точное извлечение (доверие 3) [4F104E53]
Трек 5 точное извлечение (доверие 4) [EE8963BD]
Трек 6 точное извлечение (доверие 4) [4A8EFE15]
Трек 7 точное извлечение (доверие 4) [3C8E3F4F]
Трек 8 точное извлечение (доверие 3) [49C4ECCD]
Трек 9 точное извлечение (доверие 3) [AE4986FD]
Трек 10 точное извлечение (доверие 3) [B7D8A2F1]
Трек 11 точное извлечение (доверие 3) [E8D8397B]
Трек 12 точное извлечение (доверие 4) [DF4C6EA2]
Все треки извлечены точно
Конец отчёта
Доп. информация:
 
Tracks


 
Spectrum


 
Frequency


Собственный Рип
Приватный:
Нет (DHT включён)
Размер:
290.08 Мб (304,173,504 байт) » файлов: 7
Участники:
0 раздают, 0 качают (0 участников всего)
Внешние участники:
--- [ Обновить ]
Нет сидеров - пишите личное сообщение M0p94ok. Не нравятся торренты? Участники группы Pro-jazz Club могут заказать прямую ссылку на скачивание из облака.
No seeders - write a personal message to M0p94ok. Don't like torrents? Members of Pro-jazz Club group can order a direct download link from the cloud.
02:38
19
Нет комментариев. Ваш будет первым!