Поиск

(Psychedelic / Soul / Funk) Shuggie Otis - Inspiration Information {Remastered (2001)} - 1974, FLAC (image+.cue), lossless

Треклист:
Shuggie Otis - Inspiration Information {Remastered (2001)}
Жанр: Psychedelic / Soul / Funk
Год выпуска диска: 1974
Производитель диска: Luaka Bop
Аудио кодек: FLAC
Тип рипа: image+.cue
Битрейт аудио: lossless
Продолжительность: 55:44
Трэклист:
1. Inspiration Information (4:13)
2. Island Letter (4:41)
3. Sparkle City (5:58)
4. Aht Uh Mi Head (4:16)
5. Happy House (1:16)
6. Rainy Day (2:42)
7. Xl30 (2:09)
8. Pling (4:28)
9. Not Available (2:31)
10. Strawberry Letter 23 (3:59)
11. Sweet Thang (4:03)
12. Ice Cold Daydream (2:30)
13. Freedom Flight (12:58)
Источник: аваксхоум (релизер mook45)
Доп. информация:
 
EAC log
Exact Audio Copy V0.99 prebeta 5 from 4. May 2009
EAC extraction logfile from 6. February 2010, 18:21
Shuggie Otis / Inspiration Information
Used drive : HP DVD Writer 1040r Adapter: 1 ID: 0
Read mode : Secure
Utilize accurate stream : Yes
Defeat audio cache : Yes
Make use of C2 pointers : No
Read offset correction : 6
Overread into Lead-In and Lead-Out : No
Fill up missing offset samples with silence : Yes
Delete leading and trailing silent blocks : No
Null samples used in CRC calculations : Yes
Used interface : Native Win32 interface for Win NT & 2000
Used output format : User Defined Encoder
Selected bitrate : 1024 kBit/s
Quality : High
Add ID3 tag : No
Command line compressor : C:\Program Files\Exact Audio Copy\FLAC\FLAC.EXE
Additional command line options : -5 -V -T "ARTIST=%a" -T "TITLE=%t" -T "ALBUM=%g" -T "DATE=%y" -T "TRACKNUMBER=%n" -T "GENRE=%m" -T "COMMENT=EAC Flac 1.1.2 -5" %s
TOC of the extracted CD
Track | Start | Length | Start sector | End sector
---------------------------------------------------------
1 | 0:00.05 | 4:13.10 | 5 | 18989
2 | 4:13.15 | 4:41.20 | 18990 | 40084
3 | 8:54.35 | 5:57.65 | 40085 | 66924
4 | 14:52.25 | 4:15.72 | 66925 | 86121
5 | 19:08.22 | 1:16.30 | 86122 | 91851
6 | 20:24.52 | 2:42.23 | 91852 | 104024
7 | 23:07.00 | 2:08.42 | 104025 | 113666
8 | 25:15.42 | 4:28.30 | 113667 | 133796
9 | 29:43.72 | 2:30.68 | 133797 | 145114
10 | 32:14.65 | 3:58.57 | 145115 | 163021
11 | 36:13.47 | 4:02.48 | 163022 | 181219
12 | 40:16.20 | 2:30.05 | 181220 | 192474
13 | 42:46.25 | 12:57.69 | 192475 | 250818
Range status and errors
Selected range
Filename C:\Users\Mike3\Desktop\Shuggie Otis - Inspiration Information (Flac)\Shuggie Otis - Inspiration Information.wav
Peak level 99.8 %
Range quality 100.0 %
Copy CRC 99166C9B
Copy OK
No errors occurred
AccurateRip summary
Track 1 accurately ripped (confidence 6) [E6B913F2]
Track 2 accurately ripped (confidence 7) [29E83E2E]
Track 3 accurately ripped (confidence 7) [B5660F25]
Track 4 accurately ripped (confidence 7) [54E8D2D0]
Track 5 accurately ripped (confidence 7) [118A76CC]
Track 6 accurately ripped (confidence 7) [2CA84307]
Track 7 accurately ripped (confidence 7) [60289710]
Track 8 accurately ripped (confidence 7) [8EEAD650]
Track 9 accurately ripped (confidence 7) [B3F6EDD4]
Track 10 accurately ripped (confidence 7) [C0F545DA]
Track 11 accurately ripped (confidence 7) [D17313AB]
Track 12 accurately ripped (confidence 7) [433BC4BD]
Track 13 accurately ripped (confidence 7) [A7F725A4]
All tracks accurately ripped
End of status report
 
auCDtect log
-----------------------
DON'T MODIFY THIS FILE
-----------------------
PERFORMER: auCDtect Task Manager, ver. 1.0.3 B1 build 1.0.3.0
Copyright (c) 2008, 2009 y-soft. All rights reserved
http://y-soft.110mb.com
ANALYZER: auCDtect: CD records authenticity detector, version 0.8.2
Copyright (c) 2004 Oleg Berngardt. All rights reserved.
Copyright (c) 2004 Alexander Djourik. All rights reserved.
FILE: Shuggie Otis - Inspiration Information.flac
Size: 351352045 Hash: DC7069FA291DC196ECEE539CDB51123B Accuracy: -m0
Conclusion: CDDA 99%
Signature: 012AD3ACE6386A6D895D9B12C7626044BF6DC777
 
CUE
REM GENRE R&B
REM DATE 1974
REM DISCID C10D100D
REM COMMENT "ExactAudioCopy v0.99pb5"
PERFORMER "Shuggie Otis"
TITLE "Inspiration Information"
FILE "Shuggie Otis - Inspiration Information.flac" WAVE
TRACK 01 AUDIO
TITLE "Inspiration Information"
PERFORMER "Shuggie Otis"
INDEX 00 00:00:00
INDEX 01 00:00:05
TRACK 02 AUDIO
TITLE "Island Letter"
PERFORMER "Shuggie Otis"
INDEX 01 04:13:15
TRACK 03 AUDIO
TITLE "Sparkle City"
PERFORMER "Shuggie Otis"
INDEX 01 08:54:35
TRACK 04 AUDIO
TITLE "Aht Uh Mi Hed"
PERFORMER "Shuggie Otis"
INDEX 01 14:52:25
TRACK 05 AUDIO
TITLE "Happy House"
PERFORMER "Shuggie Otis"
INDEX 01 19:08:22
TRACK 06 AUDIO
TITLE "Rainy Day"
PERFORMER "Shuggie Otis"
INDEX 01 20:24:52
TRACK 07 AUDIO
TITLE "XL-30"
PERFORMER "Shuggie Otis"
INDEX 01 23:07:00
TRACK 08 AUDIO
TITLE "Pling!"
PERFORMER "Shuggie Otis"
INDEX 01 25:15:42
TRACK 09 AUDIO
TITLE "Not Available"
PERFORMER "Shuggie Otis"
INDEX 01 29:43:72
TRACK 10 AUDIO
TITLE "Strawberry Letter 23"
PERFORMER "Shuggie Otis"
INDEX 01 32:14:65
TRACK 11 AUDIO
TITLE "Sweet Thang"
PERFORMER "Shuggie Otis"
INDEX 01 36:13:47
TRACK 12 AUDIO
TITLE "Ice Cold Daydream"
PERFORMER "Shuggie Otis"
INDEX 01 40:16:20
TRACK 13 AUDIO
TITLE "Freedom Flight"
PERFORMER "Shuggie Otis"
INDEX 01 42:46:25
В комплекте сканы (400 dpi) + буклет
Shuggie Otis - Inspiration Information {Remastered (2001)} - 1974 (MP3-320):
http://rutracker.org/forum/viewtopic.php?t=2769981
Приватный:
Нет (DHT включён)
Размер:
370.95 Мб (388,971,767 байт) » файлов: 10
Участники:
0 раздают, 0 качают (0 участников всего)
Внешние участники:
--- [ Обновить ]
Нет сидеров - пишите личное сообщение M0p94ok. Не нравятся торренты? Участники группы Pro-jazz Club могут заказать прямую ссылку на скачивание из облака.
No seeders - write a personal message to M0p94ok. Don't like torrents? Members of Pro-jazz Club group can order a direct download link from the cloud.
02:38
18
Нет комментариев. Ваш будет первым!