Поиск

(Folk,Gospel) Fred Hammond - Somethin' 'Bout Love - 2004, FLAC (image+.cue), lossless

(Folk,Gospel) Fred Hammond - Somethin' 'Bout Love - 2004, FLAC (image+.cue), lossless
Треклист:
Fred Hammond - Somethin' 'Bout Love
Жанр: Folk,Gospel
Год выпуска диска: 2004
Аудио кодек: FLAC
Тип рипа: image+.cue
Битрейт аудио: lossless
Продолжительность: 1:14:10
Трэклист:
01. I Know It Was The Blood (Introlude) (0:22)
02. Celebrate (He Lives) (4:05)
03. Not Just What You Say (4:20)
04. Praise Belongs To You (4:44)
05. Lord We Need Your Love (feat. Marvin Winans Sr. and Brian McKnight) (4:43)
06. God Is A Good God (Interlude) (0:29)
07. Loved On Me (4:19)
08. A Closer Walk (4:14)
09. I Will Find A Way (4:43)
10. Love's In Need (feat. Musiq) (4:44)
11. Your Love Is (5:39)
12. I'm A Soldier In The Army Of The Lord (Interlude) (0:27)
13. That's Why (4:12)
14. It Just Gets Sweeter (4:11)
15. What Can I Give (4:16)
16. Your Love Is A Wonder (5:05)
17. How Do You Love That Way (4:42)
18. Make Time For Love (4:55)
19. Your Name Is Jesus (4:00)
 
Log EAC
Exact Audio Copy V0.99 prebeta 4 from 23. January 2008
Отчёт EAC об извлечении, выполненном 20. февраля 2010, 9:02
Fred Hammond / Somethin' 'Bout Love
Дисковод: HL-DT-STDVDRAM GSA-H42L Adapter: 1 ID: 0
Режим чтения : Достоверность
Использование точного потока : Да
Отключение кэша аудио : Да
Использование указателей C2 : Нет
Коррекция смещения при чтении : 667
Способность читать области Lead-in и Lead-out : Нет
Заполнение пропущенных сэмплов тишиной : Да
Удаление блоков с тишиной в начале и конце : Нет
При вычислениях CRC использовались нулевые сэмплы : Да
Интерфейс : Установленный внешний ASPI-интерфейс
Выходной формат : Пользовательский кодировщик
Выбранный битрейт : 896 kBit/s
Качество : Высокий
Добавление ID3-тэга : Нет
Утилита сжатия : C:\Program Files\Exact Audio Copy\FLAC\FLAC.EXE
Дополнительные параметры : -8 -V -T "ARTIST=%a" -T "TITLE=%t" -T "ALBUM=%g" -T "DATE=%y" -T "TRACKNUMBER=%n" -T "GENRE=%m" -T "COMMENT=%e" %s -o %d
TOC извлечённого CD
Трек | Старт | Длительность | Начальный сектор | Конечный сектор
---------------------------------------------------------------------
1 | 0:00.00 | 0:21.38 | 0 | 1612
2 | 0:21.38 | 4:05.10 | 1613 | 19997
3 | 4:26.48 | 4:20.24 | 19998 | 39521
4 | 8:46.72 | 4:43.58 | 39522 | 60804
5 | 13:30.55 | 4:43.12 | 60805 | 82041
6 | 18:13.67 | 0:28.70 | 82042 | 84211
7 | 18:42.62 | 4:18.54 | 84212 | 103615
8 | 23:01.41 | 4:13.71 | 103616 | 122661
9 | 27:15.37 | 4:42.71 | 122662 | 143882
10 | 31:58.33 | 4:43.47 | 143883 | 165154
11 | 36:42.05 | 5:39.36 | 165155 | 190615
12 | 42:21.41 | 0:27.37 | 190616 | 192677
13 | 42:49.03 | 4:11.67 | 192678 | 211569
14 | 47:00.70 | 4:11.00 | 211570 | 230394
15 | 51:11.70 | 4:16.28 | 230395 | 249622
16 | 55:28.23 | 5:04.58 | 249623 | 272480
17 | 60:33.06 | 4:42.22 | 272481 | 293652
18 | 65:15.28 | 4:54.61 | 293653 | 315763
19 | 70:10.14 | 4:00.16 | 315764 | 333779
Характеристики диапазона извлечения и сообщения об ошибках
Выбранный диапазон
Имя файла C:\Documents and Settings\Юрий\Мои документы\Моя музыка\My audio\Fred Hammond - Somethin' 'Bout Love.wav
Пиковый уровень 100.0 %
Качество диапазона 100.0 %
CRC копии 99892F4B
Копирование... OK
Ошибок не произошло
Конец отчёта
 
Log Audiochecker
AUDIOCHECKER v2.0 beta (build 457) - by Dester - opdester@freemail.hu
~~~~~~~~~~~~~~~~~~~~~~~~~~~~~~~~~~
Начато: суббота, 20. 02. 2010. - 9:54.16
Найдено файлов: 19
01 -===- трек 1 в приводе HL-DT-STDVDRAM GSA-H42L
Трек успешно извлечён
Заключение: этот трек - CDDA с вероятностью 100%
Временный файл удалён.
02 -===- трек 2 в приводе HL-DT-STDVDRAM GSA-H42L
Трек успешно извлечён
Заключение: этот трек - CDDA с вероятностью 100%
Временный файл удалён.
03 -===- трек 3 в приводе HL-DT-STDVDRAM GSA-H42L
Трек успешно извлечён
Заключение: этот трек - CDDA с вероятностью 100%
Временный файл удалён.
04 -===- трек 4 в приводе HL-DT-STDVDRAM GSA-H42L
Трек успешно извлечён
Заключение: этот трек - CDDA с вероятностью 100%
Временный файл удалён.
05 -===- трек 5 в приводе HL-DT-STDVDRAM GSA-H42L
Трек успешно извлечён
Заключение: этот трек - CDDA с вероятностью 100%
Временный файл удалён.
06 -===- трек 6 в приводе HL-DT-STDVDRAM GSA-H42L
Трек успешно извлечён
Заключение: этот трек - CDDA с вероятностью 100%
Временный файл удалён.
07 -===- трек 7 в приводе HL-DT-STDVDRAM GSA-H42L
Трек успешно извлечён
Заключение: этот трек - CDDA с вероятностью 100%
Временный файл удалён.
08 -===- трек 8 в приводе HL-DT-STDVDRAM GSA-H42L
Трек успешно извлечён
Заключение: этот трек - CDDA с вероятностью 100%
Временный файл удалён.
09 -===- трек 9 в приводе HL-DT-STDVDRAM GSA-H42L
Трек успешно извлечён
Заключение: этот трек - CDDA с вероятностью 100%
Временный файл удалён.
10 -===- трек 10 в приводе HL-DT-STDVDRAM GSA-H42L
Трек успешно извлечён
Заключение: этот трек - CDDA с вероятностью 100%
Временный файл удалён.
11 -===- трек 11 в приводе HL-DT-STDVDRAM GSA-H42L
Трек успешно извлечён
Заключение: этот трек - CDDA с вероятностью 99%
Временный файл удалён.
12 -===- трек 12 в приводе HL-DT-STDVDRAM GSA-H42L
Трек успешно извлечён
Заключение: этот трек - CDDA с вероятностью 100%
Временный файл удалён.
13 -===- трек 13 в приводе HL-DT-STDVDRAM GSA-H42L
Трек успешно извлечён
Заключение: этот трек - CDDA с вероятностью 100%
Временный файл удалён.
14 -===- трек 14 в приводе HL-DT-STDVDRAM GSA-H42L
Трек успешно извлечён
Заключение: этот трек - CDDA с вероятностью 100%
Временный файл удалён.
15 -===- трек 15 в приводе HL-DT-STDVDRAM GSA-H42L
Трек успешно извлечён
Заключение: этот трек - CDDA с вероятностью 100%
Временный файл удалён.
16 -===- трек 16 в приводе HL-DT-STDVDRAM GSA-H42L
Трек успешно извлечён
Заключение: этот трек - MPEG с вероятностью 95%
Временный файл удалён.
17 -===- трек 17 в приводе HL-DT-STDVDRAM GSA-H42L
Трек успешно извлечён
Заключение: этот трек - CDDA с вероятностью 100%
Временный файл удалён.
18 -===- трек 18 в приводе HL-DT-STDVDRAM GSA-H42L
Трек успешно извлечён
Заключение: этот трек - CDDA с вероятностью 100%
Временный файл удалён.
19 -===- трек 19 в приводе HL-DT-STDVDRAM GSA-H42L
Трек успешно извлечён
Заключение: этот трек - CDDA с вероятностью 100%
Временный файл удалён.
Завершено: суббота, 20. 02. 2010. - 10:18.50 (Время операции: 0:24.33)
Приватный:
Нет (DHT включён)
Размер:
489.15 Мб (512,914,331 байт) » файлов: 3
Участники:
0 раздают, 0 качают (0 участников всего)
Внешние участники:
1 раздают, 0 качают (1 участников всего) [ Обновить ]
Никого нет на раздаче - пишите личное сообщение M0p94ok
No seeders - write personal message to M0p94ok
02:37
15
Нет комментариев. Ваш будет первым!