Поиск

(R'n'B) S.O.S. Band - The Hit Mixes 1980-1987 - 1987, FLAC (tracks+.cue), lossless

(R'n'B) S.O.S. Band - The Hit Mixes 1980-1987 - 1987, FLAC (tracks+.cue), lossless
Треклист:
S.O.S. Band - The Hit Mixes 1980-1987
Жанр: R'n'B
Год выпуска диска: 1987
Аудио кодек: FLAC
Тип рипа: tracks+.cue
Битрейт аудио: lossless
Продолжительность: 0:50:51
Label:Tabu
Catalog#:460189 2
Трэклист:
1.Just Be Good To Me (Vocal Remix) 07:39
2.Borrowed Love (Extended Version) 09:22
3.Just The Way You Like It (Long Version) 09:18
4.The Finest (Extended Version) 06:16
5.No Lies (Special Version) 05:42
6.No Lies (Dub Mix) 04:45
7.Take Your Time (Do It Right) 07:46
Источник рипа: Найдено в сети. Released by cdonp.
 
Лог Audiockecker. Некоторые трэки опознанны как MPEG
AUDIOCHECKER v2.0 beta (build 457) - by Dester - opdester@freemail.hu
~~~~~~~~~~~~~~~~~~~~~~~~~~~~~~~~~~
-=== DO NOT EDIT THIS FILE! ===-
Path: ...\S.O.S. Band - The Hit Mixes 1980-1987
1 -=- 01. S.O.S. Band - Just Be Good To Me (Vocal Remix).flac -=- CDDA (100%)
2 -=- 02. S.O.S. Band - Borrowed Love (Extended Version).flac -=- CDDA (100%)
3 -=- 03. S.O.S. Band - Just The Way You Like It (Long Version).flac -=- MPEG (95%)
4 -=- 04. S.O.S. Band - The Finest (Extended Version).flac -=- CDDA (100%)
5 -=- 05. S.O.S. Band - No Lies (Special Version).flac -=- CDDA (100%)
6 -=- 06. S.O.S. Band - No Lies (Dub Mix).flac -=- CDDA (100%)
7 -=- 07. S.O.S. Band - Take Your Time (Do It Right).flac -=- MPEG (95%)
Summary 72,86% CDDA
221453444
 
CUE Sheet
REM GENRE Disco
REM DATE 1987
REM DISCID 570BEB07
REM COMMENT "ExactAudioCopy v0.99pb4"
PERFORMER "S.O.S. Band"
TITLE "The Hit Mixes (1980-1987)"
FILE "01. S.O.S. Band - Just Be Good To Me (Vocal Remix).wav" WAVE
TRACK 01 AUDIO
TITLE "Just Be Good To Me (Vocal Remix)"
PERFORMER "S.O.S. Band"
INDEX 01 00:00:00
FILE "02. S.O.S. Band - Borrowed Love (Extended Version).wav" WAVE
TRACK 02 AUDIO
TITLE "Borrowed Love (Extended Version)"
PERFORMER "S.O.S. Band"
INDEX 01 00:00:00
FILE "03. S.O.S. Band - Just The Way You Like It (Long Version).wav" WAVE
TRACK 03 AUDIO
TITLE "Just The Way You Like It (Long Version)"
PERFORMER "S.O.S. Band"
INDEX 01 00:00:00
FILE "04. S.O.S. Band - The Finest (Extended Version).wav" WAVE
TRACK 04 AUDIO
TITLE "The Finest (Extended Version)"
PERFORMER "S.O.S. Band"
INDEX 01 00:00:00
FILE "05. S.O.S. Band - No Lies (Special Version).wav" WAVE
TRACK 05 AUDIO
TITLE "No Lies (Special Version)"
PERFORMER "S.O.S. Band"
INDEX 01 00:00:00
FILE "06. S.O.S. Band - No Lies (Dub Mix).wav" WAVE
TRACK 06 AUDIO
TITLE "No Lies (Dub Mix)"
PERFORMER "S.O.S. Band"
INDEX 01 00:00:00
FILE "07. S.O.S. Band - Take Your Time (Do It Right).wav" WAVE
TRACK 07 AUDIO
TITLE "Take Your Time (Do It Right)"
PERFORMER "S.O.S. Band"
INDEX 01 00:00:00
 
Отчёт EAC
Exact Audio Copy V0.99 prebeta 4 from 23. January 2008
EAC extraction logfile from 20. June 2008, 19:53
S.O.S. Band / The Hit Mixes (1980-1987)
Used drive : PIONEER DVD-RW DVR-112D Adapter: 1 ID: 0
Read mode : Secure
Utilize accurate stream : Yes
Defeat audio cache : Yes
Make use of C2 pointers : No
Read offset correction : 48
Overread into Lead-In and Lead-Out : No
Fill up missing offset samples with silence : Yes
Delete leading and trailing silent blocks : No
Null samples used in CRC calculations : Yes
Used interface : Installed external ASPI interface
Gap handling : Appended to previous track
Used output format : User Defined Encoder
Selected bitrate : 192 kBit/s
Quality : High
Add ID3 tag : No
Command line compressor : D:\Program Files\Exact Audio Copy\flac-1.1.4-win\bin\flac.exe
Additional command line options : -8 -A tukey(0.25) -A gauss(0.1875) -b 4096 -V -T "artist=%a" -T "title=%t" -T "album=%g" -T "date=%y" -T "tracknumber=%n" -T "genre=%m" %s --sector-align
TOC of the extracted CD
Track | Start | Length | Start sector | End sector
---------------------------------------------------------
1 | 0:00.00 | 7:39.10 | 0 | 34434
2 | 7:39.10 | 9:22.45 | 34435 | 76629
3 | 17:01.55 | 9:18.45 | 76630 | 118524
4 | 26:20.25 | 6:16.72 | 118525 | 146796
5 | 32:37.22 | 5:42.50 | 146797 | 172496
6 | 38:19.72 | 4:45.28 | 172497 | 193899
7 | 43:05.25 | 7:46.30 | 193900 | 228879
Track 1
Filename E:\EAC\S.O.S. Band - 1980-1987 The Hit Mixes - CD - 1987\01. S.O.S. Band - Just Be Good To Me (Vocal Remix).wav
Pre-gap length 0:00:02.00
Peak level 95.3 %
Track quality 100.0 %
Test CRC BDE4BE90
Copy CRC BDE4BE90
Copy OK
Track 2
Filename E:\EAC\S.O.S. Band - 1980-1987 The Hit Mixes - CD - 1987\02. S.O.S. Band - Borrowed Love (Extended Version).wav
Peak level 92.8 %
Track quality 100.0 %
Test CRC C9E272C8
Copy CRC C9E272C8
Copy OK
Track 3
Filename E:\EAC\S.O.S. Band - 1980-1987 The Hit Mixes - CD - 1987\03. S.O.S. Band - Just The Way You Like It (Long Version).wav
Peak level 88.0 %
Track quality 100.0 %
Test CRC FFC722F7
Copy CRC FFC722F7
Copy OK
Track 4
Filename E:\EAC\S.O.S. Band - 1980-1987 The Hit Mixes - CD - 1987\04. S.O.S. Band - The Finest (Extended Version).wav
Peak level 92.8 %
Track quality 100.0 %
Test CRC 0A0BBCA7
Copy CRC 0A0BBCA7
Copy OK
Track 5
Filename E:\EAC\S.O.S. Band - 1980-1987 The Hit Mixes - CD - 1987\05. S.O.S. Band - No Lies (Special Version).wav
Peak level 86.5 %
Track quality 99.9 %
Test CRC D14BC1E5
Copy CRC D14BC1E5
Copy OK
Track 6
Filename E:\EAC\S.O.S. Band - 1980-1987 The Hit Mixes - CD - 1987\06. S.O.S. Band - No Lies (Dub Mix).wav
Peak level 89.1 %
Track quality 100.0 %
Test CRC 5AEEC042
Copy CRC 5AEEC042
Copy OK
Track 7
Filename E:\EAC\S.O.S. Band - 1980-1987 The Hit Mixes - CD - 1987\07. S.O.S. Band - Take Your Time (Do It Right).wav
Peak level 91.0 %
Track quality 100.0 %
Test CRC 1AEB6436
Copy CRC 1AEB6436
Copy OK
No errors occurred
End of status report
Приватный:
Нет (DHT включён)
Размер:
319.62 Мб (335,149,009 байт) » файлов: 13
Участники:
0 раздают, 0 качают (0 участников всего)
Внешние участники:
--- [ Обновить ]
Никого нет на раздаче - пишите личное сообщение M0p94ok
No seeders - write personal message to M0p94ok
02:36
17
Нет комментариев. Ваш будет первым!