Поиск

(Funk / Soul) Quincy Jones 1971 Smackwater Jack (remastered 2009), FLAC (tracks+.cue), lossless

(Funk / Soul) Quincy Jones 1971 Smackwater Jack (remastered 2009), FLAC (tracks+.cue), lossless
Треклист:
Quincy Jones - Smackwater Jack (remastered 2009)
Жанр: Funk / Soul
Год выпуска диска: 1971
Производитель диска: EU (Verve Music Group: 0602527068909)
Аудио кодек: FLAC
Тип рипа: tracks+.cue
Битрейт аудио: lossless
Продолжительность: 42:00
Трэклист:
1 Smackwater Jack 3:32
2 Cast Your Fate To The Wind 4:26
3 Ironside (Theme From "Ironside"; NBC-TV) 3:54
4 What's Going On? 9:52
5 Theme From "The Anderson Tapes" 5:17
6 Brown Ballad 4:21
7 Hikky-Burr (Theme From "The Bill Cosby Show"; NBC-TV) 4:03
8 Guitar Blues Odyssey: From Roots To Fruits 6:36
Band:
Bass [Fender] - Carol Kaye , Chuck Rainey
Bass [String] - Bob Cranshaw , Ray Brown
Drums - Grady Tate , Paul Humphries*
Flugelhorn - Freddie Hubbard , Marvin Stamm
Flute, Saxophone [Tenor] - Hubert Laws
Guitar - Arthur Adams , Eric Gale , Freddie Robinson , Jim Hall , Joe Beck
Guitar, Harmonica, Whistle - Toots Thielemans
Organ - Jimmy Smith
Percussion - George Devens , Larry Bunker
Piano - Bobby Scott
Piano [Fender Rhodes] - Bob James , Jaki Byard , Joe Sample
Piano [Tack] - Monty Alexander
Piano, Harpsichord [Electric] - Dick Hyman
Producer - Phil Ramone , Quincy Jones , Ray Brown
Saxophone [Soprano, Tenor] - Jerome Richardson
Saxophone [Tenor] - Pete Christlieb
Synthesizer [Moog] - Paul Beaver
Synthesizer [Moog] - Edd Kalehoff (5)
Trombone [Bass] - Alan Raph , Dick Hixon, Tony Studd
Trombone [Tenor] - Garnett Brown , Wayne Andre
Trumpet - Buddy Childers , Ernie Royal , Eugene Young , Joe Newman
Vibraphone - Milt Jackson (4,5)
Violin - Harry Lookofsky (4)
Vocals - Quincy Jones (1,4), Bill Cosby (7), Valerie Simpson (4)
Доп. информация:
Рип с моего диска, HQ-сканы прилагаются.
 
Амплитуда
 
EAC Log
Код:
Exact Audio Copy V0.99 prebeta 5 from 4. May 2009
EAC extraction logfile from 29. October 2009, 19:53
Quincy Jones / Smackwater Jack
Used drive  : ASUS    DRW-1814BL   Adapter: 0  ID: 0
Read mode               : Secure
Utilize accurate stream : Yes
Defeat audio cache      : Yes
Make use of C2 pointers : No
Read offset correction                      : 6
Overread into Lead-In and Lead-Out          : No
Fill up missing offset samples with silence : Yes
Delete leading and trailing silent blocks   : No
Null samples used in CRC calculations       : Yes
Used interface                              : Installed external ASPI interface
Gap handling                                : Appended to previous track
Used output format : Internal WAV Routines
Sample format      : 44.100 Hz; 16 Bit; Stereo
TOC of the extracted CD
     Track |   Start  |  Length  | Start sector | End sector
    ---------------------------------------------------------
        1  |  0:00.00 |  3:31.36 |         0    |    15860
        2  |  3:31.36 |  4:26.13 |     15861    |    35823
        3  |  7:57.49 |  3:53.74 |     35824    |    53372
        4  | 11:51.48 |  9:51.73 |     53373    |    97770
        5  | 21:43.46 |  5:16.63 |     97771    |   121533
        6  | 27:00.34 |  4:20.67 |    121534    |   141100
        7  | 31:21.26 |  4:02.42 |    141101    |   159292
        8  | 35:23.68 |  6:35.46 |    159293    |   188963
Track  1
     Filename L:\flac\Quincy Jones 1971 Smackwater Jack (remastered 2009)\01 - Smackwater Jack.wav
     Pre-gap length  0:00:02.00
     Peak level 100.0 %
     Track quality 100.0 %
     Test CRC 3D814D3F
     Copy CRC 3D814D3F
     Track not present in AccurateRip database
     Copy OK
Track  2
     Filename L:\flac\Quincy Jones 1971 Smackwater Jack (remastered 2009)\02 - Cast Your Fate To The Wind.wav
     Peak level 100.0 %
     Track quality 100.0 %
     Test CRC 7EF4C262
     Copy CRC 7EF4C262
     Track not present in AccurateRip database
     Copy OK
Track  3
     Filename L:\flac\Quincy Jones 1971 Smackwater Jack (remastered 2009)\03 - Ironside.wav
     Peak level 100.0 %
     Track quality 100.0 %
     Test CRC 46E3F060
     Copy CRC 46E3F060
     Track not present in AccurateRip database
     Copy OK
Track  4
     Filename L:\flac\Quincy Jones 1971 Smackwater Jack (remastered 2009)\04 - What's Going On.wav
     Peak level 100.0 %
     Track quality 100.0 %
     Test CRC 2B0DD255
     Copy CRC 2B0DD255
     Track not present in AccurateRip database
     Copy OK
Track  5
     Filename L:\flac\Quincy Jones 1971 Smackwater Jack (remastered 2009)\05 - Theme From (The Anderson Tapes).wav
     Peak level 100.0 %
     Track quality 100.0 %
     Test CRC 873EDB62
     Copy CRC 873EDB62
     Track not present in AccurateRip database
     Copy OK
Track  6
     Filename L:\flac\Quincy Jones 1971 Smackwater Jack (remastered 2009)\06 - Brown Ballad.wav
     Peak level 96.9 %
     Track quality 100.0 %
     Test CRC F0D061DD
     Copy CRC F0D061DD
     Track not present in AccurateRip database
     Copy OK
Track  7
     Filename L:\flac\Quincy Jones 1971 Smackwater Jack (remastered 2009)\07 - Hikky-Burr.wav
     Peak level 100.0 %
     Track quality 100.0 %
     Test CRC C7B04FD6
     Copy CRC C7B04FD6
     Track not present in AccurateRip database
     Copy OK
Track  8
     Filename L:\flac\Quincy Jones 1971 Smackwater Jack (remastered 2009)\08 - Guitar Blues Odyssey (From Roots To Fruits).wav
     Peak level 100.0 %
     Track quality 100.0 %
     Test CRC 6350F1F4
     Copy CRC 6350F1F4
     Track not present in AccurateRip database
     Copy OK
None of the tracks are present in the AccurateRip database
No errors occurred
End of status report
 
CUE
Код:
REM GENRE Jazz
REM DATE 1971
REM DISCID 5909D708
REM COMMENT "ExactAudioCopy v0.99pb5"
CATALOG 0602527068909
PERFORMER "Quincy Jones"
TITLE "Smackwater Jack"
FILE "01 - Smackwater Jack.wav" WAVE
  TRACK 01 AUDIO
    TITLE "Smackwater Jack"
    PERFORMER "Quincy Jones"
    ISRC USAM17100032
    INDEX 01 00:00:00
FILE "02 - Cast Your Fate To The Wind.wav" WAVE
  TRACK 02 AUDIO
    TITLE "Cast Your Fate To The Wind"
    PERFORMER "Quincy Jones"
    ISRC USAM17100033
    INDEX 01 00:00:00
FILE "03 - Ironside.wav" WAVE
  TRACK 03 AUDIO
    TITLE "Ironside"
    PERFORMER "Quincy Jones"
    ISRC USAM17100034
    INDEX 01 00:00:00
FILE "04 - What's Going On.wav" WAVE
  TRACK 04 AUDIO
    TITLE "What's Going On"
    PERFORMER "Quincy Jones"
    ISRC USAM17100035
    INDEX 01 00:00:00
FILE "05 - Theme From (The Anderson Tapes).wav" WAVE
  TRACK 05 AUDIO
    TITLE "Theme From (The Anderson Tapes)"
    PERFORMER "Quincy Jones"
    ISRC USAM17100036
    INDEX 01 00:00:00
FILE "06 - Brown Ballad.wav" WAVE
  TRACK 06 AUDIO
    TITLE "Brown Ballad"
    PERFORMER "Quincy Jones"
    ISRC USAM17100037
    INDEX 01 00:00:00
FILE "07 - Hikky-Burr.wav" WAVE
  TRACK 07 AUDIO
    TITLE "Hikky-Burr"
    PERFORMER "Quincy Jones"
    ISRC USAM17100011
    INDEX 01 00:00:00
FILE "08 - Guitar Blues Odyssey (From Roots To Fruits).wav" WAVE
  TRACK 08 AUDIO
    TITLE "Guitar Blues Odyssey (From Roots To Fruits)"
    PERFORMER "Quincy Jones"
    ISRC USAM17100038
    INDEX 01 00:00:00
 
AccurateRip Log
Код:
[Verification date: 20.02.2010 15:21:00]
[Disc ID: 000c6a99-00546f21-5909d708]
Track [ CRC    ] Status
01 [1ee2a1c8] (02/02) Accurately ripped as in pressing(s) #1
02 [cacd12b7] (02/02) Accurately ripped as in pressing(s) #1
03 [83582314] (02/02) Accurately ripped as in pressing(s) #1
04 [0da65643] (02/02) Accurately ripped as in pressing(s) #1
05 [7c73b3d8] (02/02) Accurately ripped as in pressing(s) #1
06 [3260a820] (02/02) Accurately ripped as in pressing(s) #1
07 [e2a8f927] (02/02) Accurately ripped as in pressing(s) #1
08 [ce7c83d1] (02/02) Accurately ripped as in pressing(s) #1
Track [ CRC32  ] [W/O NULL]
-- [843CC1BA] [5DA89273]
01 [3D814D3F] [E3F779DD]
02 [7EF4C262] [35833B05]
03 [46E3F060] [99D28F82]
04 [2B0DD255] [F29EA1C1]
05 [873EDB62] [5E1FE919]
06 [F0D061DD] [46FF82E6]
07 [C7B04FD6] [CCEAE55A]
08 [6350F1F4] [58358AC8]
Приватный:
Нет (DHT включён)
Размер:
320.00 Мб (335,539,244 байт) » файлов: 23
Участники:
0 раздают, 0 качают (0 участников всего)
Внешние участники:
3 раздают, 1 качают (4 участников всего) [ Обновить ]
Никого нет на раздаче - пишите личное сообщение M0p94ok
No seeders - write personal message to M0p94ok
02:39
20
Нет комментариев. Ваш будет первым!