Поиск

(Soul, Funk Groove, Jazz) [CD] Delvon Lamarr Organ Trio - Close But No Cigar - 2018 [Colemine Records], FLAC (tracks+.cue), lossless

(Soul, Funk Groove, Jazz) [CD] Delvon Lamarr Organ Trio - Close But No Cigar - 2018 [Colemine Records], FLAC (tracks+.cue), lossless
Треклист:
DELVON LAMARR
ORGAN TRIO
' ' ' ' ' ' ' ' ' ' ' ' ' ' ' ' ' ' ' ' ' ' ' ' ' ' ' ' ' ' ' ' ' 'CLOSE BUT NO CIGAR
'
Жанр: Soul, Funk Groove, Jazz
Страна-производитель диска: USA
Год издания: 2018
Издатель (лейбл): Colemine Records
Номер по каталогу: CLMN-12019
Аудиокодек: FLAC (*.flac)
Тип рипа: tracks+.cue
Битрейт аудио: lossless
Продолжительность: 40:55
Источник (релизер): спасибо jmb4022
Наличие сканов: да
Треклист:
01. Concussion
02. Little Booker T
03. Ain't It Funky Now
04. Close but No Cigar
05. Memphis
06. Al Greenery
07. Can I Change My Mind
08. Between the Mayo and the Mustard
09. Raymond Brings the Greens
10. Walk on By
 
Лог создания рипа
Exact Audio Copy V1.3 from 2. September 2016
EAC extraction logfile from 5. March 2018, 20:28
Delvon Lamarr Organ Trio / Close But No Cigar
Used drive : PIONEER DVR-113NP Adapter: 1 ID: 1
Read mode : Secure
Utilize accurate stream : Yes
Defeat audio cache : Yes
Make use of C2 pointers : No
Read offset correction : 6
Overread into Lead-In and Lead-Out : No
Fill up missing offset samples with silence : Yes
Delete leading and trailing silent blocks : No
Null samples used in CRC calculations : Yes
Used interface : Native Win32 interface for Win NT & 2000
Gap handling : Appended to previous track
Used output format : User Defined Encoder
Selected bitrate : 1024 kBit/s
Quality : High
Add ID3 tag : No
Command line compressor : C:\Program Files (x86)\Exact Audio Copy\Flac\flac.exe
Additional command line options : -8 -e -V -T "Artist=%artist%" -T "Title=%title%" -T "Album=%albumtitle%" -T "Date=%year%" -T "TRACKNUMBER=%tracknr%" -T "Genre=%genre%" -T "PERFORMER=%albuminterpret%" -T "COMPOSER=%composer%" %haslyrics%--tag-from-file=LYRICS="%lyricsfile%"%haslyrics% -T "ALBUMARTIST=%albumartist%" -T "DISCNUMBER=%cdnumber%" -T "DISCTOTAL=%totalcds%" -T "TRACKTOTAL=%numtracks%" -T "COMMENT=%comment%" %source% -o %dest%
TOC of the extracted CD
Track | Start | Length | Start sector | End sector
---------------------------------------------------------
1 | 0:00.00 | 4:50.17 | 0 | 21766
2 | 4:50.17 | 4:18.56 | 21767 | 41172
3 | 9:08.73 | 4:11.13 | 41173 | 60010
4 | 13:20.11 | 3:30.18 | 60011 | 75778
5 | 16:50.29 | 4:34.65 | 75779 | 96393
6 | 21:25.19 | 3:21.00 | 96394 | 111468
7 | 24:46.19 | 4:10.60 | 111469 | 130278
8 | 28:57.04 | 4:12.44 | 130279 | 149222
9 | 33:09.48 | 3:24.69 | 149223 | 164591
10 | 36:34.42 | 4:20.35 | 164592 | 184126
Track 1
Filename D:\Media\Audio\Rips\Delvon Lamarr Organ Trio - Close But No Cigar (2018) [FLAC] {CLMN 12019}\01 - Concussion.wav
Pre-gap length 0:00:02.00
Peak level 95.8 %
Extraction speed 4.2 X
Track quality 100.0 %
Test CRC A0F150B7
Copy CRC A0F150B7
Track not present in AccurateRip database
Copy OK
Track 2
Filename D:\Media\Audio\Rips\Delvon Lamarr Organ Trio - Close But No Cigar (2018) [FLAC] {CLMN 12019}\02 - Little Booker T.wav
Peak level 95.7 %
Extraction speed 4.6 X
Track quality 100.0 %
Test CRC 02ABD5EA
Copy CRC 02ABD5EA
Track not present in AccurateRip database
Copy OK
Track 3
Filename D:\Media\Audio\Rips\Delvon Lamarr Organ Trio - Close But No Cigar (2018) [FLAC] {CLMN 12019}\03 - Ain't It Funky.wav
Peak level 96.5 %
Extraction speed 5.0 X
Track quality 100.0 %
Test CRC D418F7D0
Copy CRC D418F7D0
Track not present in AccurateRip database
Copy OK
Track 4
Filename D:\Media\Audio\Rips\Delvon Lamarr Organ Trio - Close But No Cigar (2018) [FLAC] {CLMN 12019}\04 - Close But No Cigar.wav
Peak level 95.7 %
Extraction speed 5.2 X
Track quality 100.0 %
Test CRC 1D7482D8
Copy CRC 1D7482D8
Track not present in AccurateRip database
Copy OK
Track 5
Filename D:\Media\Audio\Rips\Delvon Lamarr Organ Trio - Close But No Cigar (2018) [FLAC] {CLMN 12019}\05 - Memphis.wav
Peak level 95.6 %
Extraction speed 4.2 X
Track quality 99.9 %
Test CRC B3BF811E
Copy CRC B3BF811E
Track not present in AccurateRip database
Copy OK
Track 6
Filename D:\Media\Audio\Rips\Delvon Lamarr Organ Trio - Close But No Cigar (2018) [FLAC] {CLMN 12019}\06 - Al Greenery.wav
Peak level 96.0 %
Extraction speed 5.8 X
Track quality 100.0 %
Test CRC 14650373
Copy CRC 14650373
Track not present in AccurateRip database
Copy OK
Track 7
Filename D:\Media\Audio\Rips\Delvon Lamarr Organ Trio - Close But No Cigar (2018) [FLAC] {CLMN 12019}\07 - Can I Change My Mind.wav
Peak level 96.3 %
Extraction speed 6.2 X
Track quality 100.0 %
Test CRC 4A2C57A6
Copy CRC 4A2C57A6
Track not present in AccurateRip database
Copy OK
Track 8
Filename D:\Media\Audio\Rips\Delvon Lamarr Organ Trio - Close But No Cigar (2018) [FLAC] {CLMN 12019}\08 - Between the Mustard & The Mayo.wav
Peak level 97.3 %
Extraction speed 6.5 X
Track quality 100.0 %
Test CRC 29968F08
Copy CRC 29968F08
Track not present in AccurateRip database
Copy OK
Track 9
Filename D:\Media\Audio\Rips\Delvon Lamarr Organ Trio - Close But No Cigar (2018) [FLAC] {CLMN 12019}\09 - Raymond Brings The Greens.wav
Peak level 95.6 %
Extraction speed 6.4 X
Track quality 100.0 %
Test CRC 028584EA
Copy CRC 028584EA
Track not present in AccurateRip database
Copy OK
Track 10
Filename D:\Media\Audio\Rips\Delvon Lamarr Organ Trio - Close But No Cigar (2018) [FLAC] {CLMN 12019}\10 - Walk On By.wav
Peak level 96.9 %
Extraction speed 7.0 X
Track quality 100.0 %
Test CRC E4E50A44
Copy CRC E4E50A44
Track not present in AccurateRip database
Copy OK
None of the tracks are present in the AccurateRip database
No errors occurred
End of status report
---- CUETools DB Plugin V2.1.6
[CTDB TOCID: _4_w3HQlzle7CWdr3IuPaVwX.Fs-] disk not present in database
Submit result: _4_w3HQlzle7CWdr3IuPaVwX.Fs- has been uploaded
==== Log checksum 73E044B6F9040D85A39ECE99FD28162671353403317AE7F23C0B8D4899EF2396 ====
 
Содержание индексной карты (.CUE)
REM GENRE Soul
REM DATE 2018
REM DISCID 8809970A
REM COMMENT "ExactAudioCopy v1.3"
PERFORMER "Delvon Lamarr Organ Trio"
TITLE "Close But No Cigar"
REM COMPOSER ""
FILE "01 - Concussion.wav" WAVE
TRACK 01 AUDIO
TITLE "Concussion"
PERFORMER "Delvon Lamarr Organ Trio"
REM COMPOSER ""
ISRC EM7251745434
INDEX 01 00:00:00
FILE "02 - Little Booker T.wav" WAVE
TRACK 02 AUDIO
TITLE "Little Booker T"
PERFORMER "Delvon Lamarr Organ Trio"
REM COMPOSER ""
INDEX 01 00:00:00
FILE "03 - Ain't It Funky.wav" WAVE
TRACK 03 AUDIO
TITLE "Ain't It Funky"
PERFORMER "Delvon Lamarr Organ Trio"
REM COMPOSER ""
INDEX 01 00:00:00
FILE "04 - Close But No Cigar.wav" WAVE
TRACK 04 AUDIO
TITLE "Close But No Cigar"
PERFORMER "Delvon Lamarr Organ Trio"
REM COMPOSER ""
INDEX 01 00:00:00
FILE "05 - Memphis.wav" WAVE
TRACK 05 AUDIO
TITLE "Memphis"
PERFORMER "Delvon Lamarr Organ Trio"
REM COMPOSER ""
ISRC EM7251745435
INDEX 01 00:00:00
FILE "06 - Al Greenery.wav" WAVE
TRACK 06 AUDIO
TITLE "Al Greenery"
PERFORMER "Delvon Lamarr Organ Trio"
REM COMPOSER ""
INDEX 01 00:00:00
FILE "07 - Can I Change My Mind.wav" WAVE
TRACK 07 AUDIO
TITLE "Can I Change My Mind?"
PERFORMER "Delvon Lamarr Organ Trio"
REM COMPOSER ""
INDEX 01 00:00:00
FILE "08 - Between the Mustard & The Mayo.wav" WAVE
TRACK 08 AUDIO
TITLE "Between the Mustard & The Mayo"
PERFORMER "Delvon Lamarr Organ Trio"
REM COMPOSER ""
INDEX 01 00:00:00
FILE "09 - Raymond Brings The Greens.wav" WAVE
TRACK 09 AUDIO
TITLE "Raymond Brings The Greens"
PERFORMER "Delvon Lamarr Organ Trio"
REM COMPOSER ""
INDEX 01 00:00:00
FILE "10 - Walk On By.wav" WAVE
TRACK 10 AUDIO
TITLE "Walk On By"
PERFORMER "Delvon Lamarr Organ Trio"
REM COMPOSER ""
INDEX 01 00:00:00
 
Об альбоме
Early March brought a strong debut album by Seattle’s Delvon Lamarr Organ Trio, featuring guitarist Jimmy James, drummer David McGraw, and of course Lamarr on B-3. This group performs standard organ trio fare, and has obviously honed its own approach by careful listening to masters of the format.
There are two sides to the organ trio format, one represented by bebop-heavy shredders like Joey Defrancesco and another more gospel-inflected soulful camp, influenced by players like Jimmy McGriff. Lamarr’s group decidedly falls into the latter, a detail that would be noticeable from a passing glance at Close But No Cigar’s tracklist. Tunes include “Little Booker T” and “Memphis,” both reminiscent of the legendary soul organist Booker T Jones’s work for the Stax label, as well as “Al Greenery,” a number that approximates the gospel sound of the titular Rev. Green.
Lamarr and company are very good at imitating the grooves of famous musicians, but the group has more than imitative works up its collective sleeves. Each tune on this record is drenched in hot buttered soul, as culinary-themed groovers like “Between the Mayo and the Mustard” and “Raymond Brings the Greens” would suggest. These tracks are riff-based organ jams that feature not only Lamarr’s skillful mastery of the percussive qualities of his instrument, but also skillful manipulation of two chord vamps by James and McGraw and some downright delicious soloing by James (including what sounds like a quote from David Bowie’s “The Man Who Sold The World” on the latter).
Organ trios are all about timbre, combining three instruments with myriad layers of overtones, and this group features great tones all around. It’s impossible to beat the rich sound of Lamarr’s B3 contrasting James’s biting guitar tone over McGraw’s colorful palate on the drum kit. No player appears to aim for virtuosic soloing. Rather, the group simmers its grooves, entering and exiting smoothly—the solos end but the jams go on.
The record concludes with a retro-soul rendition of Dionne Warwick’s “Walk on By” that sounds like it could have been recorded by the legendary Stax studio band itself. All in all, the Delvon Lamarr Organ Trio doesn’t make any radical changes to the organ trio format, but Close But No Cigar is a worthy entry in this always listenable genre.
(Matthew Alley, blackgrooves.org)
 
Состав

Delvon Lamarr - organ
Jimmy James - guitar
David McGraw - drums
Приватный:
Нет (DHT включён)
Размер:
250.65 Мб (262,821,593 байт) » файлов: 18
Участники:
0 раздают, 0 качают (0 участников всего)
Внешние участники:
29 раздают, 10 качают (39 участников всего) [ Обновить ]
Есть вопросы - пишите личное сообщение пользователю M0p94ok.
15:45
68
Нет комментариев. Ваш будет первым!